Tags
Language
Tags

Paco De Lucia - Lo Mejor Del Paco De Lucia Sextet (2000) {Altaya}

Posted By: tiburon
Paco De Lucia - Lo Mejor Del Paco De Lucia Sextet (2000) {Altaya}

Paco De Lucia - Lo Mejor Del Paco De Lucia Sextet (2000) {Altaya}
EAC 1.0b3 | FLAC tracks level 8 | Cue+Log+M3U | Full Scans 600dpi | 366MB + 5% Recovery
MP3 CBR 320 Kbps | 167MB + 5% Recovery
Genre: Jazz, Flamenco

The Paco de Lucía Sextet is a flamenco music sextet, formed by renowned guitarist Paco de Lucía and other musicians. The band has released three albums. In 1990 Paco de Lucia released Zyryab, an album made with his sextet and also featuring jazz pianist Chick Corea.
Track List
01. Convite 3:57
02. Chanela 3:55
03. Palenque 4:53
04. Chiquito 5:55
05. Solo Quiero Caminar 9:50
06. Alta Mar 11:40
07. Alcázar de Sevilla 8:54
08. Buana Buana King Kong 5:14
09. Peroche 6:28
10. Na Más Que'r Día 3:14

musicians
Paco de Lucía - flamenco guitar
Carles Benavent - bass
Jorge Pardo - flute, soprano sax
Rubem Dantas - percussion
Ramón de Algeciras - guitar
Pepe de Lucía - rhythm guitar


Exact Audio Copy V1.0 beta 3 from 29. August 2011

EAC extraction logfile from 9. November 2015, 20:57

Paco de Lucia / Lo Mejor del Paco de Lucia Sextet

Used drive : HL-DT-STDVDRAM GSA-H10N Adapter: 0 ID: 1

Read mode : Secure
Utilize accurate stream : Yes
Defeat audio cache : Yes
Make use of C2 pointers : No

Read offset correction : 667
Overread into Lead-In and Lead-Out : No
Fill up missing offset samples with silence : Yes
Delete leading and trailing silent blocks : No
Null samples used in CRC calculations : Yes
Used interface : Native Win32 interface for Win NT & 2000
Gap handling : Appended to previous track

Used output format : User Defined Encoder
Selected bitrate : 896 kBit/s
Quality : High
Add ID3 tag : No
Command line compressor : C:\Program Files\Exact Audio Copy\Flac\flac.exe
Additional command line options : -8 -V -T "ARTIST=%artist%" -T "TITLE=%title%" -T "ALBUM=%albumtitle%" -T "DATE=%year%" -T "TRACKNUMBER=%tracknr%" -T "TOTALTRACKS=%numtracks%" -T "GENRE=%genre%" -T "ALBUMARTIST=%albumartist%" -T "ALBUM ARTIST=%albumartist%" -T "COMMENT=EAC Secure Mode, Test & Copy, AccurateRip, FLAC -8" %source%


TOC of the extracted CD

Track | Start | Length | Start sector | End sector
––––––––––––––––––––––––––––-
1 | 0:00.00 | 4:01.16 | 0 | 18090
2 | 4:01.16 | 4:04.14 | 18091 | 36404
3 | 8:05.30 | 4:58.67 | 36405 | 58821
4 | 13:04.22 | 6:01.57 | 58822 | 85953
5 | 19:06.04 | 9:55.34 | 85954 | 130612
6 | 29:01.38 | 11:45.04 | 130613 | 183491
7 | 40:46.42 | 8:59.40 | 183492 | 223956
8 | 49:46.07 | 5:19.66 | 223957 | 247947
9 | 55:05.73 | 6:33.47 | 247948 | 277469
10 | 61:39.45 | 3:15.66 | 277470 | 292160


Track 1

Filename D:\EAC-Ripeos\01 - Convite.wav

Pre-gap length 0:00:02.00

Peak level 100.0 %
Extraction speed 4.5 X
Track quality 100.0 %
Test CRC A6ADF130
Copy CRC A6ADF130
Track not present in AccurateRip database
Copy OK

Track 2

Filename D:\EAC-Ripeos\02 - Chanela.wav

Pre-gap length 0:00:02.00

Peak level 100.0 %
Extraction speed 5.0 X
Track quality 100.0 %
Test CRC E3A25A65
Copy CRC E3A25A65
Track not present in AccurateRip database
Copy OK

Track 3

Filename D:\EAC-Ripeos\03 - Palenque.wav

Pre-gap length 0:00:02.00

Peak level 96.7 %
Extraction speed 4.7 X
Track quality 99.9 %
Test CRC 0105A393
Copy CRC 0105A393
Track not present in AccurateRip database
Copy OK

Track 4

Filename D:\EAC-Ripeos\04 - Chiquito.wav

Pre-gap length 0:00:02.00

Peak level 100.0 %
Extraction speed 6.1 X
Track quality 100.0 %
Test CRC 771F1183
Copy CRC 771F1183
Track not present in AccurateRip database
Copy OK

Track 5

Filename D:\EAC-Ripeos\05 - Solo Quiero Caminar.wav

Pre-gap length 0:00:02.00

Peak level 100.0 %
Extraction speed 7.0 X
Track quality 100.0 %
Test CRC 9E2BAED3
Copy CRC 9E2BAED3
Track not present in AccurateRip database
Copy OK

Track 6

Filename D:\EAC-Ripeos\06 - Alta Mar.wav

Pre-gap length 0:00:02.00

Peak level 100.0 %
Extraction speed 7.9 X
Track quality 100.0 %
Test CRC D1654A38
Copy CRC D1654A38
Track not present in AccurateRip database
Copy OK

Track 7

Filename D:\EAC-Ripeos\07 - Alcazar De Sevilla.wav

Pre-gap length 0:00:02.00

Peak level 88.1 %
Extraction speed 5.1 X
Track quality 100.0 %
Test CRC 050E9383
Copy CRC 050E9383
Track not present in AccurateRip database
Copy OK

Track 8

Filename D:\EAC-Ripeos\08 - Buana Buana King Kong.wav

Pre-gap length 0:00:02.00

Peak level 88.1 %
Extraction speed 5.0 X
Track quality 100.0 %
Test CRC 920AB8ED
Copy CRC 920AB8ED
Track not present in AccurateRip database
Copy OK

Track 9

Filename D:\EAC-Ripeos\09 - Peroche.wav

Pre-gap length 0:00:02.00

Peak level 98.8 %
Extraction speed 5.3 X
Track quality 100.0 %
Test CRC 4B34C573
Copy CRC 4B34C573
Track not present in AccurateRip database
Copy OK

Track 10

Filename D:\EAC-Ripeos\10 - Na Mas Quer Dia.wav

Pre-gap length 0:00:02.00

Peak level 69.5 %
Extraction speed 4.5 X
Track quality 99.9 %
Test CRC 6851C86A
Copy CRC 6851C86A
Track not present in AccurateRip database
Copy OK


None of the tracks are present in the AccurateRip database

No errors occurred

End of status report

==== Log checksum AA9CB8D886CB1ADCF9D9B25A137E4625E027413124BE52E863BA541D23587FBD ====


––––––––––––––––––––––––––––––––––––––––
Analyzed: Paco de Lucia / Lo Mejor del Paco de Lucia Sextet
––––––––––––––––––––––––––––––––––––––––

DR Peak RMS Duration Track
––––––––––––––––––––––––––––––––––––––––
DR13 0.00 dB -14.75 dB 4:01 01-Convite
DR14 0.00 dB -16.05 dB 4:04 02-Chanela
DR13 -0.29 dB -16.73 dB 4:59 03-Palenque
DR17 0.00 dB -20.50 dB 6:02 04-Chiquito
DR19 0.00 dB -22.44 dB 9:55 05-Solo Quiero Caminar
DR16 0.00 dB -19.40 dB 11:45 06-Alta Mar
DR16 -1.10 dB -20.80 dB 9:00 07-Alcazar De Sevilla
DR17 -1.10 dB -20.34 dB 5:20 08-Buana Buana King Kong
DR18 -0.10 dB -21.10 dB 6:34 09-Peroche
DR10 -3.15 dB -14.71 dB 3:16 10-Na Mas Quer Dia
––––––––––––––––––––––––––––––––––––––––

Number of tracks: 10
Official DR value: DR15

Samplerate: 44100 Hz
Channels: 2
Bits per sample: 16
Bitrate: 918 kbps
Codec: FLAC
================================================================================

Paco De Lucia - Lo Mejor Del Paco De Lucia Sextet (2000) {Altaya}
Paco De Lucia - Lo Mejor Del Paco De Lucia Sextet (2000) {Altaya}
Paco De Lucia - Lo Mejor Del Paco De Lucia Sextet (2000) {Altaya}


Thanks to the original ripper