Subcategories

Paco de Lucia - Paco de Lucia por Descubrir (2000) {Altaya‎}

Posted By: tiburon
Paco de Lucia - Paco de Lucia por Descubrir (2000) {Altaya‎}

Paco de Lucia - Paco de Lucia por Descubrir (2000) {Altaya‎}
EAC 1.0b3 | FLAC tracks level 8 | Cue+Log+M3U | Full Scans 300dpi | 329MB + 5% Recovery
MP3 CBR 320 Kbps | 151MB + 5% Recovery
Genre: Flamenco, Ethnic Fusion

Hijo de Antonio Sánchez Pecino, de madre portuguesa y hermano del cantaor Pepe de Lucía. "Mi padre se iba a buscar la vida por las noches a las fiestas y siempre amanecía en casa con flamencos; mi hermano Pepe y mi hermana María también desde chiquitos han estado vinculados a este mundo. Vivíamos en La Bajadilla, un barrio muy gitano, siempre había alguien en casa cantando o tocando." Comenzó sus estudios de guitarra a los seis años. «A mi padre se lo debo todo pues me obligó a tocar desde niño cuando uno no tiene capacidad para decidir lo que quiere ser en la vida y necesitas a alguien que te empuje y te señale el camino. Eso fue lo que él hizo, entre otras cosas porque no tenía dinero para mandarme a la escuela. Tuve que buscar trabajo y llevar un sueldo a la casa». A los trece años viaja por primera vez a Norteamérica como tercer guitarrista de la "Compañía del ballet clásico-español de José Greco". Conoce al cantaor Fosforito, al que acompañó por primera vez en una actuación en Salamanca. Conoce también a Camarón de la Isla y Paco de Lucía, recuerda aquella etapa como una de las más bonitas de su vida, "estábamos tocando y cantando a todas horas, noches enteras inventando cosas". Su pareja artística con Camarón de la Isla, con quien firmó varios discos de notable éxito entre 1969 y 1979, marcó la historia del flamenco para siempre. Con prestigio en el mundo de la música popular, del flamenco y del rock más purista por su colaboración con guitarristas como Larry Coryell, John McLaughin o Al di Meola. Abrió el flamenco a al jazz y el blues. Fue en el año 1973, con la rumba "Entre dos aguas" cuando apareció la línea divisoria entre un antes y un después de la guitarra flamenca. En el año 1982 tocó con Chick Corea en giras por Estados Unidos y Japón. Grabó bandas sonoras para el cine. El guitarrista fue galardonado con el Premio Príncipe de Asturias de las Artes 2004. El 8 de mayo de 2010 es primer artista español investido doctor honoris causa por el Berklee College of Music, universidad de Boston (Massachusetts, EE UU). En noviembre de 2012 fue galardonado con el segundo Grammy Latino de su carrera, tras obtener el galardón al mejor álbum de música flamenca por su disco En vivo conciertos España 2010. De Lucía, ya había ganado ese mismo galardón en 2004 por Cositas buenas. Paco de Lucía falleció el 26 de febrero de 2014 en México. El artista se encontraba jugando con sus hijos en una playa en Cancún, donde poseía una casa, cuando se sintió súbitamente indispuesto muriendo de camino al hospital a causa de un infarto. Tenía su residencia en Palma de Mallorca, tras su paso por lugares como la Península del Yucatán o Toledo. En sus últimos tiempos también residió en Cuba.
Track List
01. Esencia Gitana 3:36
02. El Puerto 3:44
03. Rumba Improvisada 4:11
04. Taconeo Gitano 3:04
05. Mediterranean Sundance 5:14
06. Un Mundo De Colores 4:26
07. Palenque 7:25
08. Querido Metheny 9:28
09. A Los Ninos Que Sutren 5:26
10. Gabarre 4:52
11. Viejos Tiempos 4:55
12. Sevillanas A Dos Guitarras 3:12

musicians
Paco De Lucíia
Jose Maria Bandera
Juan Manuel Cañizares
Enrique Jiménez
Isidro De Sanlucar
Julio Vallejo
Paco Cepero
Ramón De Algeciras
Al Di Meola
El Potito
Larry Coryell
Vicente Amigo
El Viejín
Juan Carmona "Habichuela"
Enrique Melchor
Viejos Tiempos
Manolo Sanlúc


Exact Audio Copy V1.0 beta 3 from 29. August 2011

EAC extraction logfile from 23. February 2013, 13:10

Paco de Lucia / Paco de Lucia por Descubrir

Used drive : HL-DT-STDVDRAM GH20NS10 Adapter: 2 ID: 1

Read mode : Secure
Utilize accurate stream : Yes
Defeat audio cache : Yes
Make use of C2 pointers : No

Read offset correction : 667
Overread into Lead-In and Lead-Out : No
Fill up missing offset samples with silence : Yes
Delete leading and trailing silent blocks : No
Null samples used in CRC calculations : Yes
Used interface : Native Win32 interface for Win NT & 2000
Gap handling : Appended to previous track

Used output format : User Defined Encoder
Selected bitrate :10246 kBit/s
Quality : High
Add ID3 tag : No
Command line compressor : C:\Program Files\FLAC\flac.exe
Additional command line options : -8 -V -T "ARTIST=%artist%" -T "TITLE=%title%" -T "ALBUM=%albumtitle%" -T "DATE=%year%" -T "TRACKNUMBER=%tracknr%" -T "TOTALTRACKS=%numtracks%" -T "GENRE=%genre%" -T "ALBUMARTIST=%albumartist%" -T "ALBUM ARTIST=%albumartist%" -T "COMMENT=EAC Secure Mode, Test & Copy, AccurateRip, FLAC -8" %source%


TOC of the extracted CD

Track | Start | Length | Start sector | End sector
––––––––––––––––––––––––––––-
1 | 0:00.00 | 3:36.27 | 0 | 16226
2 | 3:36.27 | 3:46.08 | 16227 | 33184
3 | 7:22.35 | 4:11.00 | 33185 | 52009
4 | 11:33.35 | 3:04.52 | 52010 | 65861
5 | 14:38.12 | 5:14.40 | 65862 | 89451
6 | 19:52.52 | 4:29.09 | 89452 | 109635
7 | 24:21.61 | 7:25.30 | 109636 | 143040
8 | 31:47.16 | 9:30.59 | 143041 | 185849
9 | 41:18.00 | 5:28.00 | 185850 | 210449
10 | 46:46.00 | 4:54.56 | 210450 | 232555
11 | 51:40.56 | 4:57.12 | 232556 | 254842
12 | 56:37.68 | 3:14.29 | 254843 | 269421


Track 1

Filename D:\01 - Paco de Lucia - Esencia Gitana.wav

Pre-gap length 0:00:02.00

Peak level 98.8 %
Extraction speed 2.4 X
Track quality 100.0 %
Test CRC 7C4FCBFB
Copy CRC 7C4FCBFB
Accurately ripped (confidence 1) [BDBD0776] (AR v2)
Copy OK

Track 2

Filename D:\02 - Paco de Lucia-J.M. Bandera-J.M. Canizares - El Puerto.wav

Pre-gap length 0:00:02.00

Peak level 64.5 %
Extraction speed 3.3 X
Track quality 99.9 %
Test CRC 73E3FAFB
Copy CRC 73E3FAFB
Accurately ripped (confidence 1) [A31D37A0] (AR v2)
Copy OK

Track 3

Filename D:\03 - Paco de Lucia y Quinteto de cuerdas - Rumba Improvisada.wav

Pre-gap length 0:00:02.00

Peak level 88.1 %
Extraction speed 4.7 X
Track quality 99.9 %
Test CRC 233AED01
Copy CRC 233AED01
Accurately ripped (confidence 1) [7BB3BBD2] (AR v2)
Copy OK

Track 4

Filename D:\04 - Paco de Lucia y Ramon de Algeciras - Taconeo Gitano.wav

Pre-gap length 0:00:01.74

Peak level 88.1 %
Extraction speed 5.4 X
Track quality 100.0 %
Test CRC 3185A0CB
Copy CRC 3185A0CB
Accurately ripped (confidence 1) [731872F7] (AR v2)
Copy OK

Track 5

Filename D:\05 - Paco de Lucia y Al Di Meola - Mediterranean Sundance.wav

Pre-gap length 0:00:02.00

Peak level 80.7 %
Extraction speed 5.4 X
Track quality 100.0 %
Test CRC 170279FA
Copy CRC 170279FA
Accurately ripped (confidence 1) [8F3D667D] (AR v2)
Copy OK

Track 6

Filename D:\06 - Paco de Lucia y El Potito - Un Mundo De Colores.wav

Pre-gap length 0:00:02.00

Peak level 96.0 %
Extraction speed 6.7 X
Track quality 100.0 %
Test CRC 4B970227
Copy CRC 4B970227
Accurately ripped (confidence 1) [BFAA7ED2] (AR v2)
Copy OK

Track 7

Filename D:\07 - Paco de Lucia y Larry Coryell - Palenque.wav

Pre-gap length 0:00:02.00

Peak level 100.0 %
Extraction speed 6.7 X
Track quality 100.0 %
Test CRC 904DADA9
Copy CRC 904DADA9
Accurately ripped (confidence 1) [3AD218D5] (AR v2)
Copy OK

Track 8

Filename D:\08 - Paco de Lucia y Vicente Amigo - Querido Metheny.wav

Pre-gap length 0:00:02.00

Peak level 97.7 %
Extraction speed 7.3 X
Track quality 100.0 %
Test CRC 16B36CF7
Copy CRC 16B36CF7
Accurately ripped (confidence 1) [712263A7] (AR v2)
Copy OK

Track 9

Filename D:\09 - Paco de Lucia y El Viejin - A Los Ninos Que Sutren.wav

Pre-gap length 0:00:02.00

Peak level 98.1 %
Extraction speed 6.5 X
Track quality 99.9 %
Test CRC 1588D5DF
Copy CRC 1588D5DF
Accurately ripped (confidence 1) [0F414CFF] (AR v2)
Copy OK

Track 10

Filename D:\10 - Paco de Lucia y Juan Habichuela - Gabarre.wav

Pre-gap length 0:00:02.00

Peak level 62.0 %
Extraction speed 7.7 X
Track quality 100.0 %
Test CRC CDD63998
Copy CRC CDD63998
Accurately ripped (confidence 1) [CF5BD822] (AR v2)
Copy OK

Track 11

Filename D:\11 - Paco de Lucia y Enrique de Melchor - Viejos Tiempos.wav

Pre-gap length 0:00:02.00

Peak level 100.0 %
Extraction speed 6.6 X
Track quality 99.9 %
Test CRC D9F1D338
Copy CRC D9F1D338
Accurately ripped (confidence 1) [80CA67AA] (AR v2)
Copy OK

Track 12

Filename D:\12 - Paco de Lucia y Manolo Sanlucar - Sevillanas A Dos Guitarras.wav

Pre-gap length 0:00:02.00

Peak level 99.7 %
Extraction speed 4.9 X
Track quality 100.0 %
Test CRC A5A5A44D
Copy CRC A5A5A44D
Accurately ripped (confidence 1) [384BB8C9] (AR v2)
Copy OK


All tracks accurately ripped

No errors occurred

End of status report


==== Log checksum CF7051708CD91EDCFCF0D1B5DF037141C177395CD971FC8E4EAE5A95B4C6624A ====

Paco de Lucia - Paco de Lucia por Descubrir (2000) {Altaya‎}
Paco de Lucia - Paco de Lucia por Descubrir (2000) {Altaya‎}