Tags
Language
Tags

Paolo Fresu - Vinodentro (2013) {Tuk Music}

Posted By: tiburon
Paolo Fresu - Vinodentro (2013) {Tuk Music}

Paolo Fresu - Vinodentro (2013) {Tuk Music}
EAC 1.0b3 | FLAC tracks level 8 | Cue+Log+M3U | Full Scans 600dpi | 314MB + 5% Recovery
MP3 CBR 320 Kbps | 113MB + 5% Recovery
Genre: Jazz, Classical, Soundtrack
Paolo Fresu - Vinodentro (2013) {Tuk Music}

E via, tutti a dire: "il jazz incontra la classica" e viceversa, "Fresu lirico", "il trombettista sardo improvvisa sui canoni classici" e così ruzzolando nella banalità menzognera. La prima verità è che "Vinodentro" è una colonna sonora dell'omonimo film di Ferdinando Vicentini Orgnani, che ha nel cast Giovanna Mezzogiorno e Vincenzo Amato. La seconda è che Fresu non è nuovo a lavori di questo tenore musicale: l'elenco sarebbe troppo lungo e tedioso.
Track List
01. Calmo 3:53
02. Martango (take one) 3:29
03. Dolomiti's Sky 2:22
04. Vals de soeurs belles et sages 5:03
05. Rarefatto 0:58
06. Fuga 2:11
07. Martango (take two) 2:57
08. Classico 5:23
09. La vision del bipede 2:14
10. Fin ch'an dal vino (W.A. Mozart) 1:27
11. Fermo (Paolo Fresu-Daniele di Bonaventura) 2:36
12. Mediterraneo 5:38
13. Trance meditativa 1:08
14. Martango (take three) 1:34
15. Mosso 2:48
16. Maldamina, il catalogo è questo (W.A. Mozart) 5:28

musicians
Paolo Fresu - trumpet, flugelhorn, electronic effects, piano
Daniele Di Bonaventura - bandoneon, piano
Michael Anger - percussion, sampler

I Virtuosi Italian:
First violins: Alberto Martini, Constantin Beschieru, Elisabetta Fable, Carlo Menozzi, Matthew Marzaro
Second violins: Luca Falasca, Alberto Ambrosini, Ingrid Shilaku, Vinicio Capriotti
Violas: Flavio Ghilardi Alessandro Pandolfi, Ciro Chiapponi
Cellos: Leonardo Sapere, Giordano Pegoraro, Tiziana Gasparoni
Bass: Rino Braia

Produced by Paolo Fresu


Exact Audio Copy V1.0 beta 3 from 29. August 2011

EAC extraction logfile from 16. April 2016, 16:43

Paolo Fresu / Vinodentro

Used drive : PLEXTOR DVDR PX-L890SA Adapter: 5 ID: 1

Read mode : Secure
Utilize accurate stream : Yes
Defeat audio cache : Yes
Make use of C2 pointers : No

Read offset correction : 6
Overread into Lead-In and Lead-Out : No
Fill up missing offset samples with silence : Yes
Delete leading and trailing silent blocks : No
Null samples used in CRC calculations : Yes
Used interface : Native Win32 interface for Win NT & 2000
Gap handling : Appended to previous track

Used output format : User Defined Encoder
Selected bitrate : 128 kBit/s
Quality : High
Add ID3 tag : No
Command line compressor : C:\Program Files (x86)\Exact Audio Copy\FLAC\FLAC.EXE
Additional command line options : -8 -V -T "ARTIST=%artist%" -T "TITLE=%title%" -T "ALBUM=%albumtitle%" -T "DATE=%year%" -T "TRACKNUMBER=%tracknr%" -T "TOTALTRACKS=%numtracks%" -T "GENRE=%genre%" -T "ALBUMARTIST=%albumartist%" -T "ALBUM ARTIST=%albumartist%" -T "COMMENT=EAC Secure Mode, Test & Copy, AccurateRip, FLAC -8" %source%


TOC of the extracted CD

Track | Start | Length | Start sector | End sector
––––––––––––––––––––––––––––-
1 | 0:00.00 | 3:54.39 | 0 | 17588
2 | 3:54.39 | 3:30.48 | 17589 | 33386
3 | 7:25.12 | 2:23.36 | 33387 | 44147
4 | 9:48.48 | 5:04.20 | 44148 | 66967
5 | 14:52.68 | 0:59.35 | 66968 | 71427
6 | 15:52.28 | 2:12.53 | 71428 | 81380
7 | 18:05.06 | 2:58.31 | 81381 | 94761
8 | 21:03.37 | 5:24.34 | 94762 | 119095
9 | 26:27.71 | 2:18.32 | 119096 | 129477
10 | 28:46.28 | 1:28.57 | 129478 | 136134
11 | 30:15.10 | 2:40.57 | 136135 | 148191
12 | 32:55.67 | 5:39.69 | 148192 | 173685
13 | 38:35.61 | 1:09.71 | 173686 | 178931
14 | 39:45.57 | 1:35.53 | 178932 | 186109
15 | 41:21.35 | 2:49.55 | 186110 | 198839
16 | 44:11.15 | 5:27.09 | 198840 | 223373


Track 1

Filename E:\01 - Calmo.wav

Pre-gap length 0:00:02.00

Peak level 69.6 %
Extraction speed 3.5 X
Track quality 100.0 %
Test CRC B6F972AB
Copy CRC B6F972AB
Accurately ripped (confidence 3) [2CA6A721] (AR v2)
Copy OK

Track 2

Filename E:\02 - Martango (take one).wav

Pre-gap length 0:00:02.00

Peak level 96.6 %
Extraction speed 3.8 X
Track quality 100.0 %
Test CRC 99D6128E
Copy CRC 99D6128E
Accurately ripped (confidence 3) [33941433] (AR v2)
Copy OK

Track 3

Filename E:\03 - Dolomiti's Sky.wav

Pre-gap length 0:00:02.00

Peak level 96.6 %
Extraction speed 3.8 X
Track quality 100.0 %
Test CRC 0641C8BE
Copy CRC 0641C8BE
Accurately ripped (confidence 3) [954E6863] (AR v2)
Copy OK

Track 4

Filename E:\04 - Vals des Soeurs belles et sages.wav

Pre-gap length 0:00:02.00

Peak level 96.6 %
Extraction speed 4.6 X
Track quality 100.0 %
Test CRC 22D0F7CB
Copy CRC 22D0F7CB
Accurately ripped (confidence 3) [D09A3EE0] (AR v2)
Copy OK

Track 5

Filename E:\05 - Rarefatto.wav

Pre-gap length 0:00:02.00

Peak level 41.0 %
Extraction speed 3.2 X
Track quality 100.0 %
Test CRC A7583D04
Copy CRC A7583D04
Accurately ripped (confidence 3) [0F6BB984] (AR v2)
Copy OK

Track 6

Filename E:\06 - Fuga.wav

Pre-gap length 0:00:02.00

Peak level 100.0 %
Extraction speed 4.3 X
Track quality 100.0 %
Test CRC 786C8E40
Copy CRC 786C8E40
Accurately ripped (confidence 3) [734096AF] (AR v2)
Copy OK

Track 7

Filename E:\07 - Martango (take two).wav

Pre-gap length 0:00:02.00

Peak level 96.6 %
Extraction speed 4.8 X
Track quality 100.0 %
Test CRC 8B495C6F
Copy CRC 8B495C6F
Accurately ripped (confidence 3) [1B1F9744] (AR v2)
Copy OK

Track 8

Filename E:\08 - Classico.wav

Pre-gap length 0:00:02.00

Peak level 97.1 %
Extraction speed 5.4 X
Track quality 100.0 %
Test CRC 2502771B
Copy CRC 2502771B
Accurately ripped (confidence 3) [45637FCE] (AR v2)
Copy OK

Track 9

Filename E:\09 - La visione del bipede.wav

Pre-gap length 0:00:02.00

Peak level 100.0 %
Extraction speed 3.5 X
Track quality 99.9 %
Test CRC 95AD13BC
Copy CRC 95AD13BC
Accurately ripped (confidence 3) [9109AC92] (AR v2)
Copy OK

Track 10

Filename E:\10 - Fin ch'han dal vino.wav

Pre-gap length 0:00:02.00

Peak level 96.6 %
Extraction speed 4.5 X
Track quality 100.0 %
Test CRC 8B510D06
Copy CRC 8B510D06
Accurately ripped (confidence 3) [E62108AE] (AR v2)
Copy OK

Track 11

Filename E:\11 - Fermo.wav

Pre-gap length 0:00:02.00

Peak level 57.7 %
Extraction speed 5.3 X
Track quality 100.0 %
Test CRC 87913710
Copy CRC 87913710
Accurately ripped (confidence 3) [7CD96300] (AR v2)
Copy OK

Track 12

Filename E:\12 - Mediterraneo.wav

Pre-gap length 0:00:02.00

Peak level 96.8 %
Extraction speed 5.3 X
Track quality 99.9 %
Test CRC 29977BA5
Copy CRC 29977BA5
Accurately ripped (confidence 2) [185C6C19] (AR v2)
Copy OK

Track 13

Filename E:\13 - Trance meditativa.wav

Pre-gap length 0:00:02.00

Peak level 100.0 %
Extraction speed 4.6 X
Track quality 100.0 %
Test CRC 39B5A802
Copy CRC 39B5A802
Accurately ripped (confidence 3) [E78514A7] (AR v2)
Copy OK

Track 14

Filename E:\14 - Martango (take three).wav

Pre-gap length 0:00:02.00

Peak level 96.7 %
Extraction speed 5.1 X
Track quality 100.0 %
Test CRC 5D090CD5
Copy CRC 5D090CD5
Accurately ripped (confidence 3) [2ADC8647] (AR v2)
Copy OK

Track 15

Filename E:\15 - Mosso.wav

Pre-gap length 0:00:02.00

Peak level 97.0 %
Extraction speed 6.0 X
Track quality 100.0 %
Test CRC C88C4505
Copy CRC C88C4505
Accurately ripped (confidence 3) [136CDFB4] (AR v2)
Copy OK

Track 16

Filename E:\16 - Madamina, il catalogo e' questo.wav

Pre-gap length 0:00:01.74

Peak level 96.6 %
Extraction speed 6.8 X
Track quality 100.0 %
Test CRC 840F1774
Copy CRC 840F1774
Accurately ripped (confidence 3) [9F4F8E82] (AR v2)
Copy OK


All tracks accurately ripped

No errors occurred

End of status report

==== Log checksum FBFBBEE786769875E225B6554374834D84D5749166497F029CCE3970CED78746 ====


––––––––––––––––––––––––––––––––––––––––
Analyzed: Paolo Fresu / Vinodentro
––––––––––––––––––––––––––––––––––––––––

DR Peak RMS Duration Track
––––––––––––––––––––––––––––––––––––––––
DR9 -3.15 dB -15.11 dB 3:55 01-Calmo
DR10 -0.30 dB -13.42 dB 3:31 02-Martango (take one)
DR11 -0.30 dB -16.90 dB 2:23 03-Dolomiti's Sky
DR9 -0.30 dB -13.86 dB 5:04 04-Vals des Soeurs belles et sages
DR10 -7.74 dB -22.87 dB 0:59 05-Rarefatto
DR7 0.00 dB -10.09 dB 2:13 06-Fuga
DR13 -0.30 dB -16.94 dB 2:58 07-Martango (take two)
DR9 -0.25 dB -13.74 dB 5:24 08-Classico
DR13 0.00 dB -17.40 dB 2:18 09-La visione del bipede
DR10 -0.30 dB -14.78 dB 1:29 10-Fin ch'han dal vino
DR11 -4.78 dB -20.25 dB 2:41 11-Fermo
DR10 -0.28 dB -14.24 dB 5:40 12-Mediterraneo
DR11 0.00 dB -13.26 dB 1:10 13-Trance meditativa
DR11 -0.29 dB -15.59 dB 1:36 14-Martango (take three)
DR9 -0.26 dB -12.40 dB 2:50 15-Mosso
DR10 -0.30 dB -14.96 dB 5:27 16-Madamina, il catalogo e' questo
––––––––––––––––––––––––––––––––––––––––

Number of tracks: 16
Official DR value: DR10

Samplerate: 44100 Hz
Channels: 2
Bits per sample: 16
Bitrate: 765 kbps
Codec: FLAC
================================================================================

Paolo Fresu - Vinodentro (2013) {Tuk Music}
Paolo Fresu - Vinodentro (2013) {Tuk Music}
Paolo Fresu - Vinodentro (2013) {Tuk Music}


Thanks to the original ripper