Subcategories

Pat Metheny Group - First Circle (1984) [Re-Up]

Posted By: Designol
Pat Metheny Group - First Circle (1984) [Re-Up]

Pat Metheny Group - First Circle (1984)
EAC | FLAC | Image (Cue&Log) ~ 320 Mb | Mp3 (CBR320) ~ 145 Mb | Scans included
Jazz Fusion, Contemporary Jazz | Label: ECM | # 823 342-2 | Time: 00:49:58

First Circle is a Grammy Award winning album by Pat Metheny Group released in 1984. On the album Pat Metheny is joined by Lyle Mays on piano and keyboards, Steve Rodby on bass, drummer Paul Wertico and vocalist and percussionist Pedro Aznar. The album won the Grammy Award for Best Jazz Fusion Performance in 1985. Pat Metheny has remarked that this is an important album in the Group's history for a number of reasons, among them being that the Group's core lineup on the album remained unchanged for over 15 years and it was the final Group album released on the ECM record label.

In First Circle, the Pat Metheny Group settled into a lineup that lasted for quite a while – with Metheny, keyboardist Lyle Mays, bassist Steve Rodby, and new drummer Paul Wertico forming the core quartet. The ever-restless Metheny also mixes up the music, not quite leaving the Brazilian glide behind but coming up with some fascinating permutations always affixed with his personal stamp. "Forward March," the album opener, is a bizarre parody full of detuned instruments and half-cocked trumpet from Mays; one wonders if this was directed at a few silly skirmishes of the day (Grenada? the Falklands?). "The First Circle" has Brazilian elements, but now in the service of a grander architectural context, while nothing could be simpler and yet more sophisticated than the delicate ballad "If I Could." "End of the Game" might be the best track on the record, equipped with a beautiful pop-flavored set of tunes and harmonies, with a rock beat fused to the floating ambience of South America as personified by the new Argentine percussionist/vocalist Pedro Aznar. "Praise," the closer, is an out-and-out rock tune, an affirmative flip side of "Forward March" and the last of a series of delightful surprises.

Review by Richard S. Ginell, Allmusic.com

Pat Metheny Group - First Circle (1984) [Re-Up]



Pat Metheny – guitar, Synclavier guitar, sitar, slide guitar, acoustic guitar, acoustic 12-string guitar
Lyle Mays – piano, synthesizers, Oberheim, agogô bells, organ, trumpet
Steve Rodby – acoustic and electric bass, bass drum
Paul Wertico – drums, field drum, cymbal
Pedro Aznar – glockenspiel, voice, bells, acoustic guitar,
percussion, whistle, guitar, acoustic 12-string guitar

Tracklist:

01. Forward March (02:49)
02. Yolanda, You Learn (04:49)
03. The First Circle (09:16)
04. If I Could (07:01)
05. Tell It All (07:59)
06. End Of The Game (08:02)
07. Mas Alla (Beyond) (05:40)
08. Praise (04:18)


Exact Audio Copy V1.0 beta 3 from 29. August 2011

EAC extraction logfile from 9. July 2015, 18:04

Pat Metheny Group / First Circle (823 342-2)

Used drive : HL-DT-STDVDRW GSA-S10N Adapter: 0 ID: 1

Read mode : Secure
Utilize accurate stream : Yes
Defeat audio cache : Yes
Make use of C2 pointers : No

Read offset correction : 667
Overread into Lead-In and Lead-Out : No
Fill up missing offset samples with silence : Yes
Delete leading and trailing silent blocks : No
Null samples used in CRC calculations : Yes
Used interface : Native Win32 interface for Win NT & 2000

Used output format : User Defined Encoder
Selected bitrate : 768 kBit/s
Quality : High
Add ID3 tag : No
Command line compressor : C:\Program Files\Exact Audio Copy 1\Flac\flac.exe
Additional command line options : -V -8 %source%


TOC of the extracted CD

Track | Start | Length | Start sector | End sector
––––––––––––––––––––––––––––-
1 | 0:00.33 | 2:49.52 | 33 | 12759
2 | 2:50.10 | 4:49.20 | 12760 | 34454
3 | 7:39.30 | 9:16.15 | 34455 | 76169
4 | 16:55.45 | 7:01.03 | 76170 | 107747
5 | 23:56.48 | 7:59.60 | 107748 | 143732
6 | 31:56.33 | 8:02.57 | 143733 | 179939
7 | 39:59.15 | 5:40.58 | 179940 | 205497
8 | 45:39.73 | 4:18.15 | 205498 | 224862


Range status and errors

Selected range

Filename C:\OdW\Pat Metheny Group (1984) First Circle (823 342-2)\Pat Metheny Group - First Circle (823 342-2).wav

Peak level 76.8 %
Extraction speed 2.2 X
Range quality 100.0 %
Test CRC 491EE08B
Copy CRC 491EE08B
Copy OK

No errors occurred


AccurateRip summary

Track 1 accurately ripped (confidence 75) [58858AA0] (AR v2)
Track 2 accurately ripped (confidence 77) [61856EAD] (AR v2)
Track 3 accurately ripped (confidence 77) [D066AC3A] (AR v2)
Track 4 accurately ripped (confidence 78) [7CECC5A9] (AR v2)
Track 5 accurately ripped (confidence 76) [31B3C609] (AR v2)
Track 6 accurately ripped (confidence 75) [616843F2] (AR v2)
Track 7 accurately ripped (confidence 78) [02D99C88] (AR v2)
Track 8 accurately ripped (confidence 78) [272C1B54] (AR v2)

All tracks accurately ripped

End of status report

==== Log checksum 1138C2A82D2A1546200A3E386017D581B812245DE33A3E8781CBA3AB6E4D5470 ====

foobar2000 1.2 / Dynamic Range Meter 1.1.1
log date: 2015-07-18 01:34:44

––––––––––––––––––––––––––––––––––––––––
Analyzed: Pat Metheny Group / First Circle (823 342-2)
––––––––––––––––––––––––––––––––––––––––

DR Peak RMS Duration Track
––––––––––––––––––––––––––––––––––––––––
DR14 -2.54 dB -19.98 dB 2:50 01-Forward March
DR12 -2.76 dB -17.52 dB 4:49 02-Yolanda, You Learn
DR11 -2.29 dB -17.48 dB 9:16 03-The First Circle
DR12 -8.21 dB -24.17 dB 7:01 04-If I Could
DR12 -4.35 dB -19.84 dB 8:00 05-Tell It All
DR13 -3.08 dB -19.98 dB 8:03 06-End Of The Game
DR11 -5.92 dB -21.48 dB 5:41 07-Mas Alla (Beyond)
DR12 -4.40 dB -18.72 dB 4:18 08-Praise
––––––––––––––––––––––––––––––––––––––––

Number of tracks: 8
Official DR value: DR12

Samplerate: 44100 Hz
Channels: 2
Bits per sample: 16
Bitrate: 812 kbps
Codec: FLAC
================================================================================

Pat Metheny Group - First Circle (1984) [Re-Up]

Pat Metheny Group - First Circle (1984) [Re-Up]

All thanks to original releaser - Olaf der Weisse

More interesting music in My Blog