Tags
Language
Tags
February 2023
Su Mo Tu We Th Fr Sa
29 30 31 1 2 3 4
5 6 7 8 9 10 11
12 13 14 15 16 17 18
19 20 21 22 23 24 25
26 27 28 1 2 3 4

Pat Metheny Group - The Falcon And The Snowman OST (1985) {EMI Manhattan}

Posted By: tiburon
Pat Metheny Group - The Falcon And The Snowman OST (1985) {EMI Manhattan}

Pat Metheny Group - The Falcon And The Snowman OST (1985) {EMI Manhattan}
EAC 1.0b3 | FLAC tracks level 8 | Cue+Log+M3U | Full Scans 300dpi | 211MB + 5% Recovery
MP3 CBR 320 Kbps | 100MB + 5% Recovery
Genre: Jazz, Fusion, Soundtrack
Pat Metheny Group - The Falcon And The Snowman OST (1985) {EMI Manhattan}

The Falcon and the Snowman is an album of original music for the soundtrack of the Orion Pictures film of the same title, composed and co-produced by Pat Metheny and Lyle Mays. The music is performed by the Pat Metheny Group with occasional orchestrations for strings. The exceptions are a male chorus featuring a young alto which bookends the album and "This Is Not America," a collaboration with David Bowie, credited as producer and co-composer, who performs lyrics for an arrangement of the theme heard in the track "Chris."
Track List
01. Psalm 121/Flight of the Falcon 4:09
02. Daulton Lee 5:59
03. Chris 3:21
04. "The Falcon" 5:02
05. This Is Not America 3:55
06. Extent Of The Lie 4:18
07. The Level Of Deception 5:49
08. Capture 4:03
09. Epilogue (Psalm 121) 2:16

All songs written by Pat Metheny & Lyle Mays except "This Is Not America", lyrics by David Bowie.

musicians
Pat Metheny Group:
Pat Metheny - guitar synthesizer, acoustic & electric guitars
Lyle Mays - synthesizers, piano
Steve Rodby - acoustic bass & electric basses
Paul Wertico - drums, percussion
Pedro Aznar - voice on "Daulton Lee" and "The Falcon"

National Philharmonic Orchestra (conducted by Steve Rodby) on "Flight of the Falcon", "Extent of the Lie", "The Level of Deception" and "Capture"
Ambrosian Choir (conducted by John McCarthy) on "Psalm 121" and "Epilogue (Psalm 121)"
David Bowie - vocals and lyricist on "This Is Not America"

Produced by Pat Metheny and David Bowie


Exact Audio Copy V1.0 beta 3 from 29. August 2011

EAC extraction logfile from 8. February 2013, 20:52

Pat Metheny Group / The Falcon and the Snowman

Used drive : PLEXTOR DVDR PX-L890SA Adapter: 2 ID: 1

Read mode : Secure
Utilize accurate stream : Yes
Defeat audio cache : Yes
Make use of C2 pointers : No

Read offset correction : 6
Overread into Lead-In and Lead-Out : No
Fill up missing offset samples with silence : Yes
Delete leading and trailing silent blocks : No
Null samples used in CRC calculations : Yes
Used interface : Native Win32 interface for Win NT & 2000
Gap handling : Appended to previous track

Used output format : User Defined Encoder
Selected bitrate : 256 kBit/s
Quality : High
Add ID3 tag : No
Command line compressor : C:\Program Files (x86)\Exact Audio Copy\FLAC\FLAC.EXE
Additional command line options : -8 -V -T "ARTIST=%artist%" -T "TITLE=%title%" -T "ALBUM=%albumtitle%" -T "DATE=%year%" -T "TRACKNUMBER=%tracknr%" -T "TOTALTRACKS=%numtracks%" -T "GENRE=%genre%" -T "ALBUMARTIST=%albumartist%" -T "ALBUM ARTIST=%albumartist%" -T "COMMENT=EAC Secure Mode, Test & Copy, AccurateRip, FLAC -8" %source%


TOC of the extracted CD

Track | Start | Length | Start sector | End sector
––––––––––––––––––––––––––––-
1 | 0:00.00 | 4:09.27 | 0 | 18701
2 | 4:09.27 | 5:59.15 | 18702 | 45641
3 | 10:08.42 | 3:21.10 | 45642 | 60726
4 | 13:29.52 | 5:02.25 | 60727 | 83401
5 | 18:32.02 | 3:55.73 | 83402 | 101099
6 | 22:28.00 | 4:18.02 | 101100 | 120451
7 | 26:46.02 | 5:49.05 | 120452 | 146631
8 | 32:35.07 | 4:03.20 | 146632 | 164876
9 | 36:38.27 | 2:16.70 | 164877 | 175146


Track 1

Filename F:\Flac Rips\01 - Psalm 121-Flight of the Falcon.wav

Pre-gap length 0:00:02.00

Peak level 100.0 %
Extraction speed 3.6 X
Track quality 100.0 %
Test CRC 43B6C140
Copy CRC 43B6C140
Accurately ripped (confidence 2) [8A1ECC7D] (AR v2)
Copy OK

Track 2

Filename F:\Flac Rips\02 - Daulton Lee.wav

Peak level 100.0 %
Extraction speed 3.7 X
Track quality 99.9 %
Test CRC 6DFEC70E
Copy CRC 6DFEC70E
Accurately ripped (confidence 2) [F53248E8] (AR v2)
Copy OK

Track 3

Filename F:\Flac Rips\03 - Chris.wav

Pre-gap length 0:00:02.70

Peak level 92.9 %
Extraction speed 4.4 X
Track quality 100.0 %
Test CRC 547CB5B3
Copy CRC 547CB5B3
Accurately ripped (confidence 2) [BD5EB88A] (AR v2)
Copy OK

Track 4

Filename F:\Flac Rips\04 - 'The Falcon'.wav

Pre-gap length 0:00:03.72

Peak level 80.8 %
Extraction speed 5.0 X
Track quality 100.0 %
Test CRC 35F7500B
Copy CRC 35F7500B
Accurately ripped (confidence 2) [0B93813C] (AR v2)
Copy OK

Track 5

Filename F:\Flac Rips\05 - This Is Not America.wav

Pre-gap length 0:00:01.55

Peak level 100.0 %
Extraction speed 5.1 X
Track quality 100.0 %
Test CRC 157A2A3E
Copy CRC 157A2A3E
Accurately ripped (confidence 2) [FB24747D] (AR v2)
Copy OK

Track 6

Filename F:\Flac Rips\06 - Extent of the Lie.wav

Pre-gap length 0:00:02.48

Peak level 84.0 %
Extraction speed 5.5 X
Track quality 100.0 %
Test CRC 824F7F77
Copy CRC 824F7F77
Accurately ripped (confidence 2) [4307CE52] (AR v2)
Copy OK

Track 7

Filename F:\Flac Rips\07 - The Level of Deception.wav

Pre-gap length 0:00:00.15

Peak level 83.7 %
Extraction speed 6.0 X
Track quality 100.0 %
Test CRC 24E81BEC
Copy CRC 24E81BEC
Accurately ripped (confidence 2) [24F6639F] (AR v2)
Copy OK

Track 8

Filename F:\Flac Rips\08 - Capture.wav

Pre-gap length 0:00:03.27

Peak level 83.9 %
Extraction speed 6.1 X
Track quality 100.0 %
Test CRC 3996B73C
Copy CRC 3996B73C
Accurately ripped (confidence 2) [5459F45F] (AR v2)
Copy OK

Track 9

Filename F:\Flac Rips\09 - Epilogue (Psalm 121).wav

Pre-gap length 0:00:02.67

Peak level 58.8 %
Extraction speed 5.7 X
Track quality 100.0 %
Test CRC A6322561
Copy CRC A6322561
Accurately ripped (confidence 2) [93E82BAA] (AR v2)
Copy OK


All tracks accurately ripped

No errors occurred

End of status report

==== Log checksum 6C117D8486E02EFB680B60242806E544878E82DBFCD2B58848E1E09D5433F8C6 ====


––––––––––––––––––––––––––––––––––––––––
Analyzed: Pat Metheny Group / The Falcon and the Snowman (1-4)
David Bowie & Pat Metheny Group / The Falcon and the Snowman (5)
Pat Metheny Group / The Falcon and the Snowman (6-9)
––––––––––––––––––––––––––––––––––––––––

DR Peak RMS Duration Track
––––––––––––––––––––––––––––––––––––––––
DR13 0.00 dB -19.08 dB 4:09 01-Psalm 121/Flight of the Falcon
DR14 0.00 dB -17.47 dB 5:59 02-Daulton Lee
DR13 -0.64 dB -15.39 dB 3:21 03-Chris
DR12 -1.85 dB -18.53 dB 5:02 04-'The Falcon'
DR15 0.00 dB -16.36 dB 3:56 05-This Is Not America
DR13 -1.51 dB -19.98 dB 4:18 06-Extent of the Lie
DR13 -1.54 dB -19.49 dB 5:49 07-The Level of Deception
DR13 -1.52 dB -19.94 dB 4:03 08-Capture
DR10 -4.61 dB -19.98 dB 2:17 09-Epilogue (Psalm 121)
––––––––––––––––––––––––––––––––––––––––

Number of tracks: 9
Official DR value: DR13

Samplerate: 44100 Hz
Channels: 2
Bits per sample: 16
Bitrate: 605 kbps
Codec: FLAC
================================================================================

Pat Metheny Group - The Falcon And The Snowman OST (1985) {EMI Manhattan}
Pat Metheny Group - The Falcon And The Snowman OST (1985) {EMI Manhattan}
Pat Metheny Group - The Falcon And The Snowman OST (1985) {EMI Manhattan}


Thanks to the original ripper