Subcategories

Peabo Bryson - Straight From The Heart (1984) {W.-Germany Target CD}

Posted By: BlondStyle
Peabo Bryson - Straight From The Heart (1984) {W.-Germany Target CD}

Peabo Bryson - Straight From The Heart (1984) {W.-Germany Target CD}
R&B, Soul, Pop, Electronic | EAC Rip | FLAC, Img+CUE+LOG+Scans (PNG) | 35:03 | 308,96 Mb
Label: Elektra/Asylum Records/PolyGram (W.-Germany) | Cat.# 9 60362-2 | Released: 1984-05-15
Peabo Bryson - Straight From The Heart (1984) {W.-Germany Target CD}

"Straight from the Heart" is the tenth full-length album by R&B/soul singer-songwriter Peabo Bryson. It was released in May 1984 on Elektra Records, his first of four discs for the label. The album peaked at #44 on the US Billboard 200, and featured three singles: his first top ten pop hit "If Ever You're in My Arms Again" (also #6 R&B, and #1 Adult contemporary), "Slow Dancin'" (#82 pop, #35 R&B), and "Learning the Ways of Love", which failed to chart. Bryson himself co-produced the record, as well as writing five of the eight songs himself and playing keyboards throughout the album.
~Wikipedia

Peabo Bryson - Straight From The Heart (1984) {W.-Germany Target CD}

Peabo Bryson - Straight From The Heart (1984) {W.-Germany Target CD}




Release of the album: 1984, May, 15 [LP Elektra, Cat.# 60362-1, USA]
Release of this CD: 1984 [CD Elektra/Asylum Records (W.-Germany for USA), Cat.# 9 60362-2 (60362-2) / UPC: 07559603622]
℗ 1984 Elektra/Asylum Records for the United States and WEA International Inc. for the world outside of the United States
Made in West Germany by Polygram (Disc)
Manufactured by Polygram in Hanover, West Germany
Printed in West Germany (Artwork)


Notes: Made in West Germany by Polygram for the U.S. market.

Credits:

Art Direction – HSU
Engineer – Bill Shnee (tracks: 2, 6), Mike Mancini (tracks: 2, 6), Richard Feldman (tracks: 5), Rick Kelly (tracks: 5), Rick Ricco (tracks: 2, 6), Russ Fowler (tracks: 1, 3, 4, 5, 7, 8)
Engineer [Assistant] – Don M. Radick (tracks: 1, 3, 4, 5, 7, 8)
Management – David M. Franklin And Associates, Ed Howard (4), Skip Williams
Mastered By – Jack Skinner
Mixed By – Dwight W. Watkins (tracks: 1, 3, 4, 5, 7, 8), Peabo Bryson (tracks: 1, 3, 4, 5, 7, 8), Russ Fowler (tracks: 1, 3, 4, 5, 7, 8)
Photography By – Beverly Parker
Remix – Dwight W. Watkins (tracks: B5), Peabo Bryson (tracks: 5), Russ Fowler (tracks: 5)


Tracklist:

01. Slow Dancin' (03:58)
(Peabo Bryson)
02. If Ever You're In My Arms Again (04:17)
(Michael Masser, Cynthia Weil, Tom Snow)
03. Straight From The Heart (04:38)
(Peabo Bryson)
04. There's No Getting Over You (La Theme De Sharon) (04:05)
(Peabo Bryson)
05. I Get Nervous (05:55)
(Richard Feldman, Larry John McNally, Rick Kelly)
06. Learning The Ways Of Love (03:14)
(Gerry Goffin, Michael Masser)
07. Real Deal (04:36)
(Peabo Bryson)
08. Love Means Forever (04:21)
(Peabo Bryson)

Exact Audio Copy V1.3 from 2. September 2016

EAC extraction logfile from 19. October 2018, 14:05

Peabo Bryson / Straight From The Heart

Used drive : PIONEER BD-RW BDR-208D Adapter: 1 ID: 0

Read mode : Secure
Utilize accurate stream : Yes
Defeat audio cache : Yes
Make use of C2 pointers : No

Read offset correction : 667
Overread into Lead-In and Lead-Out : No
Fill up missing offset samples with silence : Yes
Delete leading and trailing silent blocks : No
Null samples used in CRC calculations : Yes
Used interface : Native Win32 interface for Win NT & 2000

Used output format : Internal WAV Routines
Sample format : 44.100 Hz; 16 Bit; Stereo


TOC of the extracted CD

Track | Start | Length | Start sector | End sector
––––––––––––––––––––––––––––-
1 | 0:00.32 | 3:57.38 | 32 | 17844
2 | 3:57.70 | 4:16.55 | 17845 | 37099
3 | 8:14.50 | 4:38.12 | 37100 | 57961
4 | 12:52.62 | 4:04.68 | 57962 | 76329
5 | 16:57.55 | 5:54.67 | 76330 | 102946
6 | 22:52.47 | 3:13.60 | 102947 | 117481
7 | 26:06.32 | 4:35.40 | 117482 | 138146
8 | 30:41.72 | 4:21.35 | 138147 | 157756


Range status and errors

Selected range

Filename D:\BlondStyle\Peabo Bryson - Straight From The Heart.wav

Peak level 88.7 %
Extraction speed 3.9 X
Range quality 100.0 %
Test CRC 928C910A
Copy CRC 928C910A
Copy OK

No errors occurred


AccurateRip summary

Track 1 accurately ripped (confidence 7) [8A977E7E] (AR v2)
Track 2 accurately ripped (confidence 7) [ADD3C815] (AR v2)
Track 3 accurately ripped (confidence 7) [B0502E5B] (AR v2)
Track 4 accurately ripped (confidence 7) [1CD658D0] (AR v2)
Track 5 accurately ripped (confidence 7) [4E8EAA37] (AR v2)
Track 6 accurately ripped (confidence 7) [35A72D77] (AR v2)
Track 7 accurately ripped (confidence 7) [1B197EAD] (AR v2)
Track 8 accurately ripped (confidence 7) [17C8DC8A] (AR v2)

All tracks accurately ripped

End of status report

–– CUETools DB Plugin V2.1.6

[CTDB TOCID: yf4fvKVTBXJwgAZpA2dtEW7pfmE-] found
Submit result: yf4fvKVTBXJwgAZpA2dtEW7pfmE- has been confirmed
Track | CTDB Status
1 | (8/8) Accurately ripped
2 | (8/8) Accurately ripped
3 | (8/8) Accurately ripped
4 | (8/8) Accurately ripped
5 | (8/8) Accurately ripped
6 | (8/8) Accurately ripped
7 | (8/8) Accurately ripped
8 | (8/8) Accurately ripped


==== Log checksum 9590150EFC9297C58626559960EBDA9124EEA991E59455E77712AE040A70A353 ====

––––––––––––––––––––––––––––––––––––––––
Analyzed: Peabo Bryson / Straight From The Heart
––––––––––––––––––––––––––––––––––––––––

DR Peak RMS Duration Track
––––––––––––––––––––––––––––––––––––––––
DR13 -3.14 dB -18.65 dB 3:58 01-Slow Dancin'
DR13 -1.97 dB -18.95 dB 4:17 02-If Ever You're In My Arms Again
DR13 -4.25 dB -19.23 dB 4:38 03-Straight From The Heart
DR11 -5.84 dB -20.66 dB 4:05 04-There's No Getting Over You (La Theme De Sharon)
DR13 -2.55 dB -18.07 dB 5:55 05-I Get Nervous
DR13 -2.59 dB -20.77 dB 3:14 06-Learning The Ways Of Love
DR14 -1.04 dB -16.90 dB 4:36 07-Real Deal
DR13 -1.59 dB -17.73 dB 4:21 08-Love Means Forever
––––––––––––––––––––––––––––––––––––––––

Number of tracks: 8
Official DR value: DR13

Samplerate: 44100 Hz
Channels: 2
Bits per sample: 16
Bitrate: 794 kbps
Codec: FLAC
================================================================================

See also:

♫~Welcome To My Blog~♫

password: BlondStyle