Tags
Language
Tags

Pentangle, John Renbourn, Bert Jansch - Pentangling: The Collection (2004) 3 CDs Box Set [Re-Up]

Posted By: Designol
Pentangle, John Renbourn, Bert Jansch - Pentangling: The Collection (2004) 3 CDs Box Set [Re-Up]

Pentangle, John Renbourn, Bert Jansch - Pentangling: The Collection (2004)
EAC | FLAC | Image (Cue&Log) ~ 1.12 Gb | Mp3 (CBR320) ~ 477 Mb | Scans ~ 28 Mb | 03:29:06
British Folk-Rock, Psychedelic Folk, Folk-Prog | Label: Sanctuary | # SMETD129

Sanctuary's mammoth triple-disc Pentangle overview poses a bit of a dilemma. First of all, it's called Pentangling, which is already the name of a 1973 compilation, and secondly, while not deliberately misleading, it focuses more attention on the solo careers of John Renbourn and Bert Jansch than it does on the entity that supplies the collection's title. Despite these petty gripes, Pentangling is filled to the brim with some of the finest recordings the British folk movement had to offer, and hearing the group as a whole, followed by an entire disc – one apiece – of two of the genre's most gifted guitarists, is rewarding in more ways than one: both men, as well as the band, released material well into the 21st century, but Pentangling focuses only on their treasured late-'60s/early-'70s output. Listeners looking for a more comprehensive take on Pentangle would be better off with Castle's excellent Light Flight: The Anthology, and Renbourn and Jansch both have lovingly packaged retrospectives that fare better than the ones offered here, but as far as entry points go, Pentangling does more than skim the surface.

Review by James Christopher Monger, Allmusic.com

Pentangle, John Renbourn, Bert Jansch - Pentangling: The Collection (2004) 3 CDs Box Set [Re-Up]



Tracklist:

CD1 - Pentangle:

01. Travelling Song (3:01)
02. Waltz (5:04)
03. Pentangling (7:11)
04. Hear My Call (3:05)
05. Sweet Child (5:12)
06. I Loved a Lass (2:42)
07. In Your Mind (2:15)
08. Moondog (2:42)
09. Light Flight (3:15)
10. Once I Had A Sweetheart (4:39)
11. Sally Go Round The Roses (3:37)
12. Cold Mountain (2:00)
13. Lord Franklin (3:23)
14. Cruel Sistrer (7:01)
15. Reflection (11:13)
16. So Clear (4:52)
17. People On The Highway (4:42)


Exact Audio Copy V0.99 prebeta 4 from 23. January 2008

EAC extraction logfile from 17. December 2008, 2:49

Pentangle / Pentangling, The Collection (Disk 1 of 3)

Used drive : PIONEER DVD-RW DVR-112D Adapter: 1 ID: 1

Read mode : Secure
Utilize accurate stream : Yes
Defeat audio cache : Yes
Make use of C2 pointers : No

Read offset correction : 48
Overread into Lead-In and Lead-Out : No
Fill up missing offset samples with silence : Yes
Delete leading and trailing silent blocks : No
Null samples used in CRC calculations : Yes
Used interface : Native Win32 interface for Win NT & 2000

Used output format : Monkey's Audio Lossless Encoder
Selected bitrate : Normal Lossless Compression
Quality : High
Add ID3 tag : Yes
Command line compressor : C:\Program Files\Burrrn\MAC.exe


TOC of the extracted CD

Track | Start | Length | Start sector | End sector
––––––––––––––––––––––––––––-
1 | 0:00.00 | 3:00.73 | 0 | 13572
2 | 3:00.73 | 5:03.51 | 13573 | 36348
3 | 8:04.49 | 7:11.32 | 36349 | 68705
4 | 15:16.06 | 3:04.41 | 68706 | 82546
5 | 18:20.47 | 5:12.36 | 82547 | 105982
6 | 23:33.08 | 2:41.52 | 105983 | 118109
7 | 26:14.60 | 2:15.23 | 118110 | 128257
8 | 28:30.08 | 2:42.09 | 128258 | 140416
9 | 31:12.17 | 3:15.29 | 140417 | 155070
10 | 34:27.46 | 4:39.12 | 155071 | 176007
11 | 39:06.58 | 3:36.65 | 176008 | 192272
12 | 42:43.48 | 1:59.45 | 192273 | 201242
13 | 44:43.18 | 3:22.52 | 201243 | 216444
14 | 48:05.70 | 7:01.05 | 216445 | 248024
15 | 55:07.00 | 11:13.31 | 248025 | 298530
16 | 66:20.31 | 4:51.58 | 298531 | 320413
17 | 71:12.14 | 4:42.08 | 320414 | 341571


Range status and errors

Selected range

Filename C:\Temp\Pentangling\Pentangle - Pentangling, The Collection (Disk 1 of 3).wav

Peak level 98.8 %
Range quality 99.9 %
Copy CRC 2FEF03FC
Copy OK

No errors occurred


AccurateRip summary

Track 1 not present in database
Track 2 not present in database
Track 3 not present in database
Track 4 not present in database
Track 5 not present in database
Track 6 not present in database
Track 7 not present in database
Track 8 not present in database
Track 9 not present in database
Track 10 not present in database
Track 11 not present in database
Track 12 not present in database
Track 13 not present in database
Track 14 not present in database
Track 15 not present in database
Track 16 not present in database
Track 17 not present in database

None of the tracks are present in the AccurateRip database

End of status report

[CUETools log; Date: 26.04.2017 22:03:28; Version: 2.1.4]
[CTDB TOCID: xITXBH9jVmD2xmQmkDvvoW0TUKA-] found.
Track | CTDB Status
1 | (5/5) Accurately ripped
2 | (5/5) Accurately ripped
3 | (5/5) Accurately ripped
4 | (5/5) Accurately ripped
5 | (5/5) Accurately ripped
6 | (5/5) Accurately ripped
7 | (5/5) Accurately ripped
8 | (5/5) Accurately ripped
9 | (5/5) Accurately ripped
10 | (5/5) Accurately ripped
11 | (5/5) Accurately ripped
12 | (5/5) Accurately ripped
13 | (5/5) Accurately ripped
14 | (5/5) Accurately ripped
15 | (5/5) Accurately ripped
16 | (5/5) Accurately ripped
17 | (4/5) Accurately ripped
[AccurateRip ID: 002b6385-0226fa6a-0b11ca11] found.
Track [ CRC | V2 ] Status
01 [a22c3c63|2ef9c910] (00+02/13) Accurately ripped
02 [1f4aa6e5|ee38a187] (00+02/13) Accurately ripped
03 [44e04e93|15a01dcf] (00+02/13) Accurately ripped
04 [c26c14cd|191c10ad] (00+02/13) Accurately ripped
05 [d4b5b98f|f79126c2] (00+02/12) Accurately ripped
06 [061776fc|ed179458] (00+02/12) Accurately ripped
07 [1da73ab1|fbd38b2b] (00+02/12) Accurately ripped
08 [fd7b4415|81824224] (00+02/12) Accurately ripped
09 [03528d25|858d008c] (00+02/13) Accurately ripped
10 [c74125bf|0df00abf] (00+02/13) Accurately ripped
11 [528967eb|41099908] (00+02/13) Accurately ripped
12 [7bf90732|d114e40c] (00+02/13) Accurately ripped
13 [2f8696e7|478d7f88] (00+02/13) Accurately ripped
14 [57da529d|4bf2ac66] (00+02/13) Accurately ripped
15 [03a72c2f|0e0f38ad] (00+02/13) Accurately ripped
16 [e3f61b68|43e5372a] (00+02/13) Accurately ripped
17 [6e98fb43|30b3ecfc] (00+02/13) Accurately ripped
Offsetted by -664:
01 [7c19bc83] (00/13) No match (V2 was not tested)
02 [d3fa4875] (00/13) No match (V2 was not tested)
03 [d5fe0983] (00/13) No match (V2 was not tested)
04 [f06f81c5] (00/13) No match (V2 was not tested)
05 [cf43370f] (00/12) No match (V2 was not tested)
06 [f4b810dc] (00/12) No match (V2 was not tested)
07 [21ca4d89] (00/12) No match (V2 was not tested)
08 [5ba373f5] (00/12) No match (V2 was not tested)
09 [cb346f7d] (00/13) No match (V2 was not tested)
10 [2554170f] (00/13) No match (V2 was not tested)
11 [0047ccf3] (00/13) No match (V2 was not tested)
12 [75134d52] (00/13) No match (V2 was not tested)
13 [996f87c7] (00/13) No match (V2 was not tested)
14 [c30d4b9d] (00/13) No match (V2 was not tested)
15 [8c181bff] (00/13) No match (V2 was not tested)
16 [39ab8648] (00/13) No match (V2 was not tested)
17 [6d58fa4d] (00/13) No match (V2 was not tested)
Offsetted by 664:
01 [c83ebc43] (00/13) No match (V2 was not tested)
02 [6a9b0555] (00/13) No match (V2 was not tested)
03 [b3c293a3] (00/13) No match (V2 was not tested)
04 [9468a7d5] (00/13) No match (V2 was not tested)
05 [da283c0f] (00/12) No match (V2 was not tested)
06 [1776dd1c] (00/12) No match (V2 was not tested)
07 [198427d9] (00/12) No match (V2 was not tested)
08 [9f531435] (00/12) No match (V2 was not tested)
09 [3b70aacd] (00/13) No match (V2 was not tested)
10 [692e346f] (00/13) No match (V2 was not tested)
11 [a4cb02e3] (00/13) No match (V2 was not tested)
12 [82dec112] (00/13) No match (V2 was not tested)
13 [c59da607] (00/13) No match (V2 was not tested)
14 [eca7599d] (00/13) No match (V2 was not tested)
15 [7b363c5f] (00/13) No match (V2 was not tested)
16 [8e40b088] (00/13) No match (V2 was not tested)
17 [4ff5edf3] (00/13) No match (V2 was not tested)

Track Peak [ CRC32 ] [W/O NULL] [ LOG ]
– 98,8 [2FEF03FC] [FA7A7009] CRC32
01 97,7 [C2DA6573] [C73CB639]
02 92,2 [883AD166] [8D43C03D]
03 93,5 [D23A34C0] [25E89A14]
04 81,2 [B114E782] [5ED43E8C]
05 96,1 [FC08CCA7] [E94CBA92]
06 77,2 [8E12C1E1] [920F0789]
07 74,7 [85C4798A] [3AAAEB11]
08 97,7 [F792E2DF] [C3C7DFD9]
09 97,7 [C16AFCD5] [86399F38]
10 88,7 [CCBC81BF] [0FA1ECA2]
11 97,7 [095C9D30] [E452E183]
12 87,2 [093B332F] [8EF7B1C2]
13 98,8 [59B78B22] [1BCDE37D]
14 98,8 [F5AA279A] [72370779]
15 98,8 [94C9E05B] [4D0DCA50]
16 97,7 [BB372A00] [D02C918D]
17 97,7 [72F918E2] [929463F5]

foobar2000 1.2 / Dynamic Range Meter 1.1.1
log date: 2017-04-26 22:18:50

––––––––––––––––––––––––––––––––––––––––
Analyzed: Pentangle / Pentangling, The Collection (Disk 1 of 3)
––––––––––––––––––––––––––––––––––––––––

DR Peak RMS Duration Track
––––––––––––––––––––––––––––––––––––––––
DR12 -0.20 dB -13.27 dB 3:01 01-Travelling Song
DR13 -0.70 dB -16.72 dB 5:04 02-Waltz
DR12 -0.58 dB -15.66 dB 7:11 03-Pentangling
DR11 -1.80 dB -15.21 dB 3:05 04-Hear My Call
DR10 -0.34 dB -12.74 dB 5:12 05-Sweet Child
DR11 -2.24 dB -16.04 dB 2:42 06-I Loved a Lass
DR11 -2.53 dB -16.28 dB 2:15 07-In Your Mind
DR15 -0.20 dB -18.95 dB 2:42 08-Moondog
DR10 -0.20 dB -12.07 dB 3:15 09-Light Flight
DR9 -1.04 dB -13.96 dB 4:39 10-Once I Had A Sweetheart
DR10 -0.20 dB -12.34 dB 3:37 11-Sally Go Round The Roses
DR10 -1.19 dB -13.23 dB 2:00 12-Cold Mountain
DR14 -0.10 dB -18.13 dB 3:23 13-Lord Franklin
DR11 -0.10 dB -14.12 dB 7:01 14-Cruel Sistrer
DR12 -0.10 dB -14.96 dB 11:13 15-Reflection
DR15 -0.20 dB -18.13 dB 4:52 16-So Clear
DR14 -0.20 dB -15.83 dB 4:42 17-People On The Highway
––––––––––––––––––––––––––––––––––––––––

Number of tracks: 17
Official DR value: DR12

Samplerate: 44100 Hz
Channels: 2
Bits per sample: 16

================================================================================




Pentangle, John Renbourn, Bert Jansch - Pentangling: The Collection (2004) 3 CDs Box Set [Re-Up]



Tracklist:

CD2 - John Renbourn:

01. Judy (1:57)
02. Song (1:57)
03. Down On The Barge (1:56)
04. I Know My Babe (3:28)
05. Another Monday (1:51)
06. Lady Nothinge's Toye Puff (1:30)
07. Can't Keep From Crying (2:03)
08. One For William (2:51)
09. Goodbye Pork Pie Hat (3:50)
10. No Exit (1:23)
11. The Earle of Salisbury (1:22)
12. Transfusion (2:00)
13. Forty Eight (2:54)
14. Sweet Potato (3:20)
15. Sarabande (2:43)
16. The Lady & The Unicorn (3:24)
17. Medley: My Johnny Was A Shoemaker, Westron Wynde, Scarborough Fair (13:05)
18. White House Blues (3:35)
19. Shake Shake Mama (3:24)
20. Faro Annie (3:26)
21. Back On The Road Again (3:13)
22. The Hermit (3:16)


Exact Audio Copy V0.99 prebeta 4 from 23. January 2008

EAC extraction logfile from 17. December 2008, 3:57

John Renbourn / Pentangling 2

Used drive : PIONEER DVD-RW DVR-112D Adapter: 1 ID: 1

Read mode : Secure
Utilize accurate stream : Yes
Defeat audio cache : Yes
Make use of C2 pointers : No

Read offset correction : 48
Overread into Lead-In and Lead-Out : No
Fill up missing offset samples with silence : Yes
Delete leading and trailing silent blocks : No
Null samples used in CRC calculations : Yes
Used interface : Native Win32 interface for Win NT & 2000

Used output format : Monkey's Audio Lossless Encoder
Selected bitrate : Normal Lossless Compression
Quality : High
Add ID3 tag : Yes
Command line compressor : C:\Program Files\Burrrn\MAC.exe


TOC of the extracted CD

Track | Start | Length | Start sector | End sector
––––––––––––––––––––––––––––-
1 | 0:00.00 | 1:56.57 | 0 | 8756
2 | 1:56.57 | 1:57.01 | 8757 | 17532
3 | 3:53.58 | 1:55.69 | 17533 | 26226
4 | 5:49.52 | 3:28.07 | 26227 | 41833
5 | 9:17.59 | 1:51.01 | 41834 | 50159
6 | 11:08.60 | 1:30.31 | 50160 | 56940
7 | 12:39.16 | 2:02.46 | 56941 | 66136
8 | 14:41.62 | 2:50.56 | 66137 | 78942
9 | 17:32.43 | 3:49.68 | 78943 | 96185
10 | 21:22.36 | 1:23.02 | 96186 | 102412
11 | 22:45.38 | 1:22.03 | 102413 | 108565
12 | 24:07.41 | 2:00.32 | 108566 | 117597
13 | 26:07.73 | 2:54.11 | 117598 | 130658
14 | 29:02.09 | 3:20.22 | 130659 | 145680
15 | 32:22.31 | 2:43.16 | 145681 | 157921
16 | 35:05.47 | 3:24.17 | 157922 | 173238
17 | 38:29.64 | 13:04.71 | 173239 | 232109
18 | 51:34.60 | 3:34.65 | 232110 | 248224
19 | 55:09.50 | 3:23.55 | 248225 | 263504
20 | 58:33.30 | 3:25.54 | 263505 | 278933
21 | 61:59.09 | 3:12.66 | 278934 | 293399
22 | 65:12.00 | 3:16.17 | 293400 | 308116


Range status and errors

Selected range

Filename C:\Temp\Pentangling\John Renbourn - Pentangling 2.wav

Peak level 98.8 %
Range quality 100.0 %
Copy CRC AA289536
Copy OK

No errors occurred


AccurateRip summary

Track 1 not present in database
Track 2 not present in database
Track 3 not present in database
Track 4 not present in database
Track 5 not present in database
Track 6 not present in database
Track 7 not present in database
Track 8 not present in database
Track 9 not present in database
Track 10 not present in database
Track 11 not present in database
Track 12 not present in database
Track 13 not present in database
Track 14 not present in database
Track 15 not present in database
Track 16 not present in database
Track 17 not present in database
Track 18 not present in database
Track 19 not present in database
Track 20 not present in database
Track 21 not present in database
Track 22 not present in database

None of the tracks are present in the AccurateRip database

End of status report

[CUETools log; Date: 26.04.2017 22:02:18; Version: 2.1.4]
[CTDB TOCID: ajFpEVQ30RkzcyTATFDavtl9bl4-] found.
Track | CTDB Status
1 | (6/6) Accurately ripped
2 | (6/6) Accurately ripped
3 | (6/6) Accurately ripped
4 | (6/6) Accurately ripped
5 | (6/6) Accurately ripped
6 | (6/6) Accurately ripped
7 | (6/6) Accurately ripped
8 | (6/6) Accurately ripped
9 | (6/6) Accurately ripped
10 | (6/6) Accurately ripped
11 | (6/6) Accurately ripped
12 | (6/6) Accurately ripped
13 | (6/6) Accurately ripped
14 | (6/6) Accurately ripped
15 | (6/6) Accurately ripped
16 | (6/6) Accurately ripped
17 | (6/6) Accurately ripped
18 | (6/6) Accurately ripped
19 | (6/6) Accurately ripped
20 | (6/6) Accurately ripped
21 | (6/6) Accurately ripped
22 | (5/6) Accurately ripped
[AccurateRip ID: 002dd2cf-02ff690f-2b100c16] found.
Track [ CRC | V2 ] Status
01 [9ac90027|0e73213c] (00+02/13) Accurately ripped
02 [aa381d67|dd6b3e70] (00+02/13) Accurately ripped
03 [dde52121|61825603] (00+02/13) Accurately ripped
04 [70f086e9|73963338] (00+02/13) Accurately ripped
05 [bb7c962f|6439d367] (00+02/13) Accurately ripped
06 [e8e6fbf9|d3bc4ad6] (00+02/13) Accurately ripped
07 [f4f78919|3b40f0f8] (00+02/13) Accurately ripped
08 [7720b72c|1a33e21f] (00+02/12) Accurately ripped
09 [c577e9bb|59b168d8] (00+02/12) Accurately ripped
10 [3a523235|f4f10f23] (00+02/13) Accurately ripped
11 [b386f972|77af3d08] (00+02/13) Accurately ripped
12 [52626fb1|ec623851] (00+02/13) Accurately ripped
13 [75074c31|fac621c8] (00+02/12) Accurately ripped
14 [7ba2d3aa|69cee37f] (00+02/13) Accurately ripped
15 [fed20035|96dc5095] (00+02/13) Accurately ripped
16 [a0d9a485|42085cf7] (00+02/13) Accurately ripped
17 [902f8a95|9143c6a9] (00+02/13) Accurately ripped
18 [85e9d8b9|95787771] (00+02/13) Accurately ripped
19 [5bd77de4|225403e6] (00+02/13) Accurately ripped
20 [ae0c5bfc|3b1174e0] (00+02/13) Accurately ripped
21 [84fe2e3d|3cf1ea6c] (00+02/13) Accurately ripped
22 [b68d7cd1|27008ea5] (00+02/13) Accurately ripped
Offsetted by -664:
01 [bef97a9f] (00/13) No match (V2 was not tested)
02 [bdb710b7] (00/13) No match (V2 was not tested)
03 [3b1856b9] (00/13) No match (V2 was not tested)
04 [2de11359] (00/13) No match (V2 was not tested)
05 [219b42a7] (00/13) No match (V2 was not tested)
06 [ffcb88b9] (00/13) No match (V2 was not tested)
07 [c6329339] (00/13) No match (V2 was not tested)
08 [5457383c] (00/12) No match (V2 was not tested)
09 [69221283] (00/12) No match (V2 was not tested)
10 [6a5b204d] (00/13) No match (V2 was not tested)
11 [daf1fdd2] (00/13) No match (V2 was not tested)
12 [5b2d13f1] (00/13) No match (V2 was not tested)
13 [c3bd56d9] (00/12) No match (V2 was not tested)
14 [b31d78ca] (00/13) No match (V2 was not tested)
15 [0d5f0145] (00/13) No match (V2 was not tested)
16 [51bb7c0d] (00/13) No match (V2 was not tested)
17 [adcfde45] (00/13) No match (V2 was not tested)
18 [02d27b49] (00/13) No match (V2 was not tested)
19 [11d178f4] (00/13) No match (V2 was not tested)
20 [ae75581c] (00/13) No match (V2 was not tested)
21 [10cddb1d] (00/13) No match (V2 was not tested)
22 [7ecf7761] (00/13) No match (V2 was not tested)
Offsetted by 18:
01 [48d71bad] (00/13) No match (V2 was not tested)
02 [06fded2b] (00/13) No match (V2 was not tested)
03 [74d076cf] (00/13) No match (V2 was not tested)
04 [82f34255] (00/13) No match (V2 was not tested)
05 [875e7435] (00/13) No match (V2 was not tested)
06 [0afb0169] (00/13) No match (V2 was not tested)
07 [866d7401] (00/13) No match (V2 was not tested)
08 [d9ff9fa0] (00/12) No match (V2 was not tested)
09 [b95224c5] (00/12) No match (V2 was not tested)
10 [ae394783] (00/13) No match (V2 was not tested)
11 [42a6c5aa] (00/13) No match (V2 was not tested)
12 [fa3e1981] (00/13) No match (V2 was not tested)
13 [746fdb53] (00/12) No match (V2 was not tested)
14 [df24e652] (00/13) No match (V2 was not tested)
15 [ba9208a9] (00/13) No match (V2 was not tested)
16 [e2feb37f] (00/13) No match (V2 was not tested)
17 [c6e69191] (00/13) No match (V2 was not tested)
18 [3630a60d] (00/13) No match (V2 was not tested)
19 [155dd2d8] (00/13) No match (V2 was not tested)
20 [4a913964] (00/13) No match (V2 was not tested)
21 [11654615] (00/13) No match (V2 was not tested)
22 [09bf3bd3] (00/13) No match (V2 was not tested)

Track Peak [ CRC32 ] [W/O NULL] [ LOG ]
– 98,8 [AA289536] [D50BBE1A] CRC32
01 97,7 [F2A036FD] [75268588]
02 98,8 [D012335A] [8398AC18]
03 88,8 [F215ACC9] [2B4C4FBE]
04 97,7 [8EBF5706] [B68EB29D]
05 98,8 [1E84B8D5] [C996B4FC]
06 97,7 [27DC5833] [1BBFB882]
07 98,8 [3C81C39C] [BB969107]
08 98,8 [79FB672E] [11E8F764]
09 97,7 [AEDD77A0] [A48A5B51]
10 95,5 [019E42DB] [4296A4F5]
11 90,3 [01F4D50B] [0F741314]
12 98,8 [0F080CD8] [C680308F]
13 94,9 [1B221F4E] [F5E46BBC]
14 98,8 [380D005F] [55AC0181]
15 94,3 [A79953C6] [81D432CB]
16 98,8 [C1DEDFA2] [60E18E90]
17 98,8 [FBB55081] [BD68247B]
18 98,8 [2C3B8A44] [91E48706]
19 98,8 [C0BA54F2] [33CAE4A0]
20 98,8 [A1BBA7DE] [7A0E8F59]
21 98,8 [5FD7CA64] [B7CEF7DF]
22 87,0 [630CB323] [62417A90]

foobar2000 1.2 / Dynamic Range Meter 1.1.1
log date: 2017-04-26 22:17:18

––––––––––––––––––––––––––––––––––––––––
Analyzed: John Renbourn / Pentangling 2
––––––––––––––––––––––––––––––––––––––––

DR Peak RMS Duration Track
––––––––––––––––––––––––––––––––––––––––
DR15 -0.20 dB -17.47 dB 1:57 01-Judy
DR11 -0.10 dB -13.93 dB 1:57 02-Song
DR12 -1.03 dB -15.11 dB 1:56 03-Down On The Barge
DR11 -0.20 dB -13.17 dB 3:28 04-I Know My Babe
DR11 -0.10 dB -13.41 dB 1:51 05-Another Monday
DR12 -0.20 dB -15.07 dB 1:30 06-Lady Nothinge's Toye Puff
DR10 -0.10 dB -12.36 dB 2:03 07-Can't Keep From Crying
DR11 -0.10 dB -13.61 dB 2:51 08-One For William
DR13 -0.19 dB -16.92 dB 3:50 09-Goodbye Pork Pie Hat
DR11 -0.39 dB -13.85 dB 1:23 10-No Exit
DR17 -0.88 dB -20.18 dB 1:22 11-The Earle of Salisbury
DR13 -0.10 dB -15.80 dB 2:00 12-Transfusion
DR18 -0.45 dB -22.50 dB 2:54 13-Forty Eight
DR14 -0.10 dB -16.75 dB 3:20 14-Sweet Potato
DR12 -0.51 dB -17.83 dB 2:43 15-Sarabande
DR12 -0.10 dB -16.42 dB 3:24 16-The Lady & The Unicorn
DR10 -0.10 dB -14.44 dB 13:05 17-Medley: My Johnny Was A Shoemaker, Westron Wynde, Scarborough Fair
DR13 -0.10 dB -16.00 dB 3:35 18-White House Blues
DR15 -0.10 dB -17.24 dB 3:24 19-Shake Shake Mama
DR12 -0.10 dB -16.15 dB 3:26 20-Faro Annie
DR13 -0.10 dB -15.07 dB 3:13 21-Back On The Road Again
DR12 -1.20 dB -15.19 dB 3:16 22-The Hermit
––––––––––––––––––––––––––––––––––––––––

Number of tracks: 22
Official DR value: DR13

Samplerate: 44100 Hz
Channels: 2
Bits per sample: 16

================================================================================




Pentangle, John Renbourn, Bert Jansch - Pentangling: The Collection (2004) 3 CDs Box Set [Re-Up]



Tracklist:

CD3 - Bert Jansch:

01. Strolling Down The Highway (3:04)
02. Angie (3:10)
03. Running From Home (2:21)
04. Needle of Death (3:18)
05. It Don't Bother Me (4:25)
06. Lucky Thirteen (3:31)
07. Blackwater Side (3:43)
08. The First Time Ever I Saw Your Face (1:40)
09. Tic-Tocative (1:55)
10. Orlando (1:39)
11. Go Your Way My Love (4:20)
12. Woe Is Love My Dear (2:18)
13. Nicola (2:49)
14. Life Depends on Love (1:46)
15. Rabbit Run (2:40)
16. Wishing Well (2:15)
17. Poison (3:14)
18. I Am Lonely (2:29)
19. Bird Song (2:58)
20. Tell Me What Is True Love? (1:59)
21. Rosemary Lane (4:02)
22. Yarrow (5:06)


Exact Audio Copy V0.99 prebeta 4 from 23. January 2008

EAC extraction logfile from 17. December 2008, 4:11

Bert Jansch / Pentangling 3

Used drive : PIONEER DVD-RW DVR-112D Adapter: 1 ID: 1

Read mode : Secure
Utilize accurate stream : Yes
Defeat audio cache : Yes
Make use of C2 pointers : No

Read offset correction : 48
Overread into Lead-In and Lead-Out : No
Fill up missing offset samples with silence : Yes
Delete leading and trailing silent blocks : No
Null samples used in CRC calculations : Yes
Used interface : Native Win32 interface for Win NT & 2000

Used output format : Monkey's Audio Lossless Encoder
Selected bitrate : Normal Lossless Compression
Quality : High
Add ID3 tag : Yes
Command line compressor : C:\Program Files\Burrrn\MAC.exe


TOC of the extracted CD

Track | Start | Length | Start sector | End sector
––––––––––––––––––––––––––––-
1 | 0:00.00 | 3:04.14 | 0 | 13813
2 | 3:04.14 | 3:10.23 | 13814 | 28086
3 | 6:14.37 | 2:21.32 | 28087 | 38693
4 | 8:35.69 | 3:18.22 | 38694 | 53565
5 | 11:54.16 | 4:25.18 | 53566 | 73458
6 | 16:19.34 | 3:31.26 | 73459 | 89309
7 | 19:50.60 | 3:42.67 | 89310 | 106026
8 | 23:33.52 | 1:40.00 | 106027 | 113526
9 | 25:13.52 | 1:54.70 | 113527 | 122146
10 | 27:08.47 | 1:38.65 | 122147 | 129561
11 | 28:47.37 | 4:19.61 | 129562 | 149047
12 | 33:07.23 | 2:18.08 | 149048 | 159405
13 | 35:25.31 | 2:49.07 | 159406 | 172087
14 | 38:14.38 | 1:46.05 | 172088 | 180042
15 | 40:00.43 | 2:39.63 | 180043 | 192030
16 | 42:40.31 | 2:15.09 | 192031 | 202164
17 | 44:55.40 | 3:13.63 | 202165 | 216702
18 | 48:09.28 | 2:29.01 | 216703 | 227878
19 | 50:38.29 | 2:58.02 | 227879 | 241230
20 | 53:36.31 | 1:58.59 | 241231 | 250139
21 | 55:35.15 | 4:02.35 | 250140 | 268324
22 | 59:37.50 | 5:05.51 | 268325 | 291250


Range status and errors

Selected range

Filename C:\Temp\Pentangling\Bert Jansch - Pentangling 3.wav

Peak level 100.0 %
Range quality 99.9 %
Copy CRC 04E5D0C2
Copy OK

No errors occurred


AccurateRip summary

Track 1 not present in database
Track 2 not present in database
Track 3 not present in database
Track 4 not present in database
Track 5 not present in database
Track 6 not present in database
Track 7 not present in database
Track 8 not present in database
Track 9 not present in database
Track 10 not present in database
Track 11 not present in database
Track 12 not present in database
Track 13 not present in database
Track 14 not present in database
Track 15 not present in database
Track 16 not present in database
Track 17 not present in database
Track 18 not present in database
Track 19 not present in database
Track 20 not present in database
Track 21 not present in database
Track 22 not present in database

None of the tracks are present in the AccurateRip database

End of status report

[CUETools log; Date: 26.04.2017 22:01:13; Version: 2.1.4]
[CTDB TOCID: UlKv0PoND3LE_sPEUEcmIvbtzF8-] found.
Track | CTDB Status
1 | (6/6) Accurately ripped
2 | (6/6) Accurately ripped
3 | (6/6) Accurately ripped
4 | (6/6) Accurately ripped
5 | (6/6) Accurately ripped
6 | (6/6) Accurately ripped
7 | (6/6) Accurately ripped
8 | (6/6) Accurately ripped
9 | (6/6) Accurately ripped
10 | (6/6) Accurately ripped
11 | (6/6) Accurately ripped
12 | (6/6) Accurately ripped
13 | (6/6) Accurately ripped
14 | (6/6) Accurately ripped
15 | (6/6) Accurately ripped
16 | (6/6) Accurately ripped
17 | (6/6) Accurately ripped
18 | (6/6) Accurately ripped
19 | (6/6) Accurately ripped
20 | (6/6) Accurately ripped
21 | (6/6) Accurately ripped
22 | (6/6) Accurately ripped
[AccurateRip ID: 0032a2e7-03213115-4a0f2b16] found.
Track [ CRC | V2 ] Status
01 [c17862fe|5e881d0c] (00+02/12) Accurately ripped
02 [e697398e|6d7e183f] (00+02/12) Accurately ripped
03 [a8192111|3295575d] (00+02/12) Accurately ripped
04 [905d0618|e9dfdced] (00+02/12) Accurately ripped
05 [07f22f35|886005f4] (00+02/12) Accurately ripped
06 [f5f0ef12|fc26c852] (00+02/12) Accurately ripped
07 [e14fbea6|3cf21937] (00+02/12) Accurately ripped
08 [27e16c94|9931bf49] (00+02/12) Accurately ripped
09 [64538b79|451367db] (00+02/12) Accurately ripped
10 [d67f2cdc|d76be4f7] (00+02/12) Accurately ripped
11 [7b147b47|11a2ca6f] (00+02/12) Accurately ripped
12 [5d2f1e0c|1bc2a7b5] (00+02/12) Accurately ripped
13 [5548c9f2|139b9a26] (00+02/12) Accurately ripped
14 [4a038412|ab1f7b80] (00+02/12) Accurately ripped
15 [33d4d579|4021b260] (00+02/12) Accurately ripped
16 [c4d34bf8|572a2e6f] (00+02/12) Accurately ripped
17 [9687d846|b48d6329] (00+02/12) Accurately ripped
18 [6d030c8d|ec9dd2cb] (00+02/12) Accurately ripped
19 [85c9cc93|29576ab3] (00+02/12) Accurately ripped
20 [933fb703|63dee7fe] (00+02/12) Accurately ripped
21 [9a5744e6|12b6d003] (00+02/12) Accurately ripped
22 [ede37e01|d0ced168] (00+02/12) Accurately ripped
Offsetted by -664:
01 [df49b98e] (00/12) No match (V2 was not tested)
02 [cf6f14ee] (00/12) No match (V2 was not tested)
03 [1e6ed2a9] (00/12) No match (V2 was not tested)
04 [59a24278] (00/12) No match (V2 was not tested)
05 [62ff118d] (00/12) No match (V2 was not tested)
06 [ae4d3a32] (00/12) No match (V2 was not tested)
07 [59166a9e] (00/12) No match (V2 was not tested)
08 [aca3702c] (00/12) No match (V2 was not tested)
09 [2792f3f1] (00/12) No match (V2 was not tested)
10 [30074ecc] (00/12) No match (V2 was not tested)
11 [7b991427] (00/12) No match (V2 was not tested)
12 [6ba13e7c] (00/12) No match (V2 was not tested)
13 [03ef2e92] (00/12) No match (V2 was not tested)
14 [4a1db2f2] (00/12) No match (V2 was not tested)
15 [05b03569] (00/12) No match (V2 was not tested)
16 [230998e0] (00/12) No match (V2 was not tested)
17 [b367a6d6] (00/12) No match (V2 was not tested)
18 [1ef2ac85] (00/12) No match (V2 was not tested)
19 [ad20f19b] (00/12) No match (V2 was not tested)
20 [a4e1dcbb] (00/12) No match (V2 was not tested)
21 [b50a2686] (00/12) No match (V2 was not tested)
22 [f1f5769e] (00/12) No match (V2 was not tested)
Offsetted by 18:
01 [6bd7b952] (00/12) No match (V2 was not tested)
02 [635cf086] (00/12) No match (V2 was not tested)
03 [2d5f49bf] (00/12) No match (V2 was not tested)
04 [723b8850] (00/12) No match (V2 was not tested)
05 [ec083253] (00/12) No match (V2 was not tested)
06 [099e3d3a] (00/12) No match (V2 was not tested)
07 [571ff30c] (00/12) No match (V2 was not tested)
08 [79df3fc2] (00/12) No match (V2 was not tested)
09 [a6be8c7f] (00/12) No match (V2 was not tested)
10 [2b33c628] (00/12) No match (V2 was not tested)
11 [3045521f] (00/12) No match (V2 was not tested)
12 [a9213a78] (00/12) No match (V2 was not tested)
13 [481162fa] (00/12) No match (V2 was not tested)
14 [50f3626a] (00/12) No match (V2 was not tested)
15 [588d5845] (00/12) No match (V2 was not tested)
16 [6e39266a] (00/12) No match (V2 was not tested)
17 [08a3b49a] (00/12) No match (V2 was not tested)
18 [ecd099f3] (00/12) No match (V2 was not tested)
19 [7d02cf6d] (00/12) No match (V2 was not tested)
20 [1ccb8319] (00/12) No match (V2 was not tested)
21 [affa842e] (00/12) No match (V2 was not tested)
22 [0c38b277] (00/12) No match (V2 was not tested)

Track Peak [ CRC32 ] [W/O NULL] [ LOG ]
– 100,0 [04E5D0C2] [97639D5D] CRC32
01 98,8 [3A0B614E] [2F271486]
02 90,0 [8F87BE53] [954F2531]
03 90,4 [173DD9BF] [5C0B2C07]
04 98,8 [2566C320] [19FD5E8A]
05 95,8 [E8A2C583] [1042123A]
06 98,8 [36891AD1] [7BA5C4D6]
07 98,8 [B51E38C2] [2C5B8A80]
08 98,8 [6C4BC7F5] [10E5D739]
09 90,1 [4448488D] [53183FAE]
10 84,9 [761275A4] [CB44A9FB]
11 95,6 [BE3FBE19] [D3ED180E]
12 100,0 [3ADDA287] [6B423155]
13 96,4 [D9FB2886] [E8A459F2]
14 89,5 [EFF1267A] [7950E2A0]
15 76,4 [FAD893F8] [0143A859]
16 84,1 [D4815854] [7FF2F2DF]
17 98,8 [48465B03] [556DB49E]
18 83,6 [A27C430C] [AC576D74]
19 98,8 [B8855617] [9726CD50]
20 98,8 [BEF49EAC] [06C78985]
21 98,8 [CE2BEC68] [1D0A7E57]
22 98,8 [41485AE0] [BBEA7C4D]

foobar2000 1.2 / Dynamic Range Meter 1.1.1
log date: 2017-04-26 22:15:53

––––––––––––––––––––––––––––––––––––––––
Analyzed: Bert Jansch / Pentangling 3
––––––––––––––––––––––––––––––––––––––––

DR Peak RMS Duration Track
––––––––––––––––––––––––––––––––––––––––
DR15 -0.10 dB -17.36 dB 3:04 01-Strolling Down The Highway
DR12 -0.91 dB -16.76 dB 3:10 02-Angie
DR14 -0.87 dB -17.00 dB 2:21 03-Running From Home
DR13 -0.10 dB -16.95 dB 3:18 04-Needle of Death
DR11 -0.37 dB -15.23 dB 4:25 05-It Don't Bother Me
DR11 -0.10 dB -13.54 dB 3:31 06-Lucky Thirteen
DR11 -0.10 dB -15.37 dB 3:43 07-Blackwater Side
DR14 -0.10 dB -16.59 dB 1:40 08-The First Time Ever I Saw Your Face
DR10 -0.90 dB -13.10 dB 1:55 09-Tic-Tocative
DR12 -1.42 dB -16.70 dB 1:39 10-Orlando
DR12 -0.38 dB -16.80 dB 4:20 11-Go Your Way My Love
DR10 0.00 dB -11.74 dB 2:18 12-Woe Is Love My Dear
DR9 -0.31 dB -13.19 dB 2:49 13-Nicola
DR9 -0.96 dB -12.41 dB 1:46 14-Life Depends on Love
DR9 -2.33 dB -16.11 dB 2:40 15-Rabbit Run
DR13 -1.50 dB -18.83 dB 2:15 16-Wishing Well
DR12 -0.10 dB -14.49 dB 3:14 17-Poison
DR12 -1.55 dB -17.24 dB 2:29 18-I Am Lonely
DR15 -0.10 dB -17.90 dB 2:58 19-Bird Song
DR12 -0.10 dB -15.71 dB 1:59 20-Tell Me What Is True Love?
DR10 -0.10 dB -14.08 dB 4:02 21-Rosemary Lane
DR10 -0.10 dB -12.40 dB 5:06 22-Yarrow
––––––––––––––––––––––––––––––––––––––––

Number of tracks: 22
Official DR value: DR12

Samplerate: 44100 Hz
Channels: 2
Bits per sample: 16

================================================================================




Pentangle, John Renbourn, Bert Jansch - Pentangling: The Collection (2004) 3 CDs Box Set [Re-Up]

Pentangle, John Renbourn, Bert Jansch - Pentangling: The Collection (2004) 3 CDs Box Set [Re-Up]

All thanks to original releaser

More interesting music in My Blog