Subcategories

Pierre Boulez conducts Maurice Ravel & Albert Roussel (2009) 4CD Box Set

Posted By: Designol
Pierre Boulez conducts Maurice Ravel & Albert Roussel (2009) 4CD Box Set

Pierre Boulez conducts Maurice Ravel & Albert Roussel (2009) 4CD Box Set
BBC Symphony Orchestra; The Cleveland Orchestra; Ensemble Intercontemporain
New York Philharmonic; Philippe Entremont (piano); Harold Gomberg (oboe)
Jessye Norman (soprano); Jill Gomez (soprano); José van Dam (baritone)

EAC | FLAC | Image (Cue&Log) ~ 1.14 Gb | Mp3 (CBR320) ~ 665 Mb | Scans included
Genre: Classical | Label: Sony Classical | # 88697562292 | Time: 04:48:51

A milestone of music making, this 4 CD boxed set collects Maurice Ravel’s lush orchestral oeuvre in a collection of defining performances conducted by Pierre Boulez. A vivid testament to the ineffable incalculable role a conductor fills in any interpretation, ‘Pierre Boulez Conducts Ravel’ includes many of Ravel’s best known compositions along with the valuable addition of less recorded and long out of print gems such as Jessye Norman’s luminous Chansons Madécasses with members of Ensemble InterContemporaín and the Piano Concerto in D major for the Left Hand, played thrillingly here by Phillipe Entremont with an inspired lights out Cleveland Orchestra. Boulez’s prowess with the music of Ravel takes many forms, robust, muscular, capable of great tenderness, inquisitive, insouciant, and this collection of almost 5 hours of music allows one to immerse completely within the rich motherlode of genius that was Maurice Ravel. Includes informative 28-page booklet.

Pierre Boulez conducts Maurice Ravel & Albert Roussel (2009) 4CD Box Set



Pierre Boulez conducts Maurice Ravel & Albert Roussel (2009) 4CD Box Set



Pierre Boulez conducts Maurice Ravel & Albert Roussel (2009) 4CD Box Set

Pierre Boulez conducts Maurice Ravel & Albert Roussel (2009) 4CD Box Set


Tracklist:

CD1 (1:14:48)

Maurice RAVEL (1875-1937)

01. Menuet antique (7:11)

02. La Valse (Poeme chorégraphique) (13:04)

Daphnis et Chloé (Symphonie chorégraphique)
Premiere Partie
03. I Introduction (3:09)
04. II Danse religieuse (5:28)
05. III Danse des jeunes filles (3:05)
06. IV Danse grotesque de Dorcon (1:51)
07. V Danse legere et gracieuse de Daphnis (3:30)
08. VI Lyceion entre et danse (3:59)
09. VII Nocturne (5:00)
10. VIII Interlude (3:10)
Deuxieme Partie
11. IX Danse guerriere (4:18)
12. X Danse suppliante de Chloe (5:26)
Troisieme Partie
13. XI Lever du jour (5:40)
14. XII Pantomime (5:37)
15. XIII Danse generale (4:21)

- Camerata Singers (chorus master: Abraham Kaplan)
- New York Philharmonic



CD2 (1:14:03)


01. Shéhérazade - Ouverture de féerie (15:57)
- New York Philharmonic

Rapsodie espagnole
02. I Prelude a la nuit (4:01)
03. II Malaguena (2:01)
04. III Habanera (2:42)
05. IV Feria (6:09)
-The Cleveland Orchestra

Valses nobles et sentimentales
06. I Modere (1:22)
07. II Assez lent (2:45)
08. III Modere (1:42)
09. IV Assez anime (0:57)
10. V Presque lent (1:25)
11. VI Assez vif (0:40)
12. VII Moins vif (3:11)
13. VIII Epilogue: lent (3:53)
- New York Philharmonic

Ma Mere l'Oye
14. I Prelude (3:36)
15. II Danse du rouet et scene (3:36)
16. III Pavane de la Belle au bois dormant (2:32)
17. IV Les Entretiens de la Belle et de la Bete (4:55)
18. V Petit Poucet (4:37)
19. VI Laideronnette, imperatrice des pagodes (4:42)
20. VII Le Jardin feerique (3:21)
- New York Philharmonic



CD3 (1:14:41)

01. Fanfare pour 'L'Eventail de Jeanne' (1:46)
- New York Philharmonic

02. Alborada del gracioso (7:38)
- The Cleveland Orchestra

Le Tombeau de Couperin
03. I Prelude (3:11)
04. II Forlane (6:04)
05. III Menuet (5:03)
06. IV Rigaudon (3:00)
- Harold Gomberg, oboe
- New York Philharmonic

Piano Concerto for the Left Hand
07. I Lento (8:33)
08. II Allegro (5:09)
09. III Tempo I (4:54)
- Philippe Entremont, piano

10. Pavane pour une infante defunte (6:17)
- The Cleveland Orchestra

11. Une barque sur l'ocean (7:34)
- New York Philharmonic

Bolero
12. I (0:55)
13. II (0:50)
14. III (0:51)
15. IV (0:50)
16. V (0:50)
17. VI (0:50)
18. VII (0:50)
19. VIII (0:50)
20. IX (0:50)
21. X (0:49)
22. XI (0:50)
23. XII (0:49)
24. XIII (0:48)
25. XIV (0:48)
26. XV (0:49)
27. XVI (0:48)
28. XVII (0:48)
29. XVIII (1:28)
- New York Philharmonic



CD4 (1:05:18)

Trois Poèmes de Stéphane Mallarmé
01. I Soupir (4:26)
02. II Placet futile (4:35)
03. III Surgi de la croupe et du bond (3:39)
- Jill Gomez, soprano
- BBC Symphony Orchestra

Chansons madécasses (text: E.-D. de Parny)
04. I Nahandove, o belle Nahandove! (6:02)
05. II Aoua! Aoua! Mefiez-vouz des blancs (3:46)
06. III Il est doux de se coucher (3:57)
- Jessye Norman, soprano
- Members of the Ensemble intercontemporain

Don Quichotte à Dulcinée (text: P. Morand)
07. I Chanson romanesque (2:27)
08. II Chanson epique (3:08)
09. III Chanson a boire (1:55)
- José van Dam, baritone
- BBC Symphony Orchestra

Cinq Melodies populaires grecques
10. I Le Reveil de la mariee (1:27)
11. II La-bas, vers l'eglise (1:21)
12. III Quel galant m'est comparable (0:50)
13. IV Chanson de cueilleuses de lentisques (2:39)
14. V Tout gai! (1:01)
- José van Dam, baritone
- BBC Symphony Orchestra

Albert ROUSSEL (1869-1937)

Symphony No.3 in G minor, op.42
15. I Allegro vivo (6:10)
16. II Adagio (8:40)
17. III Vivace (3:21)
18. IV Allegro con spirito (5:53)
- New York Philharmonic




Exact Audio Copy V0.99 prebeta 5 from 4. May 2009

EAC extraction logfile from 10. June 2010, 0:40

Camerata Singers, New York Philharmonic / Pierre Boulez / Boulez Conducts Ravel, Roussel - CD1

Used drive : HL-DT-STDVDRAM GSA-4083N Adapter: 1 ID: 0

Read mode : Secure
Utilize accurate stream : Yes
Defeat audio cache : Yes
Make use of C2 pointers : No

Read offset correction : 667
Overread into Lead-In and Lead-Out : No
Fill up missing offset samples with silence : Yes
Delete leading and trailing silent blocks : No
Null samples used in CRC calculations : No
Used interface : Native Win32 interface for Win NT & 2000

Used output format : User Defined Encoder
Selected bitrate : 768 kBit/s
Quality : High
Add ID3 tag : No
Command line compressor : C:\Program Files\Exact Audio Copy\FLAC\FLAC.EXE
Additional command line options : -6 -V -T "ARTIST=%a" -T "TITLE=%t" -T "ALBUM=%g" -T "DATE=%y" -T "TRACKNUMBER=%n" -T "GENRE=%m" -T "COMMENT=%e" %s -o %d


TOC of the extracted CD

Track | Start | Length | Start sector | End sector
––––––––––––––––––––––––––––-
1 | 0:00.00 | 7:11.25 | 0 | 32349
2 | 7:11.25 | 13:04.00 | 32350 | 91149
3 | 20:15.25 | 3:08.45 | 91150 | 105294
4 | 23:23.70 | 5:27.52 | 105295 | 129871
5 | 28:51.47 | 3:05.03 | 129872 | 143749
6 | 31:56.50 | 1:51.37 | 143750 | 152111
7 | 33:48.12 | 3:29.48 | 152112 | 167834
8 | 37:17.60 | 3:59.02 | 167835 | 185761
9 | 41:16.62 | 4:59.73 | 185762 | 208259
10 | 46:16.60 | 3:09.67 | 208260 | 222501
11 | 49:26.52 | 4:17.40 | 222502 | 241816
12 | 53:44.17 | 5:26.25 | 241817 | 266291
13 | 59:10.42 | 5:40.23 | 266292 | 291814
14 | 64:50.65 | 5:37.00 | 291815 | 317089
15 | 70:27.65 | 4:20.40 | 317090 | 336629


Range status and errors

Selected range

Filename F:\Music\Boulez conducts Ravel, Roussel\Boulez Conducts Ravel, Roussel - CD1.wav

Peak level 100.0 %
Range quality 100.0 %
Copy CRC 167D6995
Copy OK

No errors occurred

End of status report

[CUETools log; Date: 09.02.2018 17:54:59; Version: 2.1.4]
[CTDB TOCID: PJZi0ndswK6IJheX1uYkZV28AZI-] found.
Track | CTDB Status
1 | (58/58) Accurately ripped
2 | (56/58) Accurately ripped
3 | (57/58) Accurately ripped
4 | (57/58) Accurately ripped
5 | (57/58) Accurately ripped
6 | (57/58) Accurately ripped
7 | (57/58) Accurately ripped
8 | (57/58) Accurately ripped
9 | (57/58) Accurately ripped
10 | (57/58) Accurately ripped
11 | (57/58) Accurately ripped
12 | (57/58) Accurately ripped
13 | (57/58) Accurately ripped
14 | (56/58) Accurately ripped
15 | (57/58) Accurately ripped
[AccurateRip ID: 002c22f4-01e039cb-e011880f] found.
Track [ CRC | V2 ] Status
01 [31504c75|a9b1c010] (03+03/62) Accurately ripped
02 [9717ddbb|d628e794] (03+03/62) Accurately ripped
03 [ed1aa92a|65f06ced] (03+03/65) Accurately ripped
04 [b79f0ad6|0689c6ce] (03+03/65) Accurately ripped
05 [96c3dce1|f58ba7c7] (03+03/64) Accurately ripped
06 [f8227220|7ad351f0] (03+03/65) Accurately ripped
07 [da577437|fa4b7d43] (03+03/65) Accurately ripped
08 [2f45086e|e693d367] (03+03/64) Accurately ripped
09 [68846248|d1b9bbaf] (03+03/65) Accurately ripped
10 [118513b6|dbc7ce73] (02+03/64) Accurately ripped
11 [4bbae517|46dac88d] (03+03/65) Accurately ripped
12 [c967f8ab|2abcbe90] (03+03/64) Accurately ripped
13 [4782e879|18fd8b8d] (03+03/63) Accurately ripped
14 [d6f3307a|61aa7749] (02+03/62) Accurately ripped
15 [5293761c|fefa9875] (03+03/61) Accurately ripped
Offsetted by -11:
01 [fdc71786] (04/62) Accurately ripped
02 [b33b813c] (04/62) Accurately ripped
03 [a65321c5] (04/65) Accurately ripped
04 [fbef1077] (04/65) Accurately ripped
05 [67e3730a] (04/64) Accurately ripped
06 [56421d50] (04/65) Accurately ripped
07 [c8bcacb4] (04/65) Accurately ripped
08 [5ca6a8dc] (04/64) Accurately ripped
09 [4b787b0a] (04/65) Accurately ripped
10 [a7a1e3d4] (04/64) Accurately ripped
11 [f123ca13] (04/65) Accurately ripped
12 [ac4bf753] (04/64) Accurately ripped
13 [27aa76e6] (04/63) Accurately ripped
14 [a3ee6846] (04/62) Accurately ripped
15 [61b03ee4] (03/61) Accurately ripped
Offsetted by 18:
01 [b430d19f] (22/62) Accurately ripped
02 [dd692f45] (22/62) Accurately ripped
03 [024636dd] (22/65) Accurately ripped
04 [ac06c664] (22/65) Accurately ripped
05 [b89462df] (22/64) Accurately ripped
06 [a73d5140] (22/65) Accurately ripped
07 [f09dbec7] (22/65) Accurately ripped
08 [32323120] (21/64) Accurately ripped
09 [161d1daa] (22/65) Accurately ripped
10 [b5d01183] (22/64) Accurately ripped
11 [93a91273] (22/65) Accurately ripped
12 [06d8b643] (21/64) Accurately ripped
13 [26105bb4] (21/63) Accurately ripped
14 [1f617b40] (21/62) Accurately ripped
15 [d4904eb5] (21/61) Accurately ripped
Offsetted by -610:
01 [c1978f3b] (00/62) No match
02 [80febd21] (00/62) No match
03 [65039946] (00/65) No match (V2 was not tested)
04 [20ba18a5] (00/65) No match (V2 was not tested)
05 [ba275bcf] (00/64) No match (V2 was not tested)
06 [2a606332] (00/65) No match (V2 was not tested)
07 [328890fe] (00/65) No match (V2 was not tested)
08 [81d68691] (00/64) No match (V2 was not tested)
09 [b2c05431] (00/65) No match (V2 was not tested)
10 [9c8c4ac2] (00/64) No match (V2 was not tested)
11 [34c00fc2] (00/65) No match (V2 was not tested)
12 [2a1225e8] (00/64) No match (V2 was not tested)
13 [36f674d4] (00/63) No match (V2 was not tested)
14 [9433db6f] (00/62) No match (V2 was not tested)
15 [7af44fd0] (00/61) No match (V2 was not tested)

Track Peak [ CRC32 ] [W/O NULL] [ LOG ]
– 100,0 [420E30A2] [167D6995] W/O NULL
01 72,4 [FFFE0326] [0F973A2F]
02 97,7 [64C52BDC] [98D36BCB]
03 69,3 [C04693B4] [F2C74751]
04 88,3 [5B504B89] [9523464B]
05 87,8 [1D84473B] [AB8C44AA]
06 99,4 [5A836969] [B04544CB]
07 48,4 [CDB2493B] [350CFA12]
08 88,1 [60AA66C3] [0FC004A1]
09 24,3 [02754471] [CA868584]
10 75,6 [C25D3CEC] [9DF3B42C]
11 96,1 [869BA7C6] [3461E5B2]
12 91,7 [B7C3EAAC] [DB719B12]
13 100,0 [5019AFEA] [4D114C0C]
14 96,2 [FFB13770] [9D4829B9]
15 100,0 [829B5A2F] [41D2880C]

foobar2000 1.2 / Dynamic Range Meter 1.1.1
log date: 2018-02-09 18:04:42

––––––––––––––––––––––––––––––––––––––––
Analyzed: Camerata Singers, New York Philharmonic / Pierre Boulez / Boulez Conducts Ravel, Roussel - CD1
––––––––––––––––––––––––––––––––––––––––

DR Peak RMS Duration Track
––––––––––––––––––––––––––––––––––––––––
DR14 -2.80 dB -22.85 dB 7:11 01-Ravel: Menuet antique
DR15 -0.20 dB -20.44 dB 13:04 02-Ravel: La Valse (Poeme choregraphique)
DR12 -3.17 dB -22.94 dB 3:09 03-Ravel: Daphnis et Chloe - Premiere Partie - I Introduction
DR14 -1.07 dB -22.55 dB 5:28 04-Ravel: Daphnis et Chloe - Premiere Partie - II Danse religieuse
DR15 -1.12 dB -24.21 dB 3:05 05-Ravel: Daphnis et Chloe - Premiere Partie - III Danse des jeunes filles
DR14 -0.04 dB -20.58 dB 1:51 06-Ravel: Daphnis et Chloe - Premiere Partie - IV Danse grotesque de Dorcon
DR15 -6.30 dB -27.98 dB 3:30 07-Ravel: Daphnis et Chloe - Premiere Partie - V Danse legere et gracieuse de Da…
DR16 -1.09 dB -24.56 dB 3:59 08-Ravel: Daphnis et Chloe - Premiere Partie - VI Lyceion entre et danse
DR14 -12.25 dB -33.63 dB 5:00 09-Ravel: Daphnis et Chloe - Premiere Partie - VII Nocturne
DR14 -2.42 dB -24.87 dB 3:10 10-Ravel: Daphnis et Chloe - Premiere Partie - VIII Interlude
DR15 -0.34 dB -21.43 dB 4:18 11-Ravel: Daphnis et Chloe - Deuxieme Partie - IX Danse guerriere
DR17 -0.75 dB -24.40 dB 5:26 12-Ravel: Daphnis et Chloe - Deuxieme Partie - X Danse suppliante de Chloe
DR15 0.00 dB -21.88 dB 5:40 13-Ravel: Daphnis et Chloe - Troisieme Partie - XI Lever du jour
DR19 -0.33 dB -27.62 dB 5:37 14-Ravel: Daphnis et Chloe - Troisieme Partie - XII Pantomime
DR13 0.00 dB -18.58 dB 4:21 15-Ravel: Daphnis et Chloe - Troisieme Partie - XIII Danse generale
––––––––––––––––––––––––––––––––––––––––

Number of tracks: 15
Official DR value: DR15

Samplerate: 44100 Hz
Channels: 2
Bits per sample: 16
Bitrate: 571 kbps
Codec: FLAC
================================================================================


Exact Audio Copy V0.99 prebeta 5 from 4. May 2009

EAC extraction logfile from 10. June 2010, 1:16

Various / Boulez Conducts Ravel, Roussel - CD2

Used drive : HL-DT-STDVDRAM GSA-4083N Adapter: 1 ID: 0

Read mode : Secure
Utilize accurate stream : Yes
Defeat audio cache : Yes
Make use of C2 pointers : No

Read offset correction : 667
Overread into Lead-In and Lead-Out : No
Fill up missing offset samples with silence : Yes
Delete leading and trailing silent blocks : No
Null samples used in CRC calculations : No
Used interface : Native Win32 interface for Win NT & 2000

Used output format : User Defined Encoder
Selected bitrate : 768 kBit/s
Quality : High
Add ID3 tag : No
Command line compressor : C:\Program Files\Exact Audio Copy\FLAC\FLAC.EXE
Additional command line options : -6 -V -T "ARTIST=%a" -T "TITLE=%t" -T "ALBUM=%g" -T "DATE=%y" -T "TRACKNUMBER=%n" -T "GENRE=%m" -T "COMMENT=%e" %s -o %d


TOC of the extracted CD

Track | Start | Length | Start sector | End sector
––––––––––––––––––––––––––––-
1 | 0:00.00 | 15:57.00 | 0 | 71774
2 | 15:57.00 | 4:01.25 | 71775 | 89874
3 | 19:58.25 | 2:00.60 | 89875 | 98934
4 | 21:59.10 | 2:42.25 | 98935 | 111109
5 | 24:41.35 | 6:08.40 | 111110 | 138749
6 | 30:50.00 | 1:22.17 | 138750 | 144916
7 | 32:12.17 | 2:44.65 | 144917 | 157281
8 | 34:57.07 | 1:41.40 | 157282 | 164896
9 | 36:38.47 | 0:56.70 | 164897 | 169166
10 | 37:35.42 | 1:24.53 | 169167 | 175519
11 | 39:00.20 | 0:39.67 | 175520 | 178511
12 | 39:40.12 | 3:11.03 | 178512 | 192839
13 | 42:51.15 | 3:52.60 | 192840 | 210299
14 | 46:44.00 | 3:35.72 | 210300 | 226496
15 | 50:19.72 | 3:35.38 | 226497 | 242659
16 | 53:55.35 | 2:31.70 | 242660 | 254054
17 | 56:27.30 | 4:55.32 | 254055 | 276211
18 | 61:22.62 | 4:37.30 | 276212 | 297016
19 | 66:00.17 | 4:42.33 | 297017 | 318199
20 | 70:42.50 | 3:20.55 | 318200 | 333254


Range status and errors

Selected range

Filename F:\Music\Boulez conducts Ravel, Roussel\Boulez Conducts Ravel, Roussel - CD2.wav

Peak level 100.0 %
Range quality 100.0 %
Copy CRC 4AB703A3
Copy OK

No errors occurred

End of status report

[CUETools log; Date: 09.02.2018 17:55:17; Version: 2.1.4]
[CTDB TOCID: lHoKJf7ssknyhEx1F0j5JFOtJz0-] found.
Track | CTDB Status
1 | (74/74) Accurately ripped
2 | (74/74) Accurately ripped
3 | (74/74) Accurately ripped
4 | (74/74) Accurately ripped
5 | (74/74) Accurately ripped
6 | (74/74) Accurately ripped
7 | (74/74) Accurately ripped
8 | (74/74) Accurately ripped
9 | (74/74) Accurately ripped
10 | (74/74) Accurately ripped
11 | (74/74) Accurately ripped
12 | (74/74) Accurately ripped
13 | (74/74) Accurately ripped
14 | (73/74) Accurately ripped
15 | (74/74) Accurately ripped
16 | (73/74) Accurately ripped
17 | (74/74) Accurately ripped
18 | (74/74) Accurately ripped
19 | (72/74) Accurately ripped
20 | (68/74) Accurately ripped
[AccurateRip ID: 003ac600-0324d654-1b115b14] found.
Track [ CRC | V2 ] Status
01 [520a78da|5d8e5c16] (03+08/75) Accurately ripped
02 [f44795cf|2cae56b1] (03+08/75) Accurately ripped
03 [ddd34a9f|ed4ae9d1] (03+08/75) Accurately ripped
04 [b4e16276|00298eaf] (02+08/74) Accurately ripped
05 [9c656fbb|11a7dc3b] (03+08/75) Accurately ripped
06 [fd56631b|053929ef] (03+08/75) Accurately ripped
07 [afe585ef|c94f19db] (03+08/75) Accurately ripped
08 [1b4068ad|b22890a5] (03+08/76) Accurately ripped
09 [541edae5|117b77ac] (03+08/76) Accurately ripped
10 [7dd551fc|6e2ad901] (03+08/76) Accurately ripped
11 [b0ed76d8|46fd9040] (03+08/76) Accurately ripped
12 [0f120a88|e2a3271f] (03+08/76) Accurately ripped
13 [753ad459|7935998c] (03+08/75) Accurately ripped
14 [4ac305c8|2622113b] (03+08/76) Accurately ripped
15 [b70cbe20|5256c9d2] (03+08/76) Accurately ripped
16 [59f8ab13|714dfb11] (03+08/76) Accurately ripped
17 [33d2625b|29b57950] (03+08/74) Accurately ripped
18 [1fc2d68c|61038994] (03+08/76) Accurately ripped
19 [e239e707|f30afd66] (03+08/76) Accurately ripped
20 [18af0e30|489e7b4c] (03+08/74) Accurately ripped
Offsetted by 36:
01 [346a90b6] (03/75) Accurately ripped
02 [0136ac26] (03/75) Accurately ripped
03 [6f9b9edf] (03/75) Accurately ripped
04 [cee37f44] (03/74) Accurately ripped
05 [dcc4767a] (03/75) Accurately ripped
06 [096aae6e] (03/75) Accurately ripped
07 [bc2e2a83] (03/75) Accurately ripped
08 [532cce0e] (03/76) Accurately ripped
09 [eb11b35c] (03/76) Accurately ripped
10 [1bd562fc] (03/76) Accurately ripped
11 [0f0af7fe] (03/76) Accurately ripped
12 [3bf6e370] (03/76) Accurately ripped
13 [232d83ac] (03/75) Accurately ripped
14 [efd79495] (03/76) Accurately ripped
15 [adb73ed4] (03/76) Accurately ripped
16 [51521a16] (03/76) Accurately ripped
17 [001f00ff] (03/74) Accurately ripped
18 [0b5cf081] (03/76) Accurately ripped
19 [9ac399ec] (03/76) Accurately ripped
20 [e6589b64] (03/74) Accurately ripped
Offsetted by 664:
01 [2fa18642] (23/75) Accurately ripped
02 [5c6a2d15] (23/75) Accurately ripped
03 [ddb0560d] (23/75) Accurately ripped
04 [20641aa1] (23/74) Accurately ripped
05 [16534678] (23/75) Accurately ripped
06 [3988ce51] (23/75) Accurately ripped
07 [11276588] (23/75) Accurately ripped
08 [fe3be9a5] (23/76) Accurately ripped
09 [9914418b] (23/76) Accurately ripped
10 [7f45afcc] (23/76) Accurately ripped
11 [fa485805] (23/76) Accurately ripped
12 [a7f3cb0a] (23/76) Accurately ripped
13 [f77d6b6d] (23/75) Accurately ripped
14 [9655cdc7] (23/76) Accurately ripped
15 [71a78314] (23/76) Accurately ripped
16 [bfcf52ac] (23/76) Accurately ripped
17 [04442bb0] (21/74) Accurately ripped
18 [ea3bb1a8] (22/76) Accurately ripped
19 [e88f891c] (23/76) Accurately ripped
20 [e13e2a0f] (23/74) Accurately ripped
Offsetted by -12:
01 [5bea70e6] (00/75) No match (V2 was not tested)
02 [483e53f5] (00/75) No match (V2 was not tested)
03 [3065adbe] (00/75) No match (V2 was not tested)
04 [5d05a78a] (00/74) No match (V2 was not tested)
05 [c7189526] (00/75) No match (V2 was not tested)
06 [2bd01645] (00/75) No match (V2 was not tested)
07 [8c66fc32] (00/75) No match (V2 was not tested)
08 [b86c306c] (00/76) No match (V2 was not tested)
09 [03abc36d] (00/76) No match (V2 was not tested)
10 [21a5dcd1] (00/76) No match (V2 was not tested)
11 [8d1ed168] (00/76) No match (V2 was not tested)
12 [33b24ab5] (00/76) No match (V2 was not tested)
13 [5dba72b3] (00/75) No match (V2 was not tested)
14 [a87444b5] (00/76) No match (V2 was not tested)
15 [09e61f64] (00/76) No match (V2 was not tested)
16 [2362823a] (00/76) No match (V2 was not tested)
17 [dcb98b00] (00/74) No match (V2 was not tested)
18 [080dcc79] (00/76) No match (V2 was not tested)
19 [c00d79b8] (00/76) No match (V2 was not tested)
20 [802b3b0b] (00/74) No match (V2 was not tested)

Track Peak [ CRC32 ] [W/O NULL] [ LOG ]
– 100,0 [1A82EFD7] [4AB703A3] W/O NULL
01 98,7 [11B75FBB] [20200E38]
02 52,8 [EEF7C9C6] [7AF8EA67]
03 61,6 [7CFEEFB7] [1A9FF91A]
04 47,1 [30AD24C1] [EE2F7EDC]
05 97,1 [6035F750] [8F8BB111]
06 100,0 [A694B0D7] [B27DC7ED]
07 31,9 [E81D5FD3] [74802875]
08 29,3 [7560EADE] [3CAD5713]
09 49,2 [C1D6904A] [97B4C365]
10 24,1 [1FBF541A] [14C50836]
11 57,6 [A4B783B7] [7CB1E35B]
12 83,7 [9787740C] [D3254BEC]
13 21,9 [44C983EA] [011C55D8]
14 83,2 [82FB88BF] [60FCFBBD]
15 76,9 [A19917C5] [11E246E3]
16 63,9 [9FB85483] [AB4C1B19]
17 73,7 [E916FF7D] [4B0E48B2]
18 68,7 [BDFD0044] [9033D955]
19 76,6 [81001C52] [AF51DAA9]
20 97,7 [EF8E3ED4] [FD1752B3]

foobar2000 1.2 / Dynamic Range Meter 1.1.1
log date: 2018-02-09 18:05:03

––––––––––––––––––––––––––––––––––––––––
Analyzed: New York Philharmonic / Pierre Boulez / Boulez Conducts Ravel, Roussel - CD2
––––––––––––––––––––––––––––––––––––––––

DR Peak RMS Duration Track
––––––––––––––––––––––––––––––––––––––––
DR17 -0.11 dB -24.94 dB 15:57 01-Ravel: Sheherazade
DR13 0.00 dB -16.86 dB 1:22 06-Ravel: Valses nobles et sentimentales - I Modere
DR13 -9.91 dB -29.19 dB 2:45 07-Ravel: Valses nobles et sentimentales - II Assez lent
DR11 -10.64 dB -29.24 dB 1:42 08-Ravel: Valses nobles et sentimentales - III Modere
DR12 -6.15 dB -23.18 dB 0:57 09-Ravel: Valses nobles et sentimentales - IV Assez anime
DR13 -12.34 dB -31.74 dB 1:25 10-Ravel: Valses nobles et sentimentales - V Presque lent
DR11 -4.78 dB -22.89 dB 0:40 11-Ravel: Valses nobles et sentimentales - VI Assez vif
DR15 -1.54 dB -22.47 dB 3:11 12-Ravel: Valses nobles et sentimentales - VII Moins vif
DR11 -13.17 dB -32.20 dB 3:53 13-Ravel: Valses nobles et sentimentales - VIII Epilogue: lent
DR16 -1.60 dB -25.54 dB 3:36 14-Ravel: Ma Mere l'Oye - I Prelude
DR15 -2.28 dB -24.30 dB 3:36 15-Ravel: Ma Mere l'Oye - II Danse du rouet et scene
DR18 -3.89 dB -30.19 dB 2:32 16-Ravel: Ma Mere l'Oye - III Pavane de la Belle au bois dormant
DR16 -2.65 dB -25.78 dB 4:55 17-Ravel: Ma Mere l'Oye - IV Les Entretiens de la Belle et de la Bete
DR16 -3.25 dB -29.16 dB 4:37 18-Ravel: Ma Mere l'Oye - V Petit Poucet
DR14 -2.31 dB -24.13 dB 4:42 19-Ravel: Ma Mere l'Oye - VI Laideronnette, imperatrice des pagodes
DR13 -0.20 dB -21.03 dB 3:21 20-Ravel: Ma Mere l'Oye - VII Le Jardin feerique
––––––––––––––––––––––––––––––––––––––––

Number of tracks: 16
Official DR value: DR14

Samplerate: 44100 Hz
Channels: 2
Bits per sample: 16
Bitrate: 546 kbps
Codec: FLAC
================================================================================

––––––––––––––––––––––––––––––––––––––––
Analyzed: The Cleveland Orchestra / Pierre Boulez / Boulez Conducts Ravel, Roussel - CD2
––––––––––––––––––––––––––––––––––––––––

DR Peak RMS Duration Track
––––––––––––––––––––––––––––––––––––––––
DR15 -5.55 dB -30.31 dB 4:01 02-Ravel: Rapsodie espagnole - I Prelude a la nuit
DR15 -4.20 dB -29.28 dB 2:01 03-Ravel: Rapsodie espagnole - II Malaguena
DR16 -6.54 dB -30.13 dB 2:42 04-Ravel: Rapsodie espagnole - III Habanera
DR13 -0.25 dB -20.79 dB 6:09 05-Ravel: Rapsodie espagnole - IV Feria
––––––––––––––––––––––––––––––––––––––––

Number of tracks: 4
Official DR value: DR15

Samplerate: 44100 Hz
Channels: 2
Bits per sample: 16
Bitrate: 546 kbps
Codec: FLAC
================================================================================


Exact Audio Copy V0.99 prebeta 5 from 4. May 2009

EAC extraction logfile from 10. June 2010, 1:47

Various / Boulez Conducts Ravel, Roussel - CD3

Used drive : HL-DT-STDVDRAM GSA-4083N Adapter: 1 ID: 0

Read mode : Secure
Utilize accurate stream : Yes
Defeat audio cache : Yes
Make use of C2 pointers : No

Read offset correction : 667
Overread into Lead-In and Lead-Out : No
Fill up missing offset samples with silence : Yes
Delete leading and trailing silent blocks : No
Null samples used in CRC calculations : No
Used interface : Native Win32 interface for Win NT & 2000

Used output format : User Defined Encoder
Selected bitrate : 768 kBit/s
Quality : High
Add ID3 tag : No
Command line compressor : C:\Program Files\Exact Audio Copy\FLAC\FLAC.EXE
Additional command line options : -6 -V -T "ARTIST=%a" -T "TITLE=%t" -T "ALBUM=%g" -T "DATE=%y" -T "TRACKNUMBER=%n" -T "GENRE=%m" -T "COMMENT=%e" %s -o %d


TOC of the extracted CD

Track | Start | Length | Start sector | End sector
––––––––––––––––––––––––––––-
1 | 0:00.00 | 1:46.25 | 0 | 7974
2 | 1:46.25 | 7:38.00 | 7975 | 42324
3 | 9:24.25 | 3:11.37 | 42325 | 56686
4 | 12:35.62 | 6:03.38 | 56687 | 83949
5 | 18:39.25 | 5:03.00 | 83950 | 106674
6 | 23:42.25 | 3:00.00 | 106675 | 120174
7 | 26:42.25 | 8:33.10 | 120175 | 158659
8 | 35:15.35 | 5:09.07 | 158660 | 181841
9 | 40:24.42 | 4:53.58 | 181842 | 203874
10 | 45:18.25 | 6:17.00 | 203875 | 232149
11 | 51:35.25 | 7:34.00 | 232150 | 266199
12 | 59:09.25 | 0:54.72 | 266200 | 270321
13 | 60:04.22 | 0:49.50 | 270322 | 274046
14 | 60:53.72 | 0:50.38 | 274047 | 277834
15 | 61:44.35 | 0:50.37 | 277835 | 281621
16 | 62:34.72 | 0:49.68 | 281622 | 285364
17 | 63:24.65 | 0:50.17 | 285365 | 289131
18 | 64:15.07 | 0:50.05 | 289132 | 292886
19 | 65:05.12 | 0:49.43 | 292887 | 296604
20 | 65:54.55 | 0:49.55 | 296605 | 300334
21 | 66:44.35 | 0:49.15 | 300335 | 304024
22 | 67:33.50 | 0:49.67 | 304025 | 307766
23 | 68:23.42 | 0:48.60 | 307767 | 311426
24 | 69:12.27 | 0:47.68 | 311427 | 315019
25 | 70:00.20 | 0:48.02 | 315020 | 318621
26 | 70:48.22 | 0:48.58 | 318622 | 322279
27 | 71:37.05 | 0:47.45 | 322280 | 325849
28 | 72:24.50 | 0:48.35 | 325850 | 329484
29 | 73:13.10 | 1:28.02 | 329485 | 336086


Range status and errors

Selected range

Filename F:\Music\Boulez conducts Ravel, Roussel\Boulez Conducts Ravel, Roussel - CD3.wav

Peak level 100.0 %
Range quality 100.0 %
Copy CRC C35A6933
Copy OK

No errors occurred

End of status report

[CUETools log; Date: 09.02.2018 17:55:37; Version: 2.1.4]
[CTDB TOCID: zDxBtNVoth6fg5o1Lb_IB6NiL.o-] found.
Track | CTDB Status
1 | (72/72) Accurately ripped
2 | (72/72) Accurately ripped
3 | (72/72) Accurately ripped
4 | (71/72) Accurately ripped
5 | (71/72) Accurately ripped
6 | (71/72) Accurately ripped
7 | (71/72) Accurately ripped
8 | (71/72) Accurately ripped
9 | (72/72) Accurately ripped
10 | (68/72) Accurately ripped
11 | (70/72) Accurately ripped
12 | (72/72) Accurately ripped
13 | (71/72) Accurately ripped
14 | (72/72) Accurately ripped
15 | (71/72) Accurately ripped
16 | (72/72) Accurately ripped
17 | (71/72) Accurately ripped
18 | (71/72) Accurately ripped
19 | (71/72) Accurately ripped
20 | (72/72) Accurately ripped
21 | (72/72) Accurately ripped
22 | (72/72) Accurately ripped
23 | (72/72) Accurately ripped
24 | (71/72) Accurately ripped
25 | (71/72) Accurately ripped
26 | (72/72) Accurately ripped
27 | (70/72) Accurately ripped
28 | (71/72) Accurately ripped
29 | (69/72) Accurately ripped
[AccurateRip ID: 0069461b-07d9c1a1-aa11811d] found.
Track [ CRC | V2 ] Status
01 [70bdd1bc|771b8207] (09+14/75) Accurately ripped
02 [aed30a0f|36087480] (09+14/74) Accurately ripped
03 [074bed9d|d4959bed] (09+14/74) Accurately ripped
04 [dbc03b78|488075b2] (09+14/74) Accurately ripped
05 [d692f62d|2f4eba42] (09+14/75) Accurately ripped
06 [1db48fb7|069b9561] (08+14/74) Accurately ripped
07 [f7ce6fd6|f7110cab] (09+13/72) Accurately ripped
08 [94091782|c890cc3d] (09+13/74) Accurately ripped
09 [733f73f2|f0b6b319] (10+13/73) Accurately ripped
10 [1deba06c|490627b7] (09+12/72) Accurately ripped
11 [ce09f7e7|09628ee3] (09+12/72) Accurately ripped
12 [979d971b|13712669] (09+12/72) Accurately ripped
13 [3d30f680|177c2b8f] (09+12/71) Accurately ripped
14 [e8fc0745|c618c808] (09+12/71) Accurately ripped
15 [3e8e4408|24b5c2c9] (09+12/72) Accurately ripped
16 [c9a46b53|655527e5] (09+12/71) Accurately ripped
17 [4f70c556|19c5bd4d] (09+12/72) Accurately ripped
18 [173f7dd2|34a1178e] (09+12/72) Accurately ripped
19 [9c7982eb|e2a435b6] (08+12/70) Accurately ripped
20 [475f4489|7e88cb7d] (08+12/70) Accurately ripped
21 [e0b950b4|7ce08ae1] (08+12/71) Accurately ripped
22 [0ed8ae47|abe300bb] (08+12/71) Accurately ripped
23 [2add6da5|eee7c32c] (08+12/70) Accurately ripped
24 [f0b40b3d|e4ec5d6b] (09+12/71) Accurately ripped
25 [6bcd8a1e|d446c76b] (09+12/71) Accurately ripped
26 [50a3c1d3|7fc674fb] (09+12/72) Accurately ripped
27 [120562b9|4c59e3f1] (09+11/70) Accurately ripped
28 [a29bbcd5|947ab401] (09+12/72) Accurately ripped
29 [779d9c18|f8eed9cc] (08+12/71) Accurately ripped
Offsetted by 664:
01 [fa29a62a] (22/75) Accurately ripped
02 [d018ddfd] (23/74) Accurately ripped
03 [788e4d85] (22/74) Accurately ripped
04 [36a7ca18] (22/74) Accurately ripped
05 [c9f2e8e3] (23/75) Accurately ripped
06 [cd4ecf25] (23/74) Accurately ripped
07 [f52075a2] (21/72) Accurately ripped
08 [0d18f48b] (23/74) Accurately ripped
09 [839ac8e5] (22/73) Accurately ripped
10 [4369cb8c] (22/72) Accurately ripped
11 [91520177] (22/72) Accurately ripped
12 [fb3d9a0d] (22/72) Accurately ripped
13 [7551a8ed] (22/71) Accurately ripped
14 [328c1333] (22/71) Accurately ripped
15 [907cb485] (22/72) Accurately ripped
16 [638a7954] (22/71) Accurately ripped
17 [cb187d5f] (22/72) Accurately ripped
18 [b8cd5048] (22/72) Accurately ripped
19 [30eed5bd] (22/70) Accurately ripped
20 [ed78d320] (22/70) Accurately ripped
21 [343cb520] (22/71) Accurately ripped
22 [17f437dd] (22/71) Accurately ripped
23 [a5126d28] (22/70) Accurately ripped
24 [3823523d] (22/71) Accurately ripped
25 [7d50014d] (22/71) Accurately ripped
26 [41c7b6a5] (22/72) Accurately ripped
27 [fa7963fe] (22/70) Accurately ripped
28 [891d63be] (22/72) Accurately ripped
29 [37f0a195] (22/71) Accurately ripped

Track Peak [ CRC32 ] [W/O NULL] [ LOG ]
– 100,0 [04E480FE] [C35A6933] W/O NULL
01 77,1 [DB4DDF4F] [2C340C8E]
02 97,7 [F864AC0A] [34144B5F]
03 51,0 [93CCDA7B] [8F621DA6]
04 30,3 [107DD7A2] [33BF1E03]
05 42,9 [98443223] [571E0B8A]
06 49,3 [409D1863] [A6C0297F]
07 89,3 [600AC89A] [977E8CA4]
08 79,2 [DD6CB8F4] [BD5215AC]
09 100,0 [D92948D4] [8CBDB7CE]
10 49,9 [B635A3A1] [597E17B4]
11 98,3 [CE333C5A] [8B08ACC9]
12 1,9 [B2677C02] [C34EDF6B]
13 1,8 [680913FD] [3D634A51]
14 3,9 [816B1C77] [40458787]
15 5,1 [A8C54275] [A4FE7376]
16 5,1 [F9BBA1CF] [FB2DF3DF]
17 5,9 [07DAA817] [D24F5D1E]
18 5,4 [DFDB888B] [05340832]
19 7,0 [3CEBA845] [70B4DB6A]
20 11,3 [DA0BFF3D] [2AC3BAE2]
21 11,1 [093DD1E3] [A2553101]
22 15,4 [ED24ECD9] [6AF037FD]
23 19,9 [FC9746CD] [9FB9AE61]
24 27,8 [09D07FDD] [729A2D33]
25 34,7 [2183D444] [5AEEF8E9]
26 40,7 [59D67F43] [2FD23994]
27 52,1 [06CEEE0B] [D439965D]
28 58,8 [0D0EA584] [AB55D9B2]
29 99,7 [4F724625] [79639FD1]

foobar2000 1.2 / Dynamic Range Meter 1.1.1
log date: 2018-02-09 18:05:14

––––––––––––––––––––––––––––––––––––––––
Analyzed: Harold Gomberg, oboe; New York Philharmonic / Pierre Boulez / Boulez Conducts Ravel, Roussel - CD3
––––––––––––––––––––––––––––––––––––––––

DR Peak RMS Duration Track
––––––––––––––––––––––––––––––––––––––––
DR13 -5.84 dB -25.51 dB 3:11 03-Ravel: Le Tombeau de Couperin - I Prelude
DR14 -10.34 dB -29.42 dB 6:04 04-Ravel: Le Tombeau de Couperin - II Forlane
DR14 -7.35 dB -27.51 dB 5:03 05-Ravel: Le Tombeau de Couperin - III Menuet
DR14 -6.14 dB -26.87 dB 3:00 06-Ravel: Le Tombeau de Couperin - IV Rigaudon
––––––––––––––––––––––––––––––––––––––––

Number of tracks: 4
Official DR value: DR14

Samplerate: 44100 Hz
Channels: 2
Bits per sample: 16
Bitrate: 575 kbps
Codec: FLAC
================================================================================

––––––––––––––––––––––––––––––––––––––––
Analyzed: New York Philharmonic / Pierre Boulez / Boulez Conducts Ravel, Roussel - CD3
––––––––––––––––––––––––––––––––––––––––

DR Peak RMS Duration Track
––––––––––––––––––––––––––––––––––––––––
DR15 -2.26 dB -25.85 dB 1:46 01-Ravel: Fanfare pour 'L'Eventail de Jeanne'
DR17 -0.14 dB -23.39 dB 7:34 11-Ravel: Une barque sur l'ocean
DR10 -34.20 dB -49.60 dB 0:55 12-Ravel: Bolero - I
DR9 -34.62 dB -46.25 dB 0:50 13-Ravel: Bolero - II
DR10 -29.08 dB -42.79 dB 0:51 14-Ravel: Bolero - III
DR10 -25.80 dB -39.40 dB 0:50 15-Ravel: Bolero - IV
DR11 -25.76 dB -39.41 dB 0:50 16-Ravel: Bolero - V
DR10 -24.50 dB -39.00 dB 0:50 17-Ravel: Bolero - VI
DR10 -25.22 dB -37.48 dB 0:50 18-Ravel: Bolero - VII
DR10 -23.48 dB -37.27 dB 0:50 19-Ravel: Bolero - VIII
DR11 -18.95 dB -32.10 dB 0:50 20-Ravel: Bolero - IX
DR11 -19.07 dB -32.36 dB 0:49 21-Ravel: Bolero - X
DR11 -16.24 dB -31.13 dB 0:50 22-Ravel: Bolero - XI
DR11 -13.99 dB -26.97 dB 0:49 23-Ravel: Bolero - XII
DR11 -11.09 dB -24.74 dB 0:48 24-Ravel: Bolero - XIII
DR11 -9.18 dB -22.54 dB 0:48 25-Ravel: Bolero - XIV
DR12 -7.81 dB -22.89 dB 0:49 26-Ravel: Bolero - XV
DR11 -5.65 dB -18.96 dB 0:48 27-Ravel: Bolero - XVI
DR11 -4.60 dB -17.91 dB 0:48 28-Ravel: Bolero - XVII
DR11 -0.02 dB -15.52 dB 1:28 29-Ravel: Bolero - XVIII
––––––––––––––––––––––––––––––––––––––––

Number of tracks: 20
Official DR value: DR11

Samplerate: 44100 Hz
Channels: 2
Bits per sample: 16
Bitrate: 575 kbps
Codec: FLAC
================================================================================

––––––––––––––––––––––––––––––––––––––––
Analyzed: Philippe Entremont, piano; New York Philharmonic / Pierre Boulez / Boulez Conducts Ravel, Roussel - CD3
––––––––––––––––––––––––––––––––––––––––

DR Peak RMS Duration Track
––––––––––––––––––––––––––––––––––––––––
DR15 -0.98 dB -23.34 dB 8:33 07-Ravel: Piano Concerto for the Left Hand - I Lento
DR15 -2.02 dB -24.95 dB 5:09 08-Ravel: Piano Concerto for the Left Hand - II Allegro
DR15 0.00 dB -22.42 dB 4:54 09-Ravel: Piano Concerto for the Left Hand - III Tempo I
––––––––––––––––––––––––––––––––––––––––

Number of tracks: 3
Official DR value: DR15

Samplerate: 44100 Hz
Channels: 2
Bits per sample: 16
Bitrate: 575 kbps
Codec: FLAC
================================================================================

––––––––––––––––––––––––––––––––––––––––
Analyzed: The Cleveland Orchestra / Pierre Boulez / Boulez Conducts Ravel, Roussel - CD3
––––––––––––––––––––––––––––––––––––––––

DR Peak RMS Duration Track
––––––––––––––––––––––––––––––––––––––––
DR14 -0.20 dB -21.01 dB 7:38 02-Ravel: Alborada del gracioso
DR14 -6.03 dB -24.89 dB 6:17 10-Ravel: Pavane pour une infante defunte
––––––––––––––––––––––––––––––––––––––––

Number of tracks: 2
Official DR value: DR14

Samplerate: 44100 Hz
Channels: 2
Bits per sample: 16
Bitrate: 575 kbps
Codec: FLAC
================================================================================


Exact Audio Copy V0.99 prebeta 5 from 4. May 2009

EAC extraction logfile from 11. June 2010, 1:46

Various / Boulez Conducts Ravel, Roussel - CD4

Used drive : HL-DT-STDVDRAM GSA-4083N Adapter: 1 ID: 0

Read mode : Secure
Utilize accurate stream : Yes
Defeat audio cache : Yes
Make use of C2 pointers : No

Read offset correction : 667
Overread into Lead-In and Lead-Out : No
Fill up missing offset samples with silence : Yes
Delete leading and trailing silent blocks : No
Null samples used in CRC calculations : No
Used interface : Native Win32 interface for Win NT & 2000

Used output format : User Defined Encoder
Selected bitrate : 768 kBit/s
Quality : High
Add ID3 tag : No
Command line compressor : C:\Program Files\Exact Audio Copy\FLAC\FLAC.EXE
Additional command line options : -6 -V -T "ARTIST=%a" -T "TITLE=%t" -T "ALBUM=%g" -T "DATE=%y" -T "TRACKNUMBER=%n" -T "GENRE=%m" -T "COMMENT=%e" %s -o %d


TOC of the extracted CD

Track | Start | Length | Start sector | End sector
––––––––––––––––––––––––––––-
1 | 0:00.00 | 4:25.52 | 0 | 19926
2 | 4:25.52 | 4:35.33 | 19927 | 40584
3 | 9:01.10 | 3:39.17 | 40585 | 57026
4 | 12:40.27 | 6:01.38 | 57027 | 84139
5 | 18:41.65 | 3:45.62 | 84140 | 101076
6 | 22:27.52 | 3:57.25 | 101077 | 118876
7 | 26:25.02 | 2:26.43 | 118877 | 129869
8 | 28:51.45 | 3:07.50 | 129870 | 143944
9 | 31:59.20 | 1:55.30 | 143945 | 152599
10 | 33:54.50 | 1:27.02 | 152600 | 159126
11 | 35:21.52 | 1:21.25 | 159127 | 165226
12 | 36:43.02 | 0:50.15 | 165227 | 168991
13 | 37:33.17 | 2:38.53 | 168992 | 180894
14 | 40:11.70 | 1:01.10 | 180895 | 185479
15 | 41:13.05 | 6:10.37 | 185480 | 213266
16 | 47:23.42 | 8:40.00 | 213267 | 252266
17 | 56:03.42 | 3:21.30 | 252267 | 267371
18 | 59:24.72 | 5:53.03 | 267372 | 293849


Range status and errors

Selected range

Filename F:\Music\Boulez conducts Ravel, Roussel\Boulez Conducts Ravel, Roussel - CD4.wav

Peak level 98.8 %
Range quality 100.0 %
Copy CRC DBF2EC52
Copy OK

No errors occurred

End of status report

[CUETools log; Date: 09.02.2018 17:55:53; Version: 2.1.4]
[CTDB TOCID: Y_855k59cOZakqEjQsAcVKYWkr0-] found.
Track | CTDB Status
1 | (15/15) Accurately ripped
2 | (15/15) Accurately ripped
3 | (15/15) Accurately ripped
4 | (15/15) Accurately ripped
5 | (15/15) Accurately ripped
6 | (15/15) Accurately ripped
7 | (15/15) Accurately ripped
8 | (15/15) Accurately ripped
9 | (15/15) Accurately ripped
10 | (15/15) Accurately ripped
11 | (15/15) Accurately ripped
12 | (15/15) Accurately ripped
13 | (15/15) Accurately ripped
14 | (15/15) Accurately ripped
15 | (14/15) Accurately ripped
16 | (15/15) Accurately ripped
17 | (15/15) Accurately ripped
18 | (15/15) Accurately ripped
[AccurateRip ID: 0029b9bd-021cf008-f20f4e12] found.
Track [ CRC | V2 ] Status
01 [05dce438|da195e8b] (04+04/17) Accurately ripped
02 [ff56874d|f73752b4] (04+04/17) Accurately ripped
03 [1bee7889|887f7d36] (04+04/17) Accurately ripped
04 [a1c58c5b|81c32233] (04+04/17) Accurately ripped
05 [d525e57a|9c980035] (04+04/17) Accurately ripped
06 [caec2ce3|59129d29] (04+04/17) Accurately ripped
07 [144cc308|929c2078] (04+04/17) Accurately ripped
08 [e8a94224|c2453e31] (04+04/17) Accurately ripped
09 [92dc0896|98ddb4ee] (04+04/17) Accurately ripped
10 [e55606a5|6fad3b03] (04+04/17) Accurately ripped
11 [c3ad0366|1247a5b6] (04+04/17) Accurately ripped
12 [a75323df|0e999e36] (04+04/17) Accurately ripped
13 [c610a4fd|85ceec75] (04+04/17) Accurately ripped
14 [bc863b22|8227e709] (04+04/17) Accurately ripped
15 [e8f4a134|e5cd7116] (04+04/16) Accurately ripped
16 [dd066f7a|da23a18e] (04+04/16) Accurately ripped
17 [1d5d5809|509dc580] (04+04/16) Accurately ripped
18 [e6627bf7|f26df9cd] (04+04/16) Accurately ripped
Offsetted by 628:
01 [31a3d535] (02/17) Accurately ripped
02 [37b28f50] (02/17) Accurately ripped
03 [b694e919] (02/17) Accurately ripped
04 [47ded904] (02/17) Accurately ripped
05 [5992baec] (02/17) Accurately ripped
06 [ec431e8c] (02/17) Accurately ripped
07 [01230e52] (02/17) Accurately ripped
08 [51e788bb] (02/17) Accurately ripped
09 [560af3bd] (02/17) Accurately ripped
10 [316b4826] (02/17) Accurately ripped
11 [871d9dbb] (02/17) Accurately ripped
12 [84adb64b] (02/17) Accurately ripped
13 [75b705e4] (02/17) Accurately ripped
14 [3ec0eb91] (02/17) Accurately ripped
15 [e71ae870] (02/16) Accurately ripped
16 [b6c52f12] (02/16) Accurately ripped
17 [33d44b55] (02/16) Accurately ripped
18 [30bb74a2] (02/16) Accurately ripped

Track Peak [ CRC32 ] [W/O NULL] [ LOG ]
– 98,8 [ABB6EF41] [DBF2EC52] W/O NULL
01 33,6 [3F1CE0F6] [0FDF935F]
02 50,2 [3FB6EAA7] [1FD6B1DF]
03 30,9 [8E62E7A0] [B085C302]
04 47,8 [C0C3B361] [46FCC222]
05 74,9 [2BEBD518] [8C963044]
06 30,6 [3AF8D61A] [24621CA5]
07 52,1 [1A489CC3] [30C9CE95]
08 84,1 [0941C2AD] [786068F8]
09 90,6 [67E0DC3A] [A69B5038]
10 65,9 [9953195E] [DE38B6CA]
11 44,7 [6ADE9158] [9B31C1FF]
12 71,2 [E7767AE0] [8B5F84C2]
13 50,5 [DAF5C1E5] [2CB28AD4]
14 61,6 [D21D4249] [612B8B5E]
15 95,3 [6FD9861D] [BD71B3A2]
16 98,1 [852E1D2E] [79F17124]
17 88,5 [3D1C5C8E] [B0D50351]
18 98,8 [65C319F2] [3F05444C]

foobar2000 1.2 / Dynamic Range Meter 1.1.1
log date: 2018-02-09 18:05:41

––––––––––––––––––––––––––––––––––––––––
Analyzed: Ravel: Chansons madecasses - I Nahandove, o belle Nahandove! / Boulez Conducts Ravel, Roussel - CD4 (1)
Ravel: Chansons madecasses - II Aoua! Aoua! Mefiez-vouz des blancs / Boulez Conducts Ravel, Roussel - CD4 (2)
Ravel: Chansons madecasses - III Il est doux de se coucher / Boulez Conducts Ravel, Roussel - CD4 (3)
Ravel: Cinq Melodies populaires grecques - I Le Reveil de la mariee / Boulez Conducts Ravel, Roussel - CD4 (4)
Ravel: Cinq Melodies populaires grecques - II La-bas, vers l'eglise / Boulez Conducts Ravel, Roussel - CD4 (5)
Ravel: Cinq Melodies populaires grecques - III Quel galant m'est comparable / Boulez Conducts Ravel, Roussel - CD4 (6)
Ravel: Cinq Melodies populaires grecques - IV Chanson de cueilleuses de lenti… / Boulez Conducts Ravel, Roussel - CD4 (7)
Ravel: Cinq Melodies populaires grecques - V Tout gai! / Boulez Conducts Ravel, Roussel - CD4 (8)
––––––––––––––––––––––––––––––––––––––––

DR Peak RMS Duration Track
––––––––––––––––––––––––––––––––––––––––
DR15 -6.41 dB -30.36 dB 6:02 04-Ravel: Chansons madecasses - I Nahandove, o belle Nahandove!
DR15 -2.51 dB -24.18 dB 3:46 05-Ravel: Chansons madecasses - II Aoua! Aoua! Mefiez-vouz des blancs
DR15 -10.27 dB -32.26 dB 3:57 06-Ravel: Chansons madecasses - III Il est doux de se coucher
DR12 -3.62 dB -20.03 dB 1:27 10-Ravel: Cinq Melodies populaires grecques - I Le Reveil de la mariee
DR13 -6.99 dB -23.97 dB 1:21 11-Ravel: Cinq Melodies populaires grecques - II La-bas, vers l'eglise
DR12 -2.94 dB -19.84 dB 0:50 12-Ravel: Cinq Melodies populaires grecques - III Quel galant m'est comparable
DR12 -5.93 dB -23.38 dB 2:39 13-Ravel: Cinq Melodies populaires grecques - IV Chanson de cueilleuses de lenti…
DR10 -4.20 dB -18.40 dB 1:01 14-Ravel: Cinq Melodies populaires grecques - V Tout gai!
––––––––––––––––––––––––––––––––––––––––

Number of tracks: 8
Official DR value: DR13

Samplerate: 44100 Hz
Channels: 2
Bits per sample: 16
Bitrate: 568 kbps
Codec: FLAC
================================================================================

––––––––––––––––––––––––––––––––––––––––
Analyzed: Ravel: Don Quichotte a Dulcinee - I Chanson romanesque / Boulez Conducts Ravel, Roussel - CD4 (1)
Ravel: Don Quichotte a Dulcinee - II Chanson epique / Boulez Conducts Ravel, Roussel - CD4 (2)
Ravel: Don Quichotte a Dulcinee - III Chanson a boire / Boulez Conducts Ravel, Roussel - CD4 (3)
––––––––––––––––––––––––––––––––––––––––

DR Peak RMS Duration Track
––––––––––––––––––––––––––––––––––––––––
DR13 -5.66 dB -23.77 dB 2:27 07-Ravel: Don Quichotte a Dulcinee - I Chanson romanesque
DR12 -1.50 dB -20.92 dB 3:08 08-Ravel: Don Quichotte a Dulcinee - II Chanson epique
DR13 -0.85 dB -19.79 dB 1:55 09-Ravel: Don Quichotte a Dulcinee - III Chanson a boire
––––––––––––––––––––––––––––––––––––––––

Number of tracks: 3
Official DR value: DR12

Samplerate: 44100 Hz
Channels: 2
Bits per sample: 16
Bitrate: 568 kbps
Codec: FLAC
================================================================================

––––––––––––––––––––––––––––––––––––––––
Analyzed: Ravel: Trois Poemes de Stephane Mallarme - I Soupir / Boulez Conducts Ravel, Roussel - CD4 (1)
Ravel: Trois Poemes de Stephane Mallarme - II Placet futile / Boulez Conducts Ravel, Roussel - CD4 (2)
Ravel: Trois Poemes de Stephane Mallarme - III Surgi de la croupe et du bond / Boulez Conducts Ravel, Roussel - CD4 (3)
Roussel: Symphony No.3 in G minor, op.42 - I Allegro vivo / Boulez Conducts Ravel, Roussel - CD4 (4)
Roussel: Symphony No.3 in G minor, op.42 - II Adagio / Boulez Conducts Ravel, Roussel - CD4 (5)
Roussel: Symphony No.3 in G minor, op.42 - III Vivace / Boulez Conducts Ravel, Roussel - CD4 (6)
Roussel: Symphony No.3 in G minor, op.42 - IV Allegro con spirito / Boulez Conducts Ravel, Roussel - CD4 (7)
––––––––––––––––––––––––––––––––––––––––

DR Peak RMS Duration Track
––––––––––––––––––––––––––––––––––––––––
DR12 -9.45 dB -26.20 dB 4:26 01-Ravel: Trois Poemes de Stephane Mallarme - I Soupir
DR12 -5.98 dB -23.48 dB 4:35 02-Ravel: Trois Poemes de Stephane Mallarme - II Placet futile
DR11 -10.19 dB -25.84 dB 3:39 03-Ravel: Trois Poemes de Stephane Mallarme - III Surgi de la croupe et du bond
DR13 -0.42 dB -19.59 dB 6:10 15-Roussel: Symphony No.3 in G minor, op.42 - I Allegro vivo
DR16 -0.17 dB -23.15 dB 8:40 16-Roussel: Symphony No.3 in G minor, op.42 - II Adagio
DR14 -1.05 dB -20.61 dB 3:21 17-Roussel: Symphony No.3 in G minor, op.42 - III Vivace
DR15 -0.10 dB -20.88 dB 5:53 18-Roussel: Symphony No.3 in G minor, op.42 - IV Allegro con spirito
––––––––––––––––––––––––––––––––––––––––

Number of tracks: 7
Official DR value: DR13

Samplerate: 44100 Hz
Channels: 2
Bits per sample: 16
Bitrate: 568 kbps
Codec: FLAC
================================================================================

Pierre Boulez conducts Maurice Ravel & Albert Roussel (2009) 4CD Box Set