Subcategories

Pierre Boulez conducts Igor Stravinsky (2010) 6CD Box Set [Re-Up]

Posted By: Designol
Pierre Boulez conducts Igor Stravinsky (2010) 6CD Box Set [Re-Up]

Pierre Boulez conducts Igor Stravinsky (2010) 6CD Box Set
EAC | FLAC | Image (Cue&Log) ~ 1.3 Gb | Mp3 (CBR320) ~ 812 Mb | Scans included
Classical | Label: Deutsche Grammophon | # 00289 477 8730 | Time: 05:54:22

The years have seen Pierre Boulez record for CBS, Erato, EMI, and Philips, among other labels, but his most consistent and critically praised work has appeared on Deutsche Grammophon, where he has conducted the Chicago Symphony Orchestra, the Cleveland Orchestra, the Berlin Philharmonic, and his own Ensemble InterContemporain in many successful performances. These ensembles are heard on this trimline, six-CD box set of Igor Stravinsky's major works, which brings together Boulez's recordings of L'oiseau de feu, Petrushka, Le Sacre du printemps, L'histoire du Soldat, the symphonies, concertos, and other works, recorded between 1980 and 1996. As one of the leading champions of modernism, first as a composer and essayist, then as a prominent conductor, Boulez is regarded as an authority on Stravinsky's oeuvre, and it is difficult to imagine many conductors who have a better understanding of the technical and stylistic issues that affect performances. Boulez is also famous for his precision and meticulousness, which make the details stand out clearly in the rhythmically complex and texturally dense orchestral scores of the ballets, and yet seem so delicate and exact in the concertos and pieces for smaller ensembles. That Boulez has inspired a devoted international following is beyond question, so this collection of some of his finest recordings will appeal to his admirers and the wider circle of Stravinsky fans.

Review by Blair Sanderson, Allmusic.com

Pierre Boulez conducts Igor Stravinsky (2010) 6CD Box Set [Re-Up]



Pierre Boulez conducts Igor Stravinsky (2010) 6CD Box Set [Re-Up]



Tracklist:

CD1 - The Firebird (L'Oiseau de feu); Fireworks; 4 Studies

Pierre Boulez and Chicago Symphony Orchestra:

01. The Firebird - Introduction (02:32)
02. The Firebird - Kashchie's Magic Garden (01:46)
03. The Firebird - Appearance of the Firebird, pursued by Ivan Tsarevich (02:26)
04. The Firebird - Dance of the Firebird (01:21)
05. The Firebird - Ivan Tsarevich captures the Firebird (00:52)
06. The Firebird - The Firebird's entreaties - Appearance of the 13 enchanted princesses (08:14)
07. The Firebird - The Princesses' game with the golden apples (02:24)
08. The Firebird - Sudden appearance of Ivan Tsarevich (01:37)
09. The Firebird - The princesses' khorovod (round dance) (03:43)
10. The Firebird - Daybreak - Ivan Tsarevich enters Kashchei's palace (01:31)
11. The Firebird - Magic carillon, appearance of Kashchei's guardian monsters and the capture of Ivan Tsarevich (05:41)
12. The Firebird - Dance of Kashchei's retinue, under the Firebird spell (00:44)
13. The Firebird - Infernal dance of all of Kashchei's subjects (04:42)
14. The Firebird - Lullaby (The Firebird) - Kashchei wakes up - Death of Kashchei - Deep Shadows (05:16)
15. The Firebird - Disappearance of the palace and dissolution of Kashchei entchantments (03:23)
16. Fireworks, Orchestral Fantasy op. 4 (04:02)
17. Four Studies - 1. Dance (Con moto) (00:59)
18. Four Studies - 2. Eccentric (Moderato) (02:11)
19. Four Studies - 3. Canticle (Largo) (03:38)
20. Four Studies - 4. Madrid (Allegro con moto) (02:48)


CD2 - Petrushka (Pétrouchka); The Rite of Spring (Le Sacre du printemps)

Pierre Boulez and The Cleveland Orchestra:

01. Petrushka - First Tableau (09:57)
02. Petrushka - Second Tableau (04:30)
03. Petrushka - Third Tableau (07:01)
04. Petrushka - Fourth Tableau (13:33)
05. The Rite of Spring, Part 1 - The Adoration of the Earth (16:02)
06. The Rite of Spring, Part 2 - The Sacrifice (17:27)


CD3 - Scherzo Fantastique - Star-Face - The Song of the Nightingale - The Soldier's Tale
(Le Chant du Rossignol; L'Histoire du Soldat; Scherzo fantastique; Le Roi des étoiles)

Pierre Boulez and The Cleveland Orchestra:

01. Scherzo Fantastique, Op.3 (11:33)
02. Star-Face(Zvezdolikiy) (05:35)
03. The Song of the Nightingale: I. Introduction (02:25)
04. The Song of the Nightingale: II. Marche chinoise (03:29)
05. The Song of the Nightingale: III. Chant du rossignol (03:32)
06. The Song of the Nightingale: IV. Jeu du rossignol mecanique (11:15)
07. The Soldier's Tale, Suite: 1. Marche de soldat (01:47)
08. The Soldier's Tale, Suite: 2. Petits Airs au bord du ruisseau (02:42)
09. The Soldier's Tale, Suite: 3. Pastorale (03:55)
10. The Soldier's Tale, Suite: 4. Marche royale (02:42)
11. The Soldier's Tale, Suite: 5. Petit Concert (03:07)
12. The Soldier's Tale, Suite: 6. Trois Danses (Tango - Valse - Ragtime) (06:16)
13. The Soldier's Tale, Suite: 7. Danse du Diable (01:23)
14. The Soldier's Tale, Suite: 8. Grand Choral (02:42)
15. The Soldier's Tale, Suite: 9. Marche triomphale du Diable (02:21)

CD4 - Symphony of Psalms; Symphony in Three Movements; Symphonies of Wind Instruments

Pierre Boulez & Berliner Philharmoniker:

01. Symphonies of Wind Instruments (1920) (09:16)
02. Symphony of Psalms (rev. 1948) - 1 Exaudi orationem meam, Domine (03:11)
03. Symphony of Psalms (rev. 1948) - 2 Expectans expectavi Dominum (06:07)
04. Symphony of Psalms (rev. 1948) - 3 Alleluia, laudate Dominum (10:49)
05. Symphony in Three Movements (1945) - 1 quarter note 160 (09:56)
06. Symphony in Three Movements (1945) - 2 Andante - Interlude (L'istesso tempo) (06:37)
07. Symphony in Three Movements (1945) - 3 Con moto (06:05)

CD5 - Ebony Concerto; 3 Pieces for Clarinet solo; Concertino for String Quartet; 8 Instrumental Miniatures;
Concerto "Dumbarton Oaks"; Elegy for Viola solo; Epitaphium; Double Canon for String Quartet


Pierre Boulez and Ensemble InterContemporain:

01. Ebony Concerto (08:56)
02. Three Pieces for Clarinet Solo (04:07)
03. Concertino for String Quartet (06:38)
04. Eight Instrumental Miniatures (07:20)
05. Concerto 'Dumbarton Oaks' (I) Tempo giusto (04:42)
06. Concerto 'Dumbarton Oaks' (II) Allegretto (05:17)
07. Concerto 'Dumbarton Oaks' (III) Con moto (05:20)
08. Elegy For Viola Solo (05:13)
09. Epitaphium for Flute, Clarinet and Harp (01:41)
10. Double Canon for String Quartet (01:41)

CD6 - Songs:

01. Pastorale - Songs without Words for Voice (01:59)
Phyllis Bryn-Julson, Ensemble Intercontemporain, Pierre Boulez


02. Two Poems by Paul Verlaine - The White Moon (03:27)
03. Two Poems by Paul Verlaine - Wisdom (01:34)
John Shirley-Quirk, Ensemble Intercontemporain, Pierre Boulez

04. Two Poems by Konstantin Bal'mont - The Flower (01:16)
05. Two Poems by Konstantin Bal'mont - The Dove (01:40)
06. Three Japanese Lyrics - Akahito (00:48)
07. Three Japanese Lyrics - Mazatsumi (01:00)
08. Three Japanese Lyrics - Tsaraiuki (01:35)
09. Three Little Songs - The Magpie (01:02)
10. Three Little Songs - The Rook (01:03)
11. Three Little Songs - Chicher-Yacher (01:05)
Phyllis Bryn-Julson, Ensemble Intercontemporain, Pierre Boulez

12. Pribaoutki (4 Songs) - Kornilo (00:51)
13. Pribaoutki (4 Songs) - Natasha (00:25)
14. Pribaoutki (4 Songs) - The Colonel (00:47)
15. Pribaoutki (4 Songs) - The Old Man and the Hare (02:21)
John Shirley-Quirk, Ensemble Intercontemporain, Pierre Boulez

16. Cat's Cradle Songs - Sleep, pussy (00:40)
17. Cat's Cradle Songs - The cat on the stove (01:00)
18. Cat's Cradle Songs - Lullaby (01:18)
19. Cat's Cradle Songs - Father cat has… (00:53)
Ann Murray, Ensemble Intercontemporain, Pierre Boulez

20. 4 Songs - The Drake (01:14)
21. 4 Songs - A Russian Spiritual (02:05)
22. 4 Songs - Geese and Swans (00:32)
23. 4 Songs - Tilim-bom (01:14)
24. Tilim-bom (01:15)
25. Song of Parasha (from the opera Mavra) (02:14)
Phyllis Bryn-Julson, Ensemble Intercontemporain, Pierre Boulez

26. 3 Songs from Shakespeare - Music to heare (02:53)
27. 3 Songs from Shakespeare - Full Fadom five (01:58)
28. 3 Songs from Shakespeare - Spring (02:23)
Ann Murray, Ensemble Intercontemporain, Pierre Boulez

29. In memoriam Dylan Thomas (07:53)
Robert Tear, Ensemble Intercontemporain, Pierre Boulez

30. Elegy for J.F.K. (01:50)
John Shirley-Quirk, Ensemble Intercontemporain, Pierre Boulez

31. Two Sacred Songs - Lord, what does the ground here bear? (02:33)
32. Two Sacred Songs - Thou art wounded… (05:04)
Ann Murray, Ensemble Intercontemporain, Pierre Boulez


Exact Audio Copy V0.99 prebeta 4 from 23. January 2008

EAC extraction logfile from 11. April 2010, 11:16

Pierre Boulez, Chicago Symphony Orchestra / Stravinsky - The Firebird · 4 Studies · Fireworks

Used drive : ATAPI DVD A DH20A4H Adapter: 1 ID: 0

Read mode : Secure
Utilize accurate stream : Yes
Defeat audio cache : Yes
Make use of C2 pointers : No

Read offset correction : 6
Overread into Lead-In and Lead-Out : No
Fill up missing offset samples with silence : Yes
Delete leading and trailing silent blocks : No
Null samples used in CRC calculations : No
Used interface : Native Win32 interface for Win NT & 2000

Used output format : Internal WAV Routines
Sample format : 44.100 Hz; 16 Bit; Stereo


TOC of the extracted CD

Track | Start | Length | Start sector | End sector
––––––––––––––––––––––––––––-
1 | 0:00.33 | 2:32.32 | 33 | 11464
2 | 2:32.65 | 1:46.38 | 11465 | 19452
3 | 4:19.28 | 2:26.00 | 19453 | 30402
4 | 6:45.28 | 1:21.52 | 30403 | 36529
5 | 8:07.05 | 0:52.68 | 36530 | 40497
6 | 8:59.73 | 8:14.02 | 40498 | 77549
7 | 17:14.00 | 2:24.58 | 77550 | 88407
8 | 19:38.58 | 1:37.25 | 88408 | 95707
9 | 21:16.08 | 3:43.25 | 95708 | 112457
10 | 24:59.33 | 1:31.45 | 112458 | 119327
11 | 26:31.03 | 5:41.17 | 119328 | 144919
12 | 32:12.20 | 0:44.48 | 144920 | 148267
13 | 32:56.68 | 4:42.47 | 148268 | 169464
14 | 37:39.40 | 5:16.43 | 169465 | 193207
15 | 42:56.08 | 3:23.25 | 193208 | 208457
16 | 46:19.33 | 4:02.00 | 208458 | 226607
17 | 50:21.33 | 0:59.00 | 226608 | 231032
18 | 51:20.33 | 2:11.00 | 231033 | 240857
19 | 53:31.33 | 3:38.00 | 240858 | 257207
20 | 57:09.33 | 2:48.00 | 257208 | 269807


Range status and errors

Selected range

Filename E:\Bearbeitung\Klassik\Boulez Stravinsky\CD 01\Pierre Boulez, Chicago Symphony Orchestra - Stravinsky - The Firebird · 4 Studies · Fireworks.wav

Peak level 98.4 %
Range quality 100.0 %
Copy CRC B89AFE5F
Copy OK

No errors occurred


AccurateRip summary

Track 1 accurately ripped (confidence 3) [96BCE993]
Track 2 accurately ripped (confidence 3) [3EA00D1A]
Track 3 accurately ripped (confidence 3) [2F36B08E]
Track 4 accurately ripped (confidence 3) [F4318F12]
Track 5 accurately ripped (confidence 3) [61CD860B]
Track 6 accurately ripped (confidence 3) [64F15591]
Track 7 accurately ripped (confidence 3) [D5E3DE13]
Track 8 accurately ripped (confidence 3) [A15BB83D]
Track 9 accurately ripped (confidence 3) [7FCE404E]
Track 10 accurately ripped (confidence 3) [5146E3F5]
Track 11 accurately ripped (confidence 3) [146A9E51]
Track 12 accurately ripped (confidence 3) [09429A9D]
Track 13 accurately ripped (confidence 3) [39A89BAC]
Track 14 accurately ripped (confidence 3) [D9FAC667]
Track 15 accurately ripped (confidence 3) [98890A4B]
Track 16 accurately ripped (confidence 3) [59C814EF]
Track 17 accurately ripped (confidence 3) [B9F34925]
Track 18 accurately ripped (confidence 3) [50DF5443]
Track 19 accurately ripped (confidence 3) [8970E20F]
Track 20 accurately ripped (confidence 3) [9250FC26]

All tracks accurately ripped

End of status report

[CUETools log; Date: 09.05.2015 13:10:14; Version: 2.1.5]
Pregap length 00:00:33.
[CTDB TOCID: 7LPPVVta3SiCKMTeJfyHIDNzCeA-] found.
Track | CTDB Status
1 | (23/24) Accurately ripped
2 | (24/24) Accurately ripped
3 | (24/24) Accurately ripped
4 | (24/24) Accurately ripped
5 | (24/24) Accurately ripped
6 | (24/24) Accurately ripped
7 | (24/24) Accurately ripped
8 | (24/24) Accurately ripped
9 | (24/24) Accurately ripped
10 | (24/24) Accurately ripped
11 | (24/24) Accurately ripped
12 | (24/24) Accurately ripped
13 | (24/24) Accurately ripped
14 | (24/24) Accurately ripped
15 | (23/24) Accurately ripped, or (1/24) differs in 24 samples @02:21:03-02:21:04,02:52:55
16 | (24/24) Accurately ripped
17 | (24/24) Accurately ripped
18 | (24/24) Accurately ripped
19 | (24/24) Accurately ripped
20 | (24/24) Accurately ripped
[AccurateRip ID: 00298784-026f46f0-050e0d14] found.
Track [ CRC | V2 ] Status
01 [96bce993|216323fd] (011+040/176) Accurately ripped
02 [3ea00d1a|7a4a49a5] (011+040/177) Accurately ripped
03 [2f36b08e|bd75bead] (011+040/176) Accurately ripped
04 [f4318f12|23472b4e] (011+040/177) Accurately ripped
05 [61cd860b|de15fbfd] (011+040/177) Accurately ripped
06 [64f15591|0860bbc1] (011+039/175) Accurately ripped
07 [d5e3de13|b18418e1] (011+039/176) Accurately ripped
08 [a15bb83d|0f0eacfb] (011+039/176) Accurately ripped
09 [7fce404e|dfe713c5] (011+039/174) Accurately ripped
10 [5146e3f5|05fb36b7] (011+039/176) Accurately ripped
11 [146a9e51|4ed1082e] (011+039/173) Accurately ripped
12 [09429a9d|45c9172c] (011+040/177) Accurately ripped
13 [39a89bac|fe72e0d6] (011+040/175) Accurately ripped
14 [d9fac667|74dba17c] (010+039/175) Accurately ripped
15 [98890a4b|dd03498f] (011+038/175) Accurately ripped
16 [59c814ef|b80feaf2] (011+039/172) Accurately ripped
17 [b9f34925|56ef7f2b] (011+039/175) Accurately ripped
18 [50df5443|72d176b1] (011+039/175) Accurately ripped
19 [8970e20f|72de410e] (011+039/174) Accurately ripped
20 [9250fc26|93351e95] (011+039/175) Accurately ripped
Offsetted by 667:
01 [c6ddcd22] (003/176) Accurately ripped
02 [f33f2e03] (003/177) Accurately ripped
03 [48c6736d] (003/176) Accurately ripped
04 [c51b3da1] (003/177) Accurately ripped
05 [feaf7e38] (003/177) Accurately ripped
06 [e5d71994] (003/175) Accurately ripped
07 [223698b2] (003/176) Accurately ripped
08 [2ff0d173] (003/176) Accurately ripped
09 [54555607] (003/174) Accurately ripped
10 [b8debf9a] (003/176) Accurately ripped
11 [da77983b] (004/173) Accurately ripped
12 [37abf8f9] (004/177) Accurately ripped
13 [16cef5c7] (004/175) Accurately ripped
14 [cedb65d0] (005/175) Accurately ripped
15 [6ff6f04d] (004/175) Accurately ripped
16 [b90c5581] (004/172) Accurately ripped
17 [550f24e1] (004/175) Accurately ripped
18 [2d134eee] (004/175) Accurately ripped
19 [37a86f55] (004/174) Accurately ripped
20 [75b65ab6] (004/175) Accurately ripped
Offsetted by 1336:
01 [fbfa9a66] (037/176) Accurately ripped
02 [169718e9] (037/177) Accurately ripped
03 [73c987c0] (037/176) Accurately ripped
04 [afca8911] (037/177) Accurately ripped
05 [ba60e5b4] (037/177) Accurately ripped
06 [19cf2380] (037/175) Accurately ripped
07 [066c3312] (037/176) Accurately ripped
08 [e8f7e257] (037/176) Accurately ripped
09 [65b5b41b] (035/174) Accurately ripped
10 [c7ab12e6] (037/176) Accurately ripped
11 [9072bfa3] (035/173) Accurately ripped
12 [e8b45acb] (037/177) Accurately ripped
13 [a9d60d0f] (035/175) Accurately ripped
14 [27c0faf1] (037/175) Accurately ripped
15 [4b38dc60] (037/175) Accurately ripped
16 [770469bf] (035/172) Accurately ripped
17 [42b1f66c] (036/175) Accurately ripped
18 [36ba52d4] (035/175) Accurately ripped
19 [ff7a1788] (035/174) Accurately ripped
20 [162aa2ad] (035/175) Accurately ripped
Offsetted by 1958:
01 [66bfbbc1] (021/176) Accurately ripped
02 [b4743156] (021/177) Accurately ripped
03 [dc9e56a6] (020/176) Accurately ripped
04 [9e172970] (021/177) Accurately ripped
05 [e2bf68e3] (021/177) Accurately ripped
06 [99d74128] (020/175) Accurately ripped
07 [ef569f39] (021/176) Accurately ripped
08 [5b168253] (021/176) Accurately ripped
09 [41164d21] (021/174) Accurately ripped
10 [e9c9800d] (021/176) Accurately ripped
11 [220b26b5] (021/173) Accurately ripped
12 [1fbcc88c] (021/177) Accurately ripped
13 [99672fb7] (021/175) Accurately ripped
14 [b8a4d553] (020/175) Accurately ripped
15 [5c823eed] (021/175) Accurately ripped
16 [837a8fb3] (021/172) Accurately ripped
17 [1416b68e] (021/175) Accurately ripped
18 [01bd2f92] (022/175) Accurately ripped
19 [8304ba84] (022/174) Accurately ripped
20 [2fddf1b7] (022/175) Accurately ripped
Offsetted by 634:
01 [429881e0] (000/176) No match (V2 was not tested)
02 [20c1ee3b] (000/177) No match (V2 was not tested)
03 [37108711] (000/176) No match (V2 was not tested)
04 [046f10d0] (000/177) No match (V2 was not tested)
05 [e501b032] (000/177) No match (V2 was not tested)
06 [c2e018a6] (000/175) No match (V2 was not tested)
07 [2de003d5] (000/176) No match (V2 was not tested)
08 [6c2c9168] (000/176) No match (V2 was not tested)
09 [10e7fd62] (000/174) No match (V2 was not tested)
10 [619c73c3] (000/176) No match (V2 was not tested)
11 [d1757d34] (000/173) No match (V2 was not tested)
12 [8b80e7bd] (000/177) No match (V2 was not tested)
13 [5b73b082] (000/175) No match (V2 was not tested)
14 [22fd346a] (000/175) No match (V2 was not tested)
15 [4d061477] (000/175) No match (V2 was not tested)
16 [9e7530eb] (000/172) No match (V2 was not tested)
17 [ae55b3a7] (000/175) No match (V2 was not tested)
18 [deb7deeb] (000/175) No match (V2 was not tested)
19 [3cf3de3d] (000/174) No match (V2 was not tested)
20 [0e55de50] (000/175) No match (V2 was not tested)

Track Peak [ CRC32 ] [W/O NULL] [ LOG ]
– 98,4 [DB82474A] [B89AFE5F] W/O NULL
01 10,5 [FB7C27BA] [53D60E48]
02 12,4 [EBE6E563] [828A5414]
03 44,8 [584AE949] [19C6EEC0]
04 51,9 [CA97D5F4] [C347FFEC]
05 38,1 [20240A82] [0E0651F1]
06 31,8 [603C0A56] [B1CF4B5A]
07 22,6 [A72489F4] [788EDA7B]
08 7,9 [CE3EF9C7] [698A7D6D]
09 36,8 [6A189AF4] [14AB2061]
10 45,5 [D7C88046] [105401F7]
11 98,4 [4B69EE84] [5D38F185]
12 75,8 [5944B663] [237DD530]
13 98,4 [ACAE1589] [76940D83]
14 98,4 [3E31E769] [10E5DE13]
15 98,4 [45DCCAE6] [6F2DB38B]
16 98,4 [AB3A5C82] [07807029]
17 40,1 [27515F3E] [1978B9F1]
18 57,0 [DD8B43ED] [21E38CD6]
19 12,0 [526E3222] [8841DF7C]
20 89,5 [4D4013DD] [5520E66C]

foobar2000 1.3.8 / Dynamic Range Meter 1.1.1
log date: 2015-05-09 16:30:43

––––––––––––––––––––––––––––––––––––––––
Analyzed: Pierre Boulez and Chicago Symphony Orchestra / Stravinsky - The Firebird - 4 Studies - Fireworks
––––––––––––––––––––––––––––––––––––––––

DR Peak RMS Duration Track
––––––––––––––––––––––––––––––––––––––––
DR12 -19.58 dB -38.30 dB 2:32 01-The Firebird - Introduction
DR12 -18.13 dB -36.37 dB 1:47 02-The Firebird - Kashchie's Magic Garden
DR15 -6.97 dB -30.33 dB 2:26 03-The Firebird - Appearance of the Firebird, pursued by Ivan Tsarevich
DR15 -5.69 dB -27.19 dB 1:22 04-The Firebird - Dance of the Firebird
DR14 -8.37 dB -29.48 dB 0:53 05-The Firebird - Ivan Tsarevich captures the Firebird
DR15 -9.93 dB -32.53 dB 8:14 06-The Firebird - The Firebird's entreaties - Appearance of the 13 enchanted princesses
DR13 -12.88 dB -30.32 dB 2:25 07-The Firebird - The Princesses' game with the golden apples
DR11 -21.95 dB -38.69 dB 1:37 08-The Firebird - Sudden appearance of Ivan Tsarevich
DR14 -8.67 dB -31.00 dB 3:43 09-The Firebird - The princesses' khorovod (round dance)
DR13 -6.83 dB -27.74 dB 1:32 10-The Firebird - Daybreak - Ivan Tsarevich enters Kashchei's palace
DR15 -0.14 dB -21.00 dB 5:41 11-The Firebird - Magic carillon, appearance of Kashchei's guardian monsters and the capture of Ivan Tsarevich
DR13 -4.56 dB -22.81 dB 0:45 12-The Firebird - Dance of Kashchei's retinue, under the Firebird spell
DR11 -0.14 dB -16.65 dB 4:43 13-The Firebird - Infernal dance of all of Kashchei's subjects
DR17 -0.14 dB -25.02 dB 5:17 14-The Firebird - Lullaby (The Firebird) - Kashchei wakes up - Death of Kashchei - Deep Shadows
DR9 -0.14 dB -14.18 dB 3:23 15-The Firebird - Disappearance of the palace and dissolution of Kashchei entchantments
DR15 -0.14 dB -20.13 dB 4:02 16-Fireworks, Orchestral Fantasy op. 4
DR12 -7.93 dB -23.31 dB 0:59 17-Four Studies - 1. Dance (Con moto)
DR14 -4.88 dB -31.90 dB 2:11 18-Four Studies - 2. Eccentric (Moderato)
DR15 -18.35 dB -37.98 dB 3:38 19-Four Studies - 3. Canticle (Largo)
DR15 -0.96 dB -23.21 dB 2:48 20-Four Studies - 4. Madrid (Allegro con moto)
––––––––––––––––––––––––––––––––––––––––

Number of tracks: 20
Official DR value: DR14

Samplerate: 44100 Hz
Channels: 2
Bits per sample: 16
Bitrate: 521 kbps
Codec: FLAC
================================================================================


Exact Audio Copy V0.99 prebeta 4 from 23. January 2008

EAC extraction logfile from 11. April 2010, 11:43

The Cleveland Orchestra, Pierre Boulez / Strawinski - Pйtrouchka · Le Sacre du Printemps

Used drive : ATAPI DVD A DH20A4H Adapter: 1 ID: 0

Read mode : Secure
Utilize accurate stream : Yes
Defeat audio cache : Yes
Make use of C2 pointers : No

Read offset correction : 6
Overread into Lead-In and Lead-Out : No
Fill up missing offset samples with silence : Yes
Delete leading and trailing silent blocks : No
Null samples used in CRC calculations : No
Used interface : Native Win32 interface for Win NT & 2000

Used output format : Internal WAV Routines
Sample format : 44.100 Hz; 16 Bit; Stereo


TOC of the extracted CD

Track | Start | Length | Start sector | End sector
––––––––––––––––––––––––––––-
1 | 0:00.33 | 9:57.15 | 33 | 44822
2 | 9:57.48 | 4:30.32 | 44823 | 65104
3 | 14:28.05 | 7:01.60 | 65105 | 96739
4 | 21:29.65 | 13:33.43 | 96740 | 157757
5 | 35:03.33 | 16:02.00 | 157758 | 229907
6 | 51:05.33 | 17:27.00 | 229908 | 308432


Range status and errors

Selected range

Filename E:\Bearbeitung\Klassik\Boulez Stravinsky\CD 02\The Cleveland Orchestra, Pierre Boulez - Strawinski - Pйtrouchka · Le Sacre du Printemps.wav

Peak level 97.8 %
Range quality 100.0 %
Copy CRC 84FCF47C
Copy OK

No errors occurred


AccurateRip summary

Track 1 accurately ripped (confidence 27) [515868DA]
Track 2 accurately ripped (confidence 27) [9DC09717]
Track 3 accurately ripped (confidence 27) [0EC0AF3A]
Track 4 accurately ripped (confidence 27) [A59B1344]
Track 5 accurately ripped (confidence 27) [90ED81FE]
Track 6 accurately ripped (confidence 24) [5A3F8F7F]

All tracks accurately ripped

End of status report

[CUETools log; Date: 09.05.2015 13:11:01; Version: 2.1.5]
Pregap length 00:00:33.
[CTDB TOCID: 8bzJLavmBEZmzUn5UVSzHt2OzFI-] found.
Track | CTDB Status
1 | (43/47) Accurately ripped
2 | (43/47) Accurately ripped
3 | (45/47) Accurately ripped
4 | (43/47) Accurately ripped
5 | (43/47) Accurately ripped
6 | (43/47) Accurately ripped
[AccurateRip ID: 000dc690-004c4837-4d101006] found.
Track [ CRC | V2 ] Status
01 [515868da|4d93794d] (082+103/292) Accurately ripped
02 [9dc09717|cb0aa403] (081+103/294) Accurately ripped
03 [0ec0af3a|cce401af] (081+103/292) Accurately ripped
04 [a59b1344|390aa33c] (081+102/292) Accurately ripped
05 [90ed81fe|7f648230] (081+103/290) Accurately ripped
06 [5a3f8f7f|126e4658] (077+102/284) Accurately ripped
Offsetted by 3:
01 [f059faa8] (005/292) Accurately ripped
02 [fe2c7171] (006/294) Accurately ripped
03 [260390ad] (006/292) Accurately ripped
04 [5ad798a5] (006/292) Accurately ripped
05 [ab6fc98e] (006/290) Accurately ripped
06 [4a6277eb] (006/284) Accurately ripped
Offsetted by 1336:
01 [fb1dad38] (034/292) Accurately ripped
02 [1f06ac5c] (035/294) Accurately ripped
03 [f49b42ef] (034/292) Accurately ripped
04 [3c900825] (036/292) Accurately ripped
05 [14fc0ed1] (031/290) Accurately ripped
06 [b8305f81] (032/284) Accurately ripped
Offsetted by 2259:
01 [76646716] (007/292) Accurately ripped
02 [52b04bf3] (007/294) Accurately ripped
03 [932c8684] (007/292) Accurately ripped
04 [19003482] (007/292) Accurately ripped
05 [6a16c52b] (007/290) Accurately ripped
06 [bad5199f] (007/284) Accurately ripped
Offsetted by -90:
01 [2046f27f] (000/292) No match (V2 was not tested)
02 [7b671784] (000/294) No match (V2 was not tested)
03 [950ff82b] (000/292) No match (V2 was not tested)
04 [3107661b] (000/292) No match (V2 was not tested)
05 [116aaa4d] (000/290) No match (V2 was not tested)
06 [c020b8b5] (000/284) No match (V2 was not tested)
Offsetted by 667:
01 [d88e03f9] (000/292) No match (V2 was not tested)
02 [2c39e413] (000/294) No match (V2 was not tested)
03 [8dd2a743] (000/292) No match (V2 was not tested)
04 [7b7b4f50] (000/292) No match (V2 was not tested)
05 [c9235fc3] (000/290) No match (V2 was not tested)
06 [53bfd0d0] (000/284) No match (V2 was not tested)

Track Peak [ CRC32 ] [W/O NULL] [ LOG ]
– 97,8 [422EA27F] [84FCF47C] W/O NULL
01 97,5 [B2471AA5] [050BFB30]
02 66,8 [F60F42D5] [0ADA9B4F]
03 77,3 [39226DED] [6E951861]
04 87,8 [75CD7A91] [23DB9A92]
05 95,3 [56335537] [9CA9A7DA]
06 97,8 [0C533A6D] [C673963C]

foobar2000 1.3.8 / Dynamic Range Meter 1.1.1
log date: 2015-05-09 16:31:36

––––––––––––––––––––––––––––––––––––––––
Analyzed: Pierre Boulez and The Cleveland Orchestra / Stravinsky - Petrushka - The Rite of Spring
––––––––––––––––––––––––––––––––––––––––

DR Peak RMS Duration Track
––––––––––––––––––––––––––––––––––––––––
DR15 -0.22 dB -22.49 dB 9:57 01-Petrushka - First Tableau
DR14 -3.50 dB -24.92 dB 4:30 02-Petrushka - Second Tableau
DR18 -2.23 dB -26.84 dB 7:02 03-Petrushka - Third Tableau
DR15 -1.12 dB -22.50 dB 13:34 04-Petrushka - Fourth Tableau
DR14 -0.41 dB -20.52 dB 16:02 05-The Rite of Spring, Part 1 - The Adoration of the Earth
DR14 -0.19 dB -20.73 dB 17:27 06-The Rite of Spring, Part 2 - The Sacrifice
––––––––––––––––––––––––––––––––––––––––

Number of tracks: 6
Official DR value: DR15

Samplerate: 44100 Hz
Channels: 2
Bits per sample: 16
Bitrate: 572 kbps
Codec: FLAC
================================================================================


Exact Audio Copy V0.99 prebeta 4 from 23. January 2008

EAC extraction logfile from 11. April 2010, 12:13

Cleveland O · Pierre Boulez / Stravinsky: Le Chant du Rossignol · L'Histoire du Soldat (Suite) · Scherzo Fantastique · Le Roi des Йtoiles

Used drive : ATAPI DVD A DH20A4H Adapter: 1 ID: 0

Read mode : Secure
Utilize accurate stream : Yes
Defeat audio cache : Yes
Make use of C2 pointers : No

Read offset correction : 6
Overread into Lead-In and Lead-Out : No
Fill up missing offset samples with silence : Yes
Delete leading and trailing silent blocks : No
Null samples used in CRC calculations : No
Used interface : Native Win32 interface for Win NT & 2000

Used output format : Internal WAV Routines
Sample format : 44.100 Hz; 16 Bit; Stereo


TOC of the extracted CD

Track | Start | Length | Start sector | End sector
––––––––––––––––––––––––––––-
1 | 0:00.00 | 11:33.00 | 0 | 51974
2 | 11:33.00 | 5:35.00 | 51975 | 77099
3 | 17:08.00 | 2:25.00 | 77100 | 87974
4 | 19:33.00 | 3:29.00 | 87975 | 103649
5 | 23:02.00 | 3:32.00 | 103650 | 119549
6 | 26:34.00 | 11:15.00 | 119550 | 170174
7 | 37:49.00 | 1:47.30 | 170175 | 178229
8 | 39:36.30 | 2:41.70 | 178230 | 190374
9 | 42:18.25 | 3:55.50 | 190375 | 208049
10 | 46:14.00 | 2:42.00 | 208050 | 220199
11 | 48:56.00 | 3:07.00 | 220200 | 234224
12 | 52:03.00 | 6:16.00 | 234225 | 262424
13 | 58:19.00 | 1:23.25 | 262425 | 268674
14 | 59:42.25 | 2:42.50 | 268675 | 280874
15 | 62:25.00 | 2:21.01 | 280875 | 291450


Range status and errors

Selected range

Filename E:\Bearbeitung\Klassik\Boulez Stravinsky\CD 03\Cleveland O · Pierre Boulez - Stravinsky Le Chant du Rossignol · L'Histoire du Soldat (Suite) · Scherzo Fantastique · Le Roi des Йtoiles.wav

Peak level 99.9 %
Range quality 100.0 %
Copy CRC C9C11A1F
Copy OK

No errors occurred


AccurateRip summary

Track 1 cannot be verified as accurate (confidence 5) [39771B76], AccurateRip returned [B053C6AF]
Track 2 cannot be verified as accurate (confidence 5) [AB83ED81], AccurateRip returned [FF837B0F]
Track 3 cannot be verified as accurate (confidence 5) [FE4F2543], AccurateRip returned [EE636462]
Track 4 cannot be verified as accurate (confidence 5) [2048FF0A], AccurateRip returned [994F013E]
Track 5 cannot be verified as accurate (confidence 5) [E23A1A3B], AccurateRip returned [4CB8DFD4]
Track 6 cannot be verified as accurate (confidence 5) [077E79F5], AccurateRip returned [F207292A]
Track 7 cannot be verified as accurate (confidence 5) [DDF6BD94], AccurateRip returned [00065AB2]
Track 8 cannot be verified as accurate (confidence 5) [A5522D99], AccurateRip returned [F4C77DD9]
Track 9 cannot be verified as accurate (confidence 5) [15229F3A], AccurateRip returned [E70A4A51]
Track 10 cannot be verified as accurate (confidence 5) [549CC480], AccurateRip returned [5382A322]
Track 11 cannot be verified as accurate (confidence 5) [552EC2A7], AccurateRip returned [3DCA8354]
Track 12 cannot be verified as accurate (confidence 5) [AD6D9AEB], AccurateRip returned [99A3F45F]
Track 13 cannot be verified as accurate (confidence 5) [14AF08AC], AccurateRip returned [15605BB5]
Track 14 cannot be verified as accurate (confidence 5) [45E7BF28], AccurateRip returned [81725F33]
Track 15 cannot be verified as accurate (confidence 5) [FD49C6D9], AccurateRip returned [EB93AC6C]

No tracks could be verified as accurate
You may have a different pressing from the one(s) in the database

End of status report

[CUETools log; Date: 09.05.2015 13:11:43; Version: 2.1.5]
[CTDB TOCID: v2IBNAMdh3dkccE2vMw0IzbE8jE-] found.
Track | CTDB Status
1 | (38/38) Accurately ripped
2 | (37/38) Accurately ripped
3 | (38/38) Accurately ripped
4 | (38/38) Accurately ripped
5 | (38/38) Accurately ripped
6 | (38/38) Accurately ripped
7 | (38/38) Accurately ripped
8 | (38/38) Accurately ripped
9 | (38/38) Accurately ripped
10 | (38/38) Accurately ripped
11 | (37/38) Accurately ripped
12 | (38/38) Accurately ripped
13 | (38/38) Accurately ripped
14 | (38/38) Accurately ripped
15 | (38/38) Accurately ripped
[AccurateRip ID: 0029e263-01c3e6f1-e10f2e0f] found.
Track [ CRC | V2 ] Status
01 [39771b76|42fa1d80] (11+27/70) Accurately ripped
02 [ab83ed81|107262db] (11+27/70) Accurately ripped
03 [fe4f2543|6547ffe8] (11+27/70) Accurately ripped
04 [2048ff0a|d540b3e8] (11+27/70) Accurately ripped
05 [e23a1a3b|75fe000d] (11+27/70) Accurately ripped
06 [077e79f5|2a1203ea] (11+27/70) Accurately ripped
07 [ddf6bd94|58a7a3b8] (11+27/70) Accurately ripped
08 [a5522d99|b9763b93] (10+27/69) Accurately ripped
09 [15229f3a|4eccf46f] (11+27/70) Accurately ripped
10 [549cc480|2d72a58c] (11+27/70) Accurately ripped
11 [552ec2a7|11ca0a63] (11+27/70) Accurately ripped
12 [ad6d9aeb|550e01db] (11+27/70) Accurately ripped
13 [14af08ac|f279f856] (11+27/70) Accurately ripped
14 [45e7bf28|ecab7241] (11+27/70) Accurately ripped
15 [fd49c6d9|53a877e0] (11+27/70) Accurately ripped
Offsetted by 651:
01 [758bbd3c] (07/70) Accurately ripped
02 [0f20477a] (07/70) Accurately ripped
03 [7d7f03af] (07/70) Accurately ripped
04 [552410c0] (07/70) Accurately ripped
05 [fc9be1b7] (07/70) Accurately ripped
06 [a732a359] (07/70) Accurately ripped
07 [f66dc041] (07/70) Accurately ripped
08 [16382abd] (07/69) Accurately ripped
09 [b50b5d7a] (07/70) Accurately ripped
10 [79a8bc2a] (07/70) Accurately ripped
11 [267275d3] (07/70) Accurately ripped
12 [695c04fe] (07/70) Accurately ripped
13 [51d6762e] (07/70) Accurately ripped
14 [184ef080] (07/70) Accurately ripped
15 [2fcdab9f] (07/70) Accurately ripped
Offsetted by 667:
01 [b053c6af] (11/70) Accurately ripped
02 [ff837b0f] (11/70) Accurately ripped
03 [ee636462] (11/70) Accurately ripped
04 [994f013e] (11/70) Accurately ripped
05 [4cb8dfd4] (11/70) Accurately ripped
06 [f207292a] (11/70) Accurately ripped
07 [00065ab2] (11/70) Accurately ripped
08 [f4c77dd9] (11/69) Accurately ripped
09 [e70a4a51] (11/70) Accurately ripped
10 [5382a322] (11/70) Accurately ripped
11 [3dca8354] (11/70) Accurately ripped
12 [99a3f45f] (11/70) Accurately ripped
13 [15605bb5] (11/70) Accurately ripped
14 [81725f33] (11/70) Accurately ripped
15 [eb93ac6c] (11/70) Accurately ripped

Track Peak [ CRC32 ] [W/O NULL] [ LOG ]
– 99,9 [5549D16B] [C9C11A1F] W/O NULL
01 75,5 [7E4E7B33] [7746A867]
02 54,1 [70CB58FC] [1F6ECC45]
03 99,9 [1E13C701] [10DA49D5]
04 99,9 [C49FF502] [B68D9F73]
05 80,0 [17004301] [868602E8]
06 84,5 [76A1AFBF] [DA7CBE32]
07 52,5 [DC530E9A] [D98177BB]
08 27,2 [50BBCB7E] [E5D2A93D]
09 14,9 [B1D7AA26] [73A93E49]
10 80,2 [9D6239B2] [D4D3EAFE]
11 58,1 [6BAD9366] [086A203A]
12 63,1 [066DB365] [6BB2FF15]
13 99,9 [BB1E1E83] [1BADBDF2]
14 20,5 [1B9A9915] [DCA3F0A0]
15 99,9 [67529583] [CD225415]

foobar2000 1.3.8 / Dynamic Range Meter 1.1.1
log date: 2015-05-09 16:32:21

––––––––––––––––––––––––––––––––––––––––
Analyzed: Pierre Boulez and The Cleveland Orchestra / Stravinsky - Scherzo Fantastique - Star-Face - The Song of the Nightingale - The Soldier's Tale
––––––––––––––––––––––––––––––––––––––––

DR Peak RMS Duration Track
––––––––––––––––––––––––––––––––––––––––
DR15 -2.44 dB -27.64 dB 11:33 01-Scherzo Fantastique, Op.3
DR14 -5.33 dB -27.11 dB 5:35 02-Star-Face(Zvezdolikiy)
DR15 0.00 dB -21.51 dB 2:25 03-The Song of the Nightingale: I. Introduction
DR14 0.00 dB -20.46 dB 3:29 04-The Song of the Nightingale: II. Marche chinoise
DR17 -1.93 dB -26.49 dB 3:32 05-The Song of the Nightingale: III. Chant du rossignol
DR20 -1.45 dB -28.26 dB 11:15 06-The Song of the Nightingale: IV. Jeu du rossignol mecanique
DR14 -5.59 dB -25.49 dB 1:47 07-The Soldier's Tale, Suite: 1. Marche de soldat
DR13 -11.29 dB -31.86 dB 2:42 08-The Soldier's Tale, Suite: 2. Petits Airs au bord du ruisseau
DR10 -16.50 dB -32.48 dB 3:56 09-The Soldier's Tale, Suite: 3. Pastorale
DR16 -1.92 dB -23.93 dB 2:42 10-The Soldier's Tale, Suite: 4. Marche royale
DR16 -4.71 dB -26.30 dB 3:07 11-The Soldier's Tale, Suite: 5. Petit Concert
DR17 -3.99 dB -28.61 dB 6:16 12-The Soldier's Tale, Suite: 6. Trois Danses (Tango - Valse - Ragtime)
DR15 0.00 dB -24.19 dB 1:23 13-The Soldier's Tale, Suite: 7. Danse du Diable
DR11 -13.75 dB -30.75 dB 2:43 14-The Soldier's Tale, Suite: 8. Grand Choral
DR16 0.00 dB -23.57 dB 2:21 15-The Soldier's Tale, Suite: 9. Marche triomphale du Diable
––––––––––––––––––––––––––––––––––––––––

Number of tracks: 15
Official DR value: DR15

Samplerate: 44100 Hz
Channels: 2
Bits per sample: 16
Bitrate: 509 kbps
Codec: FLAC
================================================================================


Exact Audio Copy V0.99 prebeta 4 from 23. January 2008

EAC extraction logfile from 11. April 2010, 12:44

Stravinsky - Pierre Boulez, Berlin Philharmoniker / Stravinsky - Symphonies - Boulez, Berlin PO (DG 1999)

Used drive : ATAPI DVD A DH20A4H Adapter: 1 ID: 0

Read mode : Secure
Utilize accurate stream : Yes
Defeat audio cache : Yes
Make use of C2 pointers : No

Read offset correction : 6
Overread into Lead-In and Lead-Out : No
Fill up missing offset samples with silence : Yes
Delete leading and trailing silent blocks : No
Null samples used in CRC calculations : No
Used interface : Native Win32 interface for Win NT & 2000

Used output format : Internal WAV Routines
Sample format : 44.100 Hz; 16 Bit; Stereo


TOC of the extracted CD

Track | Start | Length | Start sector | End sector
––––––––––––––––––––––––––––-
1 | 0:00.00 | 9:16.00 | 0 | 41699
2 | 9:16.00 | 3:11.69 | 41700 | 56093
3 | 12:27.69 | 6:07.41 | 56094 | 83659
4 | 18:35.35 | 10:49.40 | 83660 | 132374
5 | 29:25.00 | 9:56.00 | 132375 | 177074
6 | 39:21.00 | 6:37.23 | 177075 | 206872
7 | 45:58.23 | 6:05.52 | 206873 | 234299


Range status and errors

Selected range

Filename E:\Bearbeitung\Klassik\Boulez Stravinsky\CD 04\Stravinsky - Pierre Boulez, Berlin Philharmoniker - Stravinsky - Symphonies - Boulez, Berlin PO (DG 1999).wav

Peak level 99.9 %
Range quality 100.0 %
Copy CRC 26850C1A
Copy OK

No errors occurred


AccurateRip summary

Track 1 cannot be verified as accurate (confidence 2) [C4205E58], AccurateRip returned [84D3EB64]
Track 2 cannot be verified as accurate (confidence 2) [51AF970C], AccurateRip returned [63D6FA46]
Track 3 cannot be verified as accurate (confidence 2) [86F71B2A], AccurateRip returned [A072E767]
Track 4 cannot be verified as accurate (confidence 2) [63E612F7], AccurateRip returned [44F1846C]
Track 5 cannot be verified as accurate (confidence 2) [EBB5F875], AccurateRip returned [ADD11928]
Track 6 cannot be verified as accurate (confidence 2) [24473A94], AccurateRip returned [DAB14243]
Track 7 cannot be verified as accurate (confidence 2) [16EAA108], AccurateRip returned [727AB64F]

No tracks could be verified as accurate
You may have a different pressing from the one(s) in the database

End of status report

[CUETools log; Date: 09.05.2015 13:12:29; Version: 2.1.5]
[CTDB TOCID: Bdr9qbZLr49IcN84CPOK0QXIuy4-] found.
Track | CTDB Status
1 | (27/34) Accurately ripped
2 | (27/34) Accurately ripped
3 | (34/34) Accurately ripped
4 | (34/34) Accurately ripped
5 | (34/34) Accurately ripped
6 | (34/34) Accurately ripped
7 | (34/34) Accurately ripped
[AccurateRip ID: 000e38ed-0055f487-640c3407] found.
Track [ CRC | V2 ] Status
01 [c4205e58|f4e8f754] (11+25/58) Accurately ripped
02 [51af970c|015eb5f2] (10+25/57) Accurately ripped
03 [86f71b2a|30055c1d] (11+25/58) Accurately ripped
04 [63e612f7|238c267a] (11+25/58) Accurately ripped
05 [ebb5f875|4943a00d] (11+25/58) Accurately ripped
06 [24473a94|7f4d37e7] (11+25/56) Accurately ripped
07 [16eaa108|2f72a067] (11+25/56) Accurately ripped
Offsetted by 667:
01 [71c5b5b6] (03/58) Accurately ripped
02 [18096660] (03/57) Accurately ripped
03 [b03d25a6] (03/58) Accurately ripped
04 [00d13142] (03/58) Accurately ripped
05 [2273034f] (03/58) Accurately ripped
06 [2fc2754e] (03/56) Accurately ripped
07 [de815cd7] (03/56) Accurately ripped
Offsetted by 434:
01 [a2d555c1] (00/58) No match (V2 was not tested)
02 [abdfcfec] (00/57) No match
03 [a072e767] (03/58) Accurately ripped
04 [44f1846c] (03/58) Accurately ripped
05 [add11928] (03/58) Accurately ripped
06 [dab14243] (03/56) Accurately ripped
07 [727ab64f] (03/56) Accurately ripped

Track Peak [ CRC32 ] [W/O NULL] [ LOG ]
– 99,9 [6EEC6F2E] [26850C1A] W/O NULL
01 75,9 [C895213F] [4F719F67]
02 99,9 [95BE7745] [6B39B52E]
03 99,9 [34484478] [2D5DB3E2]
04 99,9 [1D6616FA] [BCB03B61]
05 99,9 [4642982E] [7AD8BCFD]
06 32,5 [33D530A8] [EDBC96F1]
07 99,9 [FB5174EB] [301A00B1]

foobar2000 1.3.8 / Dynamic Range Meter 1.1.1
log date: 2015-05-09 16:32:59

––––––––––––––––––––––––––––––––––––––––
Analyzed: Pierre Boulez and Berlin Philharmoniker / Stravinsky - Symphonies
––––––––––––––––––––––––––––––––––––––––

DR Peak RMS Duration Track
––––––––––––––––––––––––––––––––––––––––
DR20 -2.39 dB -27.98 dB 9:16 01-Symphonies of Wind Instruments (1920)
DR13 0.00 dB -19.40 dB 3:12 02-Symphony of Psalms (rev. 1948) - 1 Exaudi orationem meam, Domine
DR13 0.00 dB -19.94 dB 6:08 03-Symphony of Psalms (rev. 1948) - 2 Expectans expectavi Dominum
DR15 0.00 dB -21.31 dB 10:50 04-Symphony of Psalms (rev. 1948) - 3 Alleluia, laudate Dominum
DR16 0.00 dB -22.14 dB 9:56 05-Symphony in Three Movements (1945) - 1 quarter note 160
DR17 -9.74 dB -35.57 dB 6:37 06-Symphony in Three Movements (1945) - 2 Andante - Interlude (L'istesso tempo)
DR16 0.00 dB -21.10 dB 6:06 07-Symphony in Three Movements (1945) - 3 Con moto
––––––––––––––––––––––––––––––––––––––––

Number of tracks: 7
Official DR value: DR16

Samplerate: 44100 Hz
Channels: 2
Bits per sample: 16
Bitrate: 489 kbps
Codec: FLAC
================================================================================


Exact Audio Copy V0.99 prebeta 4 from 23. January 2008

EAC extraction logfile from 11. April 2010, 13:48

Ensemble InterContemporain / Boulez Stravinsky CD 5

Used drive : ATAPI DVD A DH20A4H Adapter: 1 ID: 0

Read mode : Secure
Utilize accurate stream : Yes
Defeat audio cache : Yes
Make use of C2 pointers : No

Read offset correction : 6
Overread into Lead-In and Lead-Out : No
Fill up missing offset samples with silence : Yes
Delete leading and trailing silent blocks : No
Null samples used in CRC calculations : No
Used interface : Native Win32 interface for Win NT & 2000

Used output format : Internal WAV Routines
Sample format : 44.100 Hz; 16 Bit; Stereo


TOC of the extracted CD

Track | Start | Length | Start sector | End sector
––––––––––––––––––––––––––––-
1 | 0:00.33 | 8:56.00 | 33 | 40232
2 | 8:56.33 | 4:07.00 | 40233 | 58757
3 | 13:03.33 | 6:38.00 | 58758 | 88607
4 | 19:41.33 | 7:20.00 | 88608 | 121607
5 | 27:01.33 | 4:42.00 | 121608 | 142757
6 | 31:43.33 | 5:17.00 | 142758 | 166532
7 | 37:00.33 | 5:20.00 | 166533 | 190532
8 | 42:20.33 | 5:13.00 | 190533 | 214007
9 | 47:33.33 | 1:41.00 | 214008 | 221582
10 | 49:14.33 | 1:41.00 | 221583 | 229157


Range status and errors

Selected range

Filename E:\Bearbeitung\Klassik\Boulez Stravinsky\CD 05\Ensemble InterContemporain - Boulez Stravinsky CD 5.wav

Peak level 99.7 %
Range quality 100.0 %
Copy CRC 9724FFBB
Copy OK

No errors occurred


AccurateRip summary

Track 1 not present in database
Track 2 not present in database
Track 3 not present in database
Track 4 not present in database
Track 5 not present in database
Track 6 not present in database
Track 7 not present in database
Track 8 not present in database
Track 9 not present in database
Track 10 not present in database

None of the tracks are present in the AccurateRip database

End of status report

[CUETools log; Date: 09.05.2015 13:13:05; Version: 2.1.5]
Pregap length 00:00:33.
[CTDB TOCID: YhCPZ0k2Pg2U7CbkmVDUBOLVW9E-] found.
Track | CTDB Status
1 | (6/7) Accurately ripped
2 | (7/7) Accurately ripped
3 | (7/7) Accurately ripped
4 | (7/7) Accurately ripped
5 | (7/7) Accurately ripped
6 | (7/7) Accurately ripped
7 | (7/7) Accurately ripped
8 | (7/7) Accurately ripped
9 | (7/7) Accurately ripped
10 | (5/7) Accurately ripped
[AccurateRip ID: 00167d15-00ae624c-8d0bef0a] found.
Track [ CRC | V2 ] Status
01 [0318665f|b03b9a10] (07+25/32) Accurately ripped
02 [ac6a66e4|5ae7b0f7] (07+25/32) Accurately ripped
03 [8f7d4dd0|6a524d15] (07+25/32) Accurately ripped
04 [4aee6e79|bb3743ad] (07+25/32) Accurately ripped
05 [252a076b|259a3263] (07+25/32) Accurately ripped
06 [f58ad94e|85fd88cb] (07+25/32) Accurately ripped
07 [a56b1c2c|f70dce11] (07+25/32) Accurately ripped
08 [b2a57164|fbdda348] (07+25/32) Accurately ripped
09 [5364f3ae|f101eb20] (07+25/32) Accurately ripped
10 [b9aba87f|8e5ab2a5] (07+25/32) Accurately ripped

Track Peak [ CRC32 ] [W/O NULL] [ LOG ]
– 99,7 [35266EEF] [9724FFBB] W/O NULL
01 82,8 [FEA3822E] [49916F3F]
02 43,8 [93E2129C] [2C0C99D8]
03 70,5 [44011421] [0E1F2320]
04 61,9 [8A3EC544] [2AE448F1]
05 92,0 [7E978C04] [648EDA03]
06 72,9 [4AD49F0B] [40E5B3D1]
07 99,7 [7F476AC1] [DAAFD8AF]
08 36,9 [17F925B4] [04111775]
09 18,1 [34583ABD] [B32DD1E6]
10 17,3 [CBD5A123] [A5D25FD2]

foobar2000 1.3.8 / Dynamic Range Meter 1.1.1
log date: 2015-05-09 16:33:35

––––––––––––––––––––––––––––––––––––––––
Analyzed: Boulez and Ensemble InterContemporain / Boulez conducts Stravinsky CD 5
––––––––––––––––––––––––––––––––––––––––

DR Peak RMS Duration Track
––––––––––––––––––––––––––––––––––––––––
DR15 -1.63 dB -21.37 dB 8:56 01-Ebony Concerto
DR13 -7.16 dB -26.00 dB 4:07 02-Three Pieces for Clarinet Solo
DR19 -3.04 dB -27.60 dB 6:38 03-Concertino for String Quartet
DR16 -4.16 dB -24.56 dB 7:20 04-Eight Instrumental Miniatures
DR13 -0.72 dB -18.75 dB 4:42 05-Concerto 'Dumbarton Oaks' (I) Tempo giusto
DR15 -2.74 dB -26.82 dB 5:17 06-Concerto 'Dumbarton Oaks' (II) Allegretto
DR12 -0.03 dB -16.28 dB 5:20 07-Concerto 'Dumbarton Oaks' (III) Con moto
DR13 -8.65 dB -28.36 dB 5:13 08-Elegy For Viola Solo
DR9 -14.80 dB -31.59 dB 1:41 09-Epitaphium for Flute, Clarinet and Harp
DR11 -15.22 dB -32.41 dB 1:41 10-Double Canon for String Quartet
––––––––––––––––––––––––––––––––––––––––

Number of tracks: 10
Official DR value: DR14

Samplerate: 44100 Hz
Channels: 2
Bits per sample: 16
Bitrate: 535 kbps
Codec: FLAC
================================================================================


Exact Audio Copy V0.99 prebeta 4 from 23. January 2008

EAC extraction logfile from 11. April 2010, 13:18

Boulez/Ensemble InterContemporain/Bryn-Julson/Murray/Tear/Shirley-Quirk / Stravinsky, Igor: Songs

Used drive : ATAPI DVD A DH20A4H Adapter: 1 ID: 0

Read mode : Secure
Utilize accurate stream : Yes
Defeat audio cache : Yes
Make use of C2 pointers : No

Read offset correction : 6
Overread into Lead-In and Lead-Out : No
Fill up missing offset samples with silence : Yes
Delete leading and trailing silent blocks : No
Null samples used in CRC calculations : No
Used interface : Native Win32 interface for Win NT & 2000

Used output format : Internal WAV Routines
Sample format : 44.100 Hz; 16 Bit; Stereo


TOC of the extracted CD

Track | Start | Length | Start sector | End sector
––––––––––––––––––––––––––––-
1 | 0:00.33 | 1:59.12 | 33 | 8969
2 | 1:59.45 | 3:27.33 | 8970 | 24527
3 | 5:27.03 | 1:34.60 | 24528 | 31637
4 | 7:01.63 | 1:16.05 | 31638 | 37342
5 | 8:17.68 | 1:40.15 | 37343 | 44857
6 | 9:58.08 | 0:48.40 | 44858 | 48497
7 | 10:46.48 | 1:00.05 | 48498 | 53002
8 | 11:46.53 | 1:35.62 | 53003 | 60189
9 | 13:22.40 | 1:02.25 | 60190 | 64864
10 | 14:24.65 | 1:03.40 | 64865 | 69629
11 | 15:28.30 | 1:05.18 | 69630 | 74522
12 | 16:33.48 | 0:51.32 | 74523 | 78379
13 | 17:25.05 | 0:25.45 | 78380 | 80299
14 | 17:50.50 | 0:47.13 | 80300 | 83837
15 | 18:37.63 | 2:21.55 | 83838 | 94467
16 | 20:59.43 | 0:40.35 | 94468 | 97502
17 | 21:40.03 | 1:00.37 | 97503 | 102039
18 | 22:40.40 | 1:18.18 | 102040 | 107907
19 | 23:58.58 | 0:52.72 | 107908 | 111879
20 | 24:51.55 | 1:14.20 | 111880 | 117449
21 | 26:06.00 | 2:05.35 | 117450 | 126859
22 | 28:11.35 | 0:32.68 | 126860 | 129327
23 | 28:44.28 | 1:14.17 | 129328 | 134894
24 | 29:58.45 | 1:15.35 | 134895 | 140554
25 | 31:14.05 | 2:13.73 | 140555 | 150602
26 | 33:28.03 | 2:52.70 | 150603 | 163572
27 | 36:20.73 | 1:58.17 | 163573 | 172439
28 | 38:19.15 | 2:23.13 | 172440 | 183177
29 | 40:42.28 | 7:53.02 | 183178 | 218654
30 | 48:35.30 | 1:49.70 | 218655 | 226899
31 | 50:25.25 | 2:33.45 | 226900 | 238419
32 | 52:58.70 | 5:04.38 | 238420 | 261257


Range status and errors

Selected range

Filename E:\Bearbeitung\Klassik\Boulez Stravinsky\CD 06\Boulez Ensemble InterContemporain Bryn-Julson Murray Tear Shirley-Quirk - Stravinsky, Igor Songs.wav

Peak level 93.3 %
Range quality 100.0 %
Copy CRC 9F251CCD
Copy OK

No errors occurred


AccurateRip summary

Track 1 not present in database
Track 2 not present in database
Track 3 not present in database
Track 4 not present in database
Track 5 not present in database
Track 6 not present in database
Track 7 not present in database
Track 8 not present in database
Track 9 not present in database
Track 10 not present in database
Track 11 not present in database
Track 12 not present in database
Track 13 not present in database
Track 14 not present in database
Track 15 not present in database
Track 16 not present in database
Track 17 not present in database
Track 18 not present in database
Track 19 not present in database
Track 20 not present in database
Track 21 not present in database
Track 22 not present in database
Track 23 not present in database
Track 24 not present in database
Track 25 not present in database
Track 26 not present in database
Track 27 not present in database
Track 28 not present in database
Track 29 not present in database
Track 30 not present in database
Track 31 not present in database
Track 32 not present in database

None of the tracks are present in the AccurateRip database

End of status report

[CUETools log; Date: 09.05.2015 13:13:39; Version: 2.1.5]
Pregap length 00:00:33.
[CTDB TOCID: YKtdtcbGSYxUf95jqOryFOTJZbc-] found.
Track | CTDB Status
1 | (7/7) Accurately ripped
2 | (7/7) Accurately ripped
3 | (7/7) Accurately ripped
4 | (7/7) Accurately ripped
5 | (7/7) Accurately ripped
6 | (7/7) Accurately ripped
7 | (7/7) Accurately ripped
8 | (7/7) Accurately ripped
9 | (7/7) Accurately ripped
10 | (7/7) Accurately ripped
11 | (7/7) Accurately ripped
12 | (7/7) Accurately ripped
13 | (7/7) Accurately ripped
14 | (7/7) Accurately ripped
15 | (7/7) Accurately ripped
16 | (7/7) Accurately ripped
17 | (7/7) Accurately ripped
18 | (7/7) Accurately ripped
19 | (7/7) Accurately ripped
20 | (7/7) Accurately ripped
21 | (7/7) Accurately ripped
22 | (7/7) Accurately ripped
23 | (7/7) Accurately ripped
24 | (7/7) Accurately ripped
25 | (7/7) Accurately ripped
26 | (7/7) Accurately ripped
27 | (7/7) Accurately ripped
28 | (7/7) Accurately ripped
29 | (7/7) Accurately ripped
30 | (7/7) Accurately ripped
31 | (7/7) Accurately ripped
32 | (7/7) Accurately ripped
[AccurateRip ID: 0035fe4f-04c90495-9b0d9b20] found.
Track [ CRC | V2 ] Status
01 [85958598|d67e0628] (07+23/40) Accurately ripped
02 [f54edb9f|55de0f06] (07+23/40) Accurately ripped
03 [a96d3822|da5a255d] (07+23/40) Accurately ripped
04 [463a3797|f1b924a1] (07+23/41) Accurately ripped
05 [09bad1a2|749421e6] (07+23/41) Accurately ripped
06 [a84cf04a|630fc0c6] (07+23/41) Accurately ripped
07 [e9bd1442|cd8f46d3] (07+23/41) Accurately ripped
08 [8edff69b|21979ee5] (07+23/41) Accurately ripped
09 [f37ed89d|8b4f3310] (07+23/41) Accurately ripped
10 [34bf18a6|209d53dc] (07+23/41) Accurately ripped
11 [61a48fa2|4cd7a448] (07+23/41) Accurately ripped
12 [a7a72320|1411c4b1] (07+23/41) Accurately ripped
13 [4ce14730|ff6dc766] (07+23/41) Accurately ripped
14 [af185e01|3b601479] (07+23/41) Accurately ripped
15 [93b2052d|db6df6e8] (07+23/41) Accurately ripped
16 [dd4be4d3|3a3d7ff3] (07+23/41) Accurately ripped
17 [cf87001a|fceb428b] (07+23/41) Accurately ripped
18 [4ebfb27e|9f99935b] (07+23/41) Accurately ripped
19 [98cc33a5|79b7a9c8] (07+23/41) Accurately ripped
20 [d694d35e|7d7243b5] (07+23/41) Accurately ripped
21 [f79458f2|64b6746d] (07+23/41) Accurately ripped
22 [09fa16d9|e0d60fe1] (07+23/41) Accurately ripped
23 [4b89bdcd|5e05f150] (07+23/41) Accurately ripped
24 [3c2ce2ed|a145f58d] (07+23/39) Accurately ripped
25 [adc7e846|86996638] (07+23/41) Accurately ripped
26 [e8122eb5|e8f77636] (07+23/41) Accurately ripped
27 [36527db4|c0e9eae9] (07+23/40) Accurately ripped
28 [f5e5d25a|91bd81ae] (07+23/38) Accurately ripped
29 [a0f4520f|4bd7e5fa] (07+23/40) Accurately ripped
30 [bd283d78|a28ed8b4] (07+23/40) Accurately ripped
31 [4d8291e9|b7cc747b] (07+23/41) Accurately ripped
32 [edb6a901|22736f8e] (07+23/40) Accurately ripped
Offsetted by 648:
01 [82c576c8] (03/40) Accurately ripped
02 [1b3b3d5f] (03/40) Accurately ripped
03 [e3e06608] (03/40) Accurately ripped
04 [a3f3d92c] (03/41) Accurately ripped
05 [561a0b3e] (03/41) Accurately ripped
06 [91c93fa8] (03/41) Accurately ripped
07 [1ea51567] (03/41) Accurately ripped
08 [d9d735a6] (03/41) Accurately ripped
09 [568e0722] (03/41) Accurately ripped
10 [697e76b1] (03/41) Accurately ripped
11 [d4ddd98a] (03/41) Accurately ripped
12 [20813319] (03/41) Accurately ripped
13 [184851da] (03/41) Accurately ripped
14 [eb934795] (03/41) Accurately ripped
15 [11acb2e3] (03/41) Accurately ripped
16 [9fb1abcd] (03/41) Accurately ripped
17 [2363ce10] (03/41) Accurately ripped
18 [e56cdd3e] (03/41) Accurately ripped
19 [791d0ceb] (03/41) Accurately ripped
20 [c1497cd0] (03/41) Accurately ripped
21 [5903927a] (03/41) Accurately ripped
22 [dfe6337a] (03/41) Accurately ripped
23 [97d4813a] (03/41) Accurately ripped
24 [73e14da1] (02/39) Accurately ripped
25 [01817edb] (03/41) Accurately ripped
26 [dcb65f15] (03/41) Accurately ripped
27 [b597df97] (03/40) Accurately ripped
28 [ad74b661] (02/38) Accurately ripped
29 [9b1e5765] (03/40) Accurately ripped
30 [e9c473c4] (02/40) Accurately ripped
31 [1ff5e914] (03/41) Accurately ripped
32 [b2938bb4] (02/40) Accurately ripped
Offsetted by 1474:
01 [890507d2] (02/40) Accurately ripped
02 [fda920b7] (02/40) Accurately ripped
03 [43fda558] (02/40) Accurately ripped
04 [ecbb8207] (02/41) Accurately ripped
05 [6a676d2a] (02/41) Accurately ripped
06 [9f63bfc1] (02/41) Accurately ripped
07 [e3b84923] (02/41) Accurately ripped
08 [41f1f7d1] (02/41) Accurately ripped
09 [2203b271] (02/41) Accurately ripped
10 [cb02802a] (02/41) Accurately ripped
11 [ff8229d1] (02/41) Accurately ripped
12 [289170dd] (02/41) Accurately ripped
13 [333b536a] (02/41) Accurately ripped
14 [e8832f83] (02/41) Accurately ripped
15 [661f1a2b] (02/41) Accurately ripped
16 [64e3beba] (02/41) Accurately ripped
17 [9d4b9ff1] (02/41) Accurately ripped
18 [24761870] (02/41) Accurately ripped
19 [482244d0] (02/41) Accurately ripped
20 [e596af61] (02/41) Accurately ripped
21 [3589cdee] (02/41) Accurately ripped
22 [cf0b9223] (02/41) Accurately ripped
23 [436689fc] (02/41) Accurately ripped
24 [729dbeb2] (02/39) Accurately ripped
25 [17b8741d] (02/41) Accurately ripped
26 [38c3e152] (02/41) Accurately ripped
27 [2844d902] (02/40) Accurately ripped
28 [a1214e08] (02/38) Accurately ripped
29 [396fb08c] (02/40) Accurately ripped
30 [ab89589b] (02/40) Accurately ripped
31 [a2ac65bb] (02/41) Accurately ripped
32 [3d90c7b4] (02/40) Accurately ripped

Track Peak [ CRC32 ] [W/O NULL] [ LOG ]
– 93,3 [F33D08B4] [9F251CCD] W/O NULL
01 42,5 [FDE24987] [1160B715]
02 31,0 [20618819] [0AA0FCC7]
03 31,0 [D7384267] [BC0F7999]
04 41,8 [F9A4FE1B] [1E6F20B7]
05 61,0 [554D515B] [83E26E0A]
06 46,9 [B2891BE9] [3E68DFF1]
07 91,1 [16C5EE64] [86CCDF3C]
08 65,8 [7F9DE76C] [38E061C0]
09 46,3 [AAC6AED4] [06843123]
10 61,7 [BA41317E] [CA3E81DD]
11 78,3 [E79CD4AF] [6E0361A1]
12 51,6 [3ED7DF90] [4D78A1AF]
13 86,8 [47A4AB57] [1D50514A]
14 93,3 [15F13F14] [7453F949]
15 29,3 [326C8C49] [3F02466E]
16 25,2 [A6FC38F4] [29E2606B]
17 17,1 [9AF06F8B] [9F6B8221]
18 13,2 [9BD78A60] [F8C27283]
19 48,3 [546281D5] [7676582C]
20 62,3 [603A7E10] [B95D03EE]
21 51,0 [DA51B98E] [12D17D00]
22 63,2 [06DEF05E] [2BF74556]
23 85,1 [4273F735] [4E866D5B]
24 85,1 [439C3E4C] [C4EDC938]
25 81,9 [D69238C0] [350208B8]
26 24,0 [E3F9E0D4] [A26B5B7A]
27 23,0 [E504E0DA] [0D8C71A2]
28 28,2 [EF321161] [2588DDCA]
29 58,5 [ED8F221C] [3467F23F]
30 15,6 [9D96298F] [2C30EBD7]
31 31,8 [594A97A7] [66732593]
32 52,1 [E352E129] [39ED4182]

foobar2000 1.3.8 / Dynamic Range Meter 1.1.1
log date: 2015-05-09 16:34:18

––––––––––––––––––––––––––––––––––––––––
Analyzed: Igor Stravinsky / Stravinsky - Songs
––––––––––––––––––––––––––––––––––––––––

DR Peak RMS Duration Track
––––––––––––––––––––––––––––––––––––––––
DR15 -7.42 dB -29.00 dB 1:59 01-Pastorale - Songs without Words for Voice
DR13 -10.15 dB -27.22 dB 3:27 02-Two Poems by Paul Verlaine - The White Moon
DR13 -10.16 dB -29.06 dB 1:35 03-Two Poems by Paul Verlaine - Wisdom
DR15 -7.56 dB -29.13 dB 1:16 04-Two Poems by Konstantin Bal'mont - The Flower
DR13 -4.29 dB -25.61 dB 1:40 05-Two Poems by Konstantin Bal'mont - The Dove
DR13 -6.57 dB -27.79 dB 0:49 06-Three Japanese Lyrics - Akahito
DR11 -0.80 dB -20.59 dB 1:00 07-Three Japanese Lyrics - Mazatsumi
DR15 -3.63 dB -26.81 dB 1:36 08-Three Japanese Lyrics - Tsaraiuki
DR13 -6.67 dB -26.03 dB 1:02 09-Three Little Songs - The Magpie
DR16 -4.18 dB -25.46 dB 1:04 10-Three Little Songs - The Rook
DR12 -2.12 dB -19.78 dB 1:05 11-Three Little Songs - Chicher-Yacher
DR13 -5.74 dB -26.58 dB 0:51 12-Pribaoutki (4 Songs) - Kornilo
DR13 -1.22 dB -20.87 dB 0:26 13-Pribaoutki (4 Songs) - Natasha
DR13 -0.60 dB -22.08 dB 0:47 14-Pribaoutki (4 Songs) - The Colonel
DR10 -10.64 dB -27.03 dB 2:22 15-Pribaoutki (4 Songs) - The Old Man and the Hare
DR11 -11.94 dB -30.84 dB 0:40 16-Cat's Cradle Songs - Sleep, pussy
DR12 -15.31 dB -32.57 dB 1:00 17-Cat's Cradle Songs - The cat on the stove
DR13 -17.54 dB -35.41 dB 1:18 18-Cat's Cradle Songs - Lullaby
DR12 -6.31 dB -22.48 dB 0:53 19-Cat's Cradle Songs - Father cat has…
DR14 -4.10 dB -22.33 dB 1:14 20-4 Songs - The Drake
DR13 -5.84 dB -25.10 dB 2:05 21-4 Songs - A Russian Spiritual
DR14 -3.97 dB -22.21 dB 0:33 22-4 Songs - Geese and Swans
DR14 -1.40 dB -20.35 dB 1:14 23-4 Songs - Tilim-bom
DR13 -1.40 dB -20.31 dB 1:15 24-Tilim-bom
DR13 -1.73 dB -22.54 dB 2:14 25-Song of Parasha (from the opera Mavra)
DR13 -12.39 dB -31.08 dB 2:53 26-3 Songs from Shakespeare - Music to heare
DR12 -12.75 dB -29.60 dB 1:58 27-3 Songs from Shakespeare - Full Fadom five
DR13 -10.97 dB -29.66 dB 2:23 28-3 Songs from Shakespeare - Spring
DR17 -4.65 dB -29.29 dB 7:53 29-In memoriam Dylan Thomas
DR13 -16.09 dB -33.58 dB 1:50 30-Elegy for J.F.K.
DR14 -9.94 dB -29.48 dB 2:34 31-Two Sacred Songs - Lord, what does the ground here bear?
DR13 -5.65 dB -25.78 dB 5:05 32-Two Sacred Songs - Thou art wounded…
––––––––––––––––––––––––––––––––––––––––

Number of tracks: 32
Official DR value: DR13

Samplerate: 44100 Hz
Channels: 2
Bits per sample: 16
Bitrate: 513 kbps
Codec: FLAC
================================================================================

Pierre Boulez conducts Igor Stravinsky (2010) 6CD Box Set [Re-Up]

All thanks to original releaser

More interesting music in My Blog