Tags
Language
Tags

Premiata Forneria Marconi - Cook (1974) [2011, Japanese HQCD]

Posted By: v3122
Premiata Forneria Marconi - Cook (1974) [2011, Japanese HQCD]

Premiata Forneria Marconi - Cook (1974)
EAC | Flac(Image) + Cue + Log & MP3 CBR 320Kbps
3CD | Victor, VICP-75014~16 | ~ 878 or 381 Mb | Artwork(png) -> 83 Mb
Progressive Rock, Symphonic Rock

This excellent live recording served as my introduction to the wonderful Italian-flavoured progressive rock of PFM back in '74. The songs represented are all superlative, and the musicianship is amazing. I would have loved to have been at the concert, but, barring time-travel, this disc is the second-best way to experience the beauty and energy that characterized "The Best Bread in Town" (that's the band's name, in English) in the mid-Seventies. Judging by the track listing, I assume "Live in the USA" to be the same recording in a later format. Check out this great disc!

by Peter, progarchives
Premiata Forneria Marconi - Cook (1974):

Premiata Forneria Marconi - Cook (1974) [2011, Japanese HQCD]

Tracklist CD1 - Original Album Mix:

01. Four Holes In The Ground 07:50
02. Dove…Quando… 04:21
03. Just Look Away 08:46
04. Celebration (Including 'The World Became The World') 08:36
05. Mr. Nine Till Five 04:32
06. Alta Loma Five Till Nine (Including P.F.M.'s Arrangement Of Rossini's 'William Tell Overture') 15:51

Exact Audio Copy V1.0 beta 3 from 29. August 2011

EAC extraction logfile from 23. July 2014, 21:43

PFM / Cook HQCD 1

Used drive : PLEXTOR BD-R PX-B950SA Adapter: 6 ID: 0

Read mode : Secure
Utilize accurate stream : Yes
Defeat audio cache : Yes
Make use of C2 pointers : No

Read offset correction : 6
Overread into Lead-In and Lead-Out : No
Fill up missing offset samples with silence : Yes
Delete leading and trailing silent blocks : No
Null samples used in CRC calculations : Yes
Used interface : Native Win32 interface for Win NT & 2000

Used output format : Internal WAV Routines
Sample format : 44.100 Hz; 16 Bit; Stereo


TOC of the extracted CD

Track | Start | Length | Start sector | End sector
––––––––––––––––––––––––––––-
1 | 0:00.00 | 7:50.13 | 0 | 35262
2 | 7:50.13 | 4:21.41 | 35263 | 54878
3 | 12:11.54 | 8:46.22 | 54879 | 94350
4 | 20:58.01 | 8:36.12 | 94351 | 133062
5 | 29:34.13 | 4:32.29 | 133063 | 153491
6 | 34:06.42 | 15:51.54 | 153492 | 224870


Range status and errors

Selected range

Filename C:\Users\Meijin\Desktop\ALLexxess\PFM\1974 Cook (3 Mini LP HQCD Set K2HD Victor Japan 2011)\CD1\PFM - Cook HQCD 1.wav

Peak level 100.0 %
Extraction speed 7.0 X
Range quality 99.9 %
Test CRC 8CE0C3D6
Copy CRC 8CE0C3D6
Copy OK

No errors occurred


AccurateRip summary

Track 1 accurately ripped (confidence 2) [EF21911D] (AR v2)
Track 2 accurately ripped (confidence 2) [44E6B8E2] (AR v2)
Track 3 accurately ripped (confidence 2) [32E920E7] (AR v2)
Track 4 accurately ripped (confidence 2) [B23541B1] (AR v2)
Track 5 accurately ripped (confidence 2) [772A50F8] (AR v2)
Track 6 accurately ripped (confidence 2) [E410205E] (AR v2)

All tracks accurately ripped

End of status report

==== Log checksum 97705A1E3F8469EFB7070316AEB96CE493D497F6366DB05294EA3880FFB58E08 ====


[CUETools log; Date: 29.07.2014 10:25:44; Version: 2.1.4]
[CTDB TOCID: A4P_mj.US2kD6BLDuHuZZHP5IrY-] found.
Track | CTDB Status
1 | (1/1) Accurately ripped
2 | (1/1) Accurately ripped
3 | (1/1) Accurately ripped
4 | (1/1) Accurately ripped
5 | (1/1) Accurately ripped
6 | (1/1) Accurately ripped
[AccurateRip ID: 000a9e6f-00399204-480bb606] found.
Track [ CRC | V2 ] Status
01 [1f8754ca|ef21911d] (0+2/2) Accurately ripped
02 [784925f2|44e6b8e2] (0+2/2) Accurately ripped
03 [6a04622b|32e920e7] (0+2/2) Accurately ripped
04 [786fc63f|b23541b1] (0+2/2) Accurately ripped
05 [c79c1ad7|772a50f8] (0+2/2) Accurately ripped
06 [e639701a|e410205e] (0+2/2) Accurately ripped

Track Peak [ CRC32 ] [W/O NULL] [ LOG ]
– 100,0 [8CE0C3D6] [54DB16E7] CRC32
01 100,0 [4178F989] [C5B0301C]
02 98,3 [CD2930DB] [406D22C1]
03 100,0 [671FF5B2] [46BFCAFC]
04 100,0 [4D3486D7] [04F69E65]
05 100,0 [88785C0C] [DAA06F45]
06 100,0 [FEF3A244] [09066AE4]


Premiata Forneria Marconi - Cook (1974) [2011, Japanese HQCD]

Tracklist CD2 - Live At Central Park, New York:

01. River Of Life 06:04
02. Four Holes In The Ground 07:26
03. Is My Face On Straight 17:32
04. Dove…Quando… 04:36
05. Guitar Solo 03:34
06. Just Look Away 05:00

Exact Audio Copy V1.0 beta 3 from 29. August 2011

EAC extraction logfile from 23. July 2014, 21:17

PFM / Cook HQCD 2

Used drive : PLEXTOR BD-R PX-B950SA Adapter: 6 ID: 0

Read mode : Secure
Utilize accurate stream : Yes
Defeat audio cache : Yes
Make use of C2 pointers : No

Read offset correction : 6
Overread into Lead-In and Lead-Out : No
Fill up missing offset samples with silence : Yes
Delete leading and trailing silent blocks : No
Null samples used in CRC calculations : Yes
Used interface : Native Win32 interface for Win NT & 2000

Used output format : Internal WAV Routines
Sample format : 44.100 Hz; 16 Bit; Stereo


TOC of the extracted CD

Track | Start | Length | Start sector | End sector
––––––––––––––––––––––––––––-
1 | 0:00.00 | 6:04.33 | 0 | 27332
2 | 6:04.33 | 7:26.27 | 27333 | 60809
3 | 13:30.60 | 17:32.20 | 60810 | 139729
4 | 31:03.05 | 4:36.14 | 139730 | 160443
5 | 35:39.19 | 3:34.26 | 160444 | 176519
6 | 39:13.45 | 5:00.20 | 176520 | 199039


Range status and errors

Selected range

Filename C:\Users\Meijin\Desktop\ALLexxess\PFM\1974 Cook (3 Mini LP HQCD Set K2HD Victor Japan 2011)\CD2\PFM - Cook HQCD 2.wav

Peak level 100.0 %
Extraction speed 6.9 X
Range quality 100.0 %
Test CRC A98103A0
Copy CRC A98103A0
Copy OK

No errors occurred


AccurateRip summary

Track 1 accurately ripped (confidence 2) [428F14F6] (AR v2)
Track 2 accurately ripped (confidence 2) [7DEFA804] (AR v2)
Track 3 accurately ripped (confidence 2) [26B894AF] (AR v2)
Track 4 accurately ripped (confidence 2) [FCB9DE1E] (AR v2)
Track 5 accurately ripped (confidence 2) [27CF10F5] (AR v2)
Track 6 accurately ripped (confidence 2) [25D687D6] (AR v2)

All tracks accurately ripped

End of status report

==== Log checksum 2282D65431BDCCE2DBEFD6B5024FF3D0881547BF50B38531B8073A70BA6B7DCB ====


[CUETools log; Date: 08.10.2019 15:20:51; Version: 2.1.4]
[AccurateRip ID: 000ba7e5-003dcecd-470a5d06] found.
Track [ CRC | V2 ] Status
01 [835b5916|428f14f6] (0+4/4) Accurately ripped
02 [d3c00149|7defa804] (0+4/4) Accurately ripped
03 [4dd9f6dc|26b894af] (0+4/4) Accurately ripped
04 [c42f5921|fcb9de1e] (0+4/4) Accurately ripped
05 [252c5780|27cf10f5] (0+4/4) Accurately ripped
06 [e28cf426|25d687d6] (0+4/4) Accurately ripped

Track Peak [ CRC32 ] [W/O NULL] [ LOG ]
– 100,0 [A98103A0] [B5062E77] CRC32
01 100,0 [3F083444] [2ACA366B]
02 100,0 [FD601FE1] [3B9AF0CD]
03 100,0 [4644AC77] [CB4E2D38]
04 83,3 [9CE2527D] [1C0CA43E]
05 91,2 [1689C16D] [D7BF9E7D]
06 100,0 [0FCB8AA5] [71DD6799]


Premiata Forneria Marconi - Cook (1974) [2011, Japanese HQCD]

Tracklist CD3 - Live At Central Park, New York (Continued):

01. Mr. Nine Till Five 05:23
02. Alta Loma Five Till Nine (Including P.F.M.'s Arrangement Of Rossini's 'William Tell Overture') 19:54
03. Celebration / Drum Solo / The World Became The World 17:39

Exact Audio Copy V1.0 beta 3 from 29. August 2011

EAC extraction logfile from 23. July 2014, 20:48

PFM / Cook HQCD 3

Used drive : PLEXTOR BD-R PX-B950SA Adapter: 6 ID: 0

Read mode : Secure
Utilize accurate stream : Yes
Defeat audio cache : Yes
Make use of C2 pointers : No

Read offset correction : 6
Overread into Lead-In and Lead-Out : No
Fill up missing offset samples with silence : Yes
Delete leading and trailing silent blocks : No
Null samples used in CRC calculations : Yes
Used interface : Native Win32 interface for Win NT & 2000

Used output format : Internal WAV Routines
Sample format : 44.100 Hz; 16 Bit; Stereo


TOC of the extracted CD

Track | Start | Length | Start sector | End sector
––––––––––––––––––––––––––––-
1 | 0:00.00 | 5:23.16 | 0 | 24240
2 | 5:23.16 | 19:54.55 | 24241 | 113845
3 | 25:17.71 | 17:39.38 | 113846 | 193308


Range status and errors

Selected range

Filename C:\Users\Meijin\Desktop\ALLexxess\PFM\1974 Cook (3 Mini LP HQCD Set K2HD Victor Japan 2011)\CD3\PFM - Cook HQCD 3.wav

Peak level 100.0 %
Extraction speed 6.9 X
Range quality 100.0 %
Test CRC D7351559
Copy CRC D7351559
Copy OK

No errors occurred


AccurateRip summary

Track 1 accurately ripped (confidence 2) [1DF0CFB7] (AR v2)
Track 2 accurately ripped (confidence 2) [A1D3B652] (AR v2)
Track 3 accurately ripped (confidence 2) [D0D695D0] (AR v2)

All tracks accurately ripped

End of status report

==== Log checksum DC981414DED6DDDCC7E79DE14AE85FE450DA4B3900CEB17664BC753786F49534 ====


[CUETools log; Date: 08.10.2019 15:28:25; Version: 2.1.4]
[AccurateRip ID: 00050e84-0011bff9-1c0a1103] found.
Track [ CRC | V2 ] Status
01 [58ff3bdd|1df0cfb7] (00+04/34) Accurately ripped
02 [a7a7da0b|a1d3b652] (00+04/34) Accurately ripped
03 [c4243e2b|d0d695d0] (00+04/34) Accurately ripped

Track Peak [ CRC32 ] [W/O NULL] [ LOG ]
– 100,0 [D7351559] [9FCB3269] CRC32
01 100,0 [181811BC] [2A41D78E]
02 100,0 [FEB8B404] [9393AFEB]
03 100,0 [A83C09A4] [2F2D6548]


Premiata Forneria Marconi - Cook (1974) [2011, Japanese HQCD]

All thanks go to ALLexxess

Premiata Forneria Marconi in my Blog

Download Premiata Forneria Marconi - Cook (1974):