Subcategories
Tags
Language
Tags

Prince - Musicology (2004)

Posted By: v3122
Prince - Musicology (2004)

Prince - Musicology (2004)
EAC | Flac(Image) + Cue + Log & MP3 CBR 320Kbps
NPG Records, COL 517165 0 | RU | ~ 319 or 113 Mb | Artwork(png) -> 32 Mb
Electro, Funk

Prince's star faded not long after he won emancipation from Warner Brothers in 1995, as he abandoned the mainstream so he could follow his whims however he liked. Which meant that he effectively started making records for nobody but himself, whether that meant triple-disc collections of new material or an all-instrumental smooth jazz album, and in short order, his fans started dwindling away to nothing but the hardcore, who themselves had their patience tried by such antics as Prince suing his own fanzine in the late '90s. It seemed that he was fated to permanently wander in the wilderness, making music for an ever more selective audience, until he suddenly decided in 2004 that he wanted to be back in the game, returning to the spotlight with acclaimed performances at the Grammys and the Rock & Roll Hall of Fame induction ceremony, announcing an all-hits tour, and releasing Musicology, his first major-label distributed album in five years. This flurry of activity suggests that Prince is treating this as an opportunity for a full-fledged comeback and, thankfully, he's seized this moment and delivered a vastly entertaining record. Unlike everything he's done since leaving Warner, Musicology doesn't alienate listeners; it's tight and lean, weighing in at 12 tracks and 47 minutes, yet that's still enough room for Prince to showcase his virtuoso versatility. He tries a little everything – down and dirty funk jams, slow sensual grooves, and, happily, he revives the psychedelic pop of the mid-'80s with the deliriously catchy "Cinnamon Girl" – but unlike on such overworked albums as Emancipation and Rave Un2 the Joy Fantastic, it never feels like an attempt to dazzle or a series of stylistic exercises. That's because there's a clarity to his production – dense, but never busy, proving once again that he's about the only musician who can make a one-man band sound as vibrant as a live nine-piece group – and a focus to his writing that hasn't been heard in a long, long time. At its core, Musicology is essentially classicist Prince, as he makes a deliberate decision to play to all of his greatest strengths, but because it's been so long that he's made a record this confident and concise, it doesn't sound like a retreat. It sounds as if he's rediscovered his muse, which is quite a bit different than simply following his whims. Make no mistake, this isn't the second coming of Purple Rain or Sign 'o' the Times or even Parade – in other words, it's not a masterpiece, more like a more confident and consistent Diamonds and Pearls without the hip-hop fixation – but it's a strong album, one that impresses on the first listen and gets better with repeated plays. In short, it's the comeback that it was meant to be.

by Stephen Thomas Erlewine, allmusic
Prince - Musicology (2004):

Prince - Musicology (2004)

Tracklist:

01 Musicology
02 Illusion, Coma, Pimp & Circumstance
03 A Million Days
04 Life 'O' The Party
05 Call My Name
06 Cinnamon Girl
07 What Do U Want Me 2 Do?
08 The Marrying Kind
09 If Eye Was The Man In Ur Life
10 On The Couch
11 Dear Mr. Man
12 Reflection

Exact Audio Copy V0.99 prebeta 3 from 28. July 2007

EAC extraction logfile from 21. February 2008, 21:29

Prince / Musicology

Used drive : LITE-ON DVDRW SHM-165P6S Adapter: 1 ID: 0

Read mode : Secure
Utilize accurate stream : Yes
Defeat audio cache : Yes
Make use of C2 pointers : No

Read offset correction : 6
Overread into Lead-In and Lead-Out : No
Fill up missing offset samples with silence : Yes
Delete leading and trailing silent blocks : No
Null samples used in CRC calculations : Yes
Used interface : Installed external ASPI interface

Used output format : User Defined Encoder
Selected bitrate : 128 kBit/s
Quality : High
Add ID3 tag : No
Command line compressor : D:\Pr\Exact Audio Copy\Flac\flac.exe
Additional command line options : -T "artist=%a" -T "title=%t" -T "album=%g" -T "date=%y" -T "tracknumber=%n" -T "genre=%m" -8 %s


TOC of the extracted CD

Track | Start | Length | Start sector | End sector
––––––––––––––––––––––––––––-
1 | 0:00.00 | 4:24.24 | 0 | 19823
2 | 4:24.24 | 4:46.02 | 19824 | 41275
3 | 9:10.26 | 3:50.11 | 41276 | 58536
4 | 13:00.37 | 4:29.40 | 58537 | 78751
5 | 17:30.02 | 5:15.57 | 78752 | 102433
6 | 22:45.59 | 3:56.50 | 102434 | 120183
7 | 26:42.34 | 4:15.30 | 120184 | 139338
8 | 30:57.64 | 2:49.33 | 139339 | 152046
9 | 33:47.22 | 3:09.33 | 152047 | 166254
10 | 36:56.55 | 3:33.52 | 166255 | 182281
11 | 40:30.32 | 4:14.49 | 182282 | 201380
12 | 44:45.06 | 3:04.46 | 201381 | 215226
13 | 50:21.52 | 19:12.52 | 226627 | 313078


Range status and errors

Selected range

Filename K:\diks1\Prince - Musicology.wav

Peak level 98.8 %
Range quality 99.9 %
Copy CRC C5C98320
Copy OK

No errors occurred

End of status report


[CUETools log; Date: 08.04.2021 12:30:41; Version: 2.1.4]
CD-Extra data track length 19:12:52.
[AccurateRip ID: 001809de-00e31f37-ac104e0d] found.
Track [ CRC | V2 ] Status
01 [c0300d8c|5fea81db] (000+000/397) No match
02 [17bf0111|27f0e1f4] (000+000/396) No match
03 [7cc5ce60|70992341] (000+000/392) No match
04 [6e5d6ace|0d1ff05f] (000+000/395) No match
05 [9a94e730|e48c4805] (000+000/394) No match
06 [c0e98e7e|c1f2134e] (000+000/393) No match
07 [f9fd853c|3f6c8580] (000+000/395) No match
08 [5eddedbb|81976bb2] (000+000/395) No match
09 [3571d38a|e72abfca] (000+000/392) No match
10 [eb5bbaba|45d43aff] (000+000/395) No match
11 [1de7c350|23cbe696] (000+000/392) No match
12 [ef0eb9d4|dd841732] (000+000/391) No match
Offsetted by 65:
01 [d4a870ca] (005/397) Accurately ripped
02 [2a9c9a1f] (006/396) Accurately ripped
03 [2577b069] (006/392) Accurately ripped
04 [8864ab55] (006/395) Accurately ripped
05 [7a43c36f] (006/394) Accurately ripped
06 [75f1fcec] (006/393) Accurately ripped
07 [af48b9a9] (006/395) Accurately ripped
08 [b219f4e8] (006/395) Accurately ripped
09 [c426ad87] (006/392) Accurately ripped
10 [3a7ef51b] (006/395) Accurately ripped
11 [5eefd733] (006/392) Accurately ripped
12 [9f39665f] (006/391) Accurately ripped
Offsetted by 664:
01 [73d892e2] (176/397) Accurately ripped
02 [c0161c3f] (174/396) Accurately ripped
03 [8eada607] (172/392) Accurately ripped
04 [6d6290af] (173/395) Accurately ripped
05 [ad3f481b] (172/394) Accurately ripped
06 [29ea9a59] (173/393) Accurately ripped
07 [4d60ba90] (173/395) Accurately ripped
08 [a0ab56a5] (173/395) Accurately ripped
09 [d394a94c] (172/392) Accurately ripped
10 [31943610] (173/395) Accurately ripped
11 [b9afec8f] (170/392) Accurately ripped
12 [43a9842b] (167/391) Accurately ripped
Offsetted by -12:
01 [5b7d816c] (000/397) No match (V2 was not tested)
02 [0a126be2] (000/396) No match (V2 was not tested)
03 [16f2801a] (000/392) No match (V2 was not tested)
04 [f170c2d9] (000/395) No match (V2 was not tested)
05 [c9f25d25] (000/394) No match (V2 was not tested)
06 [3f520ecb] (000/393) No match (V2 was not tested)
07 [fa0ff195] (000/395) No match
08 [651b30b9] (000/395) No match
09 [59ae5633] (000/392) No match
10 [7cd45a80] (000/395) No match
11 [2f27a6f0] (000/392) No match
12 [4a3a2335] (000/391) No match (V2 was not tested)
Offsetted by -6:
01 [657776b7] (000/397) No match
02 [c36209bf] (000/396) No match
03 [79996d7c] (000/392) No match
04 [c7b9c8b1] (000/395) No match
05 [1d2e2e7c] (000/394) No match
06 [211ad001] (000/393) No match
07 [d5edbcef] (000/395) No match (V2 was not tested)
08 [ae632eeb] (000/395) No match (V2 was not tested)
09 [cd16a63b] (000/392) No match (V2 was not tested)
10 [34da9803] (000/395) No match (V2 was not tested)
11 [92bd6201] (000/392) No match (V2 was not tested)
12 [33321064] (000/391) No match
Offsetted by 568:
01 [bcc788ce] (000/397) No match (V2 was not tested)
02 [d6da985c] (000/396) No match (V2 was not tested)
03 [400ad035] (000/392) No match (V2 was not tested)
04 [f1f1a7d4] (000/395) No match (V2 was not tested)
05 [f35e0dff] (000/394) No match (V2 was not tested)
06 [b4c10a87] (000/393) No match (V2 was not tested)
07 [451e2a90] (000/395) No match (V2 was not tested)
08 [30bc9471] (000/395) No match (V2 was not tested)
09 [55c271c1] (000/392) No match (V2 was not tested)
10 [ae28e4b8] (000/395) No match (V2 was not tested)
11 [2400ae5d] (000/392) No match (V2 was not tested)
12 [e74a16b1] (000/391) No match (V2 was not tested)
Offsetted by 598:
01 [12734f77] (000/397) No match
02 [a30c2bbd] (000/396) No match (V2 was not tested)
03 [1bc2c0c4] (000/392) No match
04 [9500d43f] (000/395) No match
05 [0535ccd8] (000/394) No match
06 [b282f483] (000/393) No match
07 [0c1773bb] (000/395) No match
08 [a1b05b46] (000/395) No match
09 [d038811e] (000/392) No match
10 [cdac3e68] (000/395) No match
11 [99d0f5a3] (000/392) No match
12 [e4725889] (000/391) No match
Offsetted by 658:
01 [a338e862] (002/397) Accurately ripped
02 [74c4a100] (002/396) Accurately ripped
03 [ab869eec] (002/392) Accurately ripped
04 [a163b2c4] (002/395) Accurately ripped
05 [d40893c5] (002/394) Accurately ripped
06 [f7c6922e] (002/393) Accurately ripped
07 [9f041ef8] (002/395) Accurately ripped
08 [88a20009] (002/395) Accurately ripped
09 [183879b6] (000/392) No match (V2 was not tested)
10 [eadf89bb] (002/395) Accurately ripped
11 [70561db2] (002/392) Accurately ripped
12 [e33d3a61] (002/391) Accurately ripped

Track Peak [ CRC32 ] [W/O NULL] [ LOG ]
– 98,8 [C5C98320] [C64C3C45] CRC32
01 98,8 [5F8547CC] [E5734241]
02 98,8 [CD3E39F8] [AF0136D2]
03 98,8 [3DE6E8C6] [4CAE012B]
04 96,6 [2FF94AA3] [39A19A26]
05 98,8 [4D42B3A6] [9201CFBB]
06 98,8 [C94CAA80] [58B5BC57]
07 98,8 [152C5352] [5EE8B862]
08 98,8 [8157D6F8] [1196DABC]
09 98,8 [DC8BD4DC] [A2FEC0BB]
10 98,8 [3E79E787] [9FF4B413]
11 98,8 [7346FE3A] [80CCE31B]
12 98,8 [E6BE1D4F] [F1ABDA98]


Prince - Musicology (2004)

All thanks go to the original releaser

Prince in my Blog

Download Prince - Musicology (2004):