Tags
Language
Tags

Floating Points, Pharoah Sanders & The London Symphony Orchestra - Promises (2021)

Posted By: SERTiL
Floating Points, Pharoah Sanders & The London Symphony Orchestra - Promises (2021)

Floating Points, Pharoah Sanders & The London Symphony Orchestra - Promises (2021)
EAC Rip | FLAC (tracks+log+.cue) - 225 Mb | Artwork | 46:33
Jazz, Modern Classical, Ambient | Label: Luaka Bop / LB0097

Sam (Floating Points): Pharoah… Pharoah: Huh…? Sam: Were you asleep? I'm sorry… Pharoah: No no… I was listening… and dreaming… and listening to music in my head… Sam: Oh wow… sorry. Pharoah: Many times, people think I might be asleep… but in fact, I am just listening to music in my head. I'm always listening… to the sounds around me… and playing, in my mind… and sometimes I dream. Sam: What were you dreaming about? Pharoah: I'm on a ship. In the ocean. Bears coming around smoking cigars. The bears are singing, 'We have the music. We have what you're looking for. * * * Pharoah: How you like that take, Sam? Sam: It's cool. I think the bit in the middle, where it stops again…I think you can hear…We were both kind of confused. I like it as well because it sounds like two musicians that are trying to guide each other. Pharoah: I think that's it right there. It came out different. It came out good though. Sam: You happy? Pharoah: Yeah, I'm cool with it. Sam: Okay. Yeah, I think your playing is beautiful.

Floating Points, Pharoah Sanders & The London Symphony Orchestra - Promises (2021)


Tracklist:
1. Movement 1 (feat. London Symphony Orchestra) (6:24)
2. Movement 2 (feat. London Symphony Orchestra) (2:31)
3. Movement 3 (feat. London Symphony Orchestra) (2:32)
4. Movement 4 (feat. London Symphony Orchestra) (2:32)
5. Movement 5 (feat. London Symphony Orchestra) (4:25)
6. Movement 6 (feat. London Symphony Orchestra) (8:51)
7. Movement 7 (feat. London Symphony Orchestra) (9:29)
8. Movement 8 (feat. London Symphony Orchestra) (7:23)
9. Movement 9 (feat. London Symphony Orchestra) (2:30)

Exact Audio Copy V1.3 from 2. September 2016

EAC extraction logfile from 3. April 2021, 22:16

Floating Points, Pharoah Sanders & The London Symphony Orchestra / Promises

Used drive : ATAPI DVD A DH16AASH Adapter: 1 ID: 0

Read mode : Secure
Utilize accurate stream : Yes
Defeat audio cache : Yes
Make use of C2 pointers : No

Read offset correction : 6
Overread into Lead-In and Lead-Out : No
Fill up missing offset samples with silence : Yes
Delete leading and trailing silent blocks : No
Null samples used in CRC calculations : Yes
Used interface : Native Win32 interface for Win NT & 2000
Gap handling : Appended to previous track

Used output format : User Defined Encoder
Selected bitrate : 1024 kBit/s
Quality : High
Add ID3 tag : No
Command line compressor : C:\Program Files (x86)\Exact Audio Copy\Flac\flac.exe
Additional command line options : -8 -e -V -T "ARTIST=%artist%" -T "TITLE=%title%" -T "ALBUM=%albumtitle%" -T "DATE=%year%" -T "TRACKNUMBER=%tracknr%" -T "GENRE=%genre%" -T "PERFORMER=%albuminterpret%" -T "COMPOSER=%composer%" %haslyrics%–tag-from-file=LYRICS="%lyricsfile%"%haslyrics% -T "ALBUMARTIST=%albumartist%" -T "DISCNUMBER=%cdnumber%" -T "TOTALDISCS=%totalcds%" -T "TOTALTRACKS=%numtracks%" -T "COMMENT=%comment%" %source% -o %dest%


TOC of the extracted CD

Track | Start | Length | Start sector | End sector
––––––––––––––––––––––––––––-
1 | 0:00.00 | 6:24.12 | 0 | 28811
2 | 6:24.12 | 2:31.24 | 28812 | 40160
3 | 8:55.36 | 2:32.07 | 40161 | 51567
4 | 11:27.43 | 2:31.58 | 51568 | 62950
5 | 13:59.26 | 4:25.17 | 62951 | 82842
6 | 18:24.43 | 8:50.67 | 82843 | 122659
7 | 27:15.35 | 9:28.70 | 122660 | 165329
8 | 36:44.30 | 7:22.72 | 165330 | 198551
9 | 44:07.27 | 2:30.07 | 198552 | 209808


Track 1

Filename X:\Various\Floating Points, Pharoah Sanders & The London Symphony Orchestra - Promises (2021) [FLAC]\01 - Movement 1.wav

Pre-gap length 0:00:02.00

Peak level 73.2 %
Extraction speed 3.6 X
Track quality 100.0 %
Test CRC 4DED2955
Copy CRC 4DED2955
Track not present in AccurateRip database
Copy OK

Track 2

Filename X:\Various\Floating Points, Pharoah Sanders & The London Symphony Orchestra - Promises (2021) [FLAC]\02 - Movement 2.wav

Peak level 73.7 %
Extraction speed 3.6 X
Track quality 100.0 %
Test CRC 9FCDF79F
Copy CRC 9FCDF79F
Track not present in AccurateRip database
Copy OK

Track 3

Filename X:\Various\Floating Points, Pharoah Sanders & The London Symphony Orchestra - Promises (2021) [FLAC]\03 - Movement 3.wav

Peak level 70.7 %
Extraction speed 3.7 X
Track quality 100.0 %
Test CRC 0DDE4094
Copy CRC 0DDE4094
Track not present in AccurateRip database
Copy OK

Track 4

Filename X:\Various\Floating Points, Pharoah Sanders & The London Symphony Orchestra - Promises (2021) [FLAC]\04 - Movement 4.wav

Peak level 69.9 %
Extraction speed 3.9 X
Track quality 100.0 %
Test CRC E41A004E
Copy CRC E41A004E
Track not present in AccurateRip database
Copy OK

Track 5

Filename X:\Various\Floating Points, Pharoah Sanders & The London Symphony Orchestra - Promises (2021) [FLAC]\05 - Movement 5.wav

Peak level 84.0 %
Extraction speed 4.6 X
Track quality 100.0 %
Test CRC 39415F78
Copy CRC 39415F78
Track not present in AccurateRip database
Copy OK

Track 6

Filename X:\Various\Floating Points, Pharoah Sanders & The London Symphony Orchestra - Promises (2021) [FLAC]\06 - Movement 6.wav

Peak level 97.3 %
Extraction speed 4.8 X
Track quality 99.9 %
Test CRC 46E4EEC3
Copy CRC 46E4EEC3
Track not present in AccurateRip database
Copy OK

Track 7

Filename X:\Various\Floating Points, Pharoah Sanders & The London Symphony Orchestra - Promises (2021) [FLAC]\07 - Movement 7.wav

Peak level 95.1 %
Extraction speed 5.9 X
Track quality 100.0 %
Test CRC 1DABB628
Copy CRC 1DABB628
Track not present in AccurateRip database
Copy OK

Track 8

Filename X:\Various\Floating Points, Pharoah Sanders & The London Symphony Orchestra - Promises (2021) [FLAC]\08 - Movement 8.wav

Peak level 61.3 %
Extraction speed 6.3 X
Track quality 100.0 %
Test CRC 695CC75A
Copy CRC 695CC75A
Track not present in AccurateRip database
Copy OK

Track 9

Filename X:\Various\Floating Points, Pharoah Sanders & The London Symphony Orchestra - Promises (2021) [FLAC]\09 - Movement 9.wav

Peak level 45.9 %
Extraction speed 4.1 X
Track quality 99.9 %
Test CRC 8C20802C
Copy CRC 8C20802C
Track not present in AccurateRip database
Copy OK


None of the tracks are present in the AccurateRip database

No errors occurred

End of status report

–– CUETools DB Plugin V2.1.6

[CTDB TOCID: qSJP7GPxG1vOLN6_6L9RLuKPUIs-] found
Submit result: qSJP7GPxG1vOLN6_6L9RLuKPUIs- has been confirmed
Track | CTDB Status
1 | (16/16) Accurately ripped
2 | (16/16) Accurately ripped
3 | (16/16) Accurately ripped
4 | (16/16) Accurately ripped
5 | (16/16) Accurately ripped
6 | (16/16) Accurately ripped
7 | (16/16) Accurately ripped
8 | (16/16) Accurately ripped
9 | (16/16) Accurately ripped


==== Log checksum 0961EA37793DD96BBF244122BC23C0EF8CBE70F8C4FED1D15DF8436D60D219BC ====


Floating Points, Pharoah Sanders & The London Symphony Orchestra - Promises (2021)


Thanks to the Original customer.