Tags
Language
Tags
February 2023
Su Mo Tu We Th Fr Sa
29 30 31 1 2 3 4
5 6 7 8 9 10 11
12 13 14 15 16 17 18
19 20 21 22 23 24 25
26 27 28 1 2 3 4

R.E.M. - Finest Worksong (1988) UK Limited Edition Single

Posted By: Designol
R.E.M. - Finest Worksong (1988) UK Limited Edition Single

R.E.M. - Finest Worksong (1988) UK Limited Edition Single
EAC | FLAC | Tracks (Cue&Log) ~ 104 Mb | Mp3 (CBR320) ~ 48 Mb | Scans included
Alternative Pop/Rock, College Rock | Label: I.R.S. | # DIRM 161 | 00:16:22

"Finest Worksong" is the third and final single released from R.E.M.'s fifth studio album Document. It peaked at number 50 on the UK Singles Chart in April 1988, at the time the group's highest-charting single in the UK. The single version of the song (also known as Mutual Drum Horn mix), featuring a new horn section by The Uptown Horns, was placed on R.E.M.'s I.R.S. Records compilation Eponymous. This was the last original single the band released on I.R.S. Records.

R.E.M. - Finest Worksong (1988) UK Limited Edition Single



Comes in 6 x 6 cardboard packaging.

Tracks 1 & 3: Taken from the album 'Document' (D) MIRG (C) 1025
Track 2: Recorded at the Muziekcentrum Vredenburg, Utrecht, Netherlands;
September 14, 1987, this live medley included "Time After Time (AnnElise)",
a snippet of Peter Gabriel's "Red Rain" and "So. Central Rain (I'm Sorry)"

Tracklist:

01. Finest Worksong (3:51)
02. Time After Time Medley (8:26)
- (i) Time After Time
- (ii) Red Rain
- (iii) So. Central Rain
03. It's The End Of The World As We Know It (And I Feel Fine) (4:05)


Exact Audio Copy V0.99 prebeta 4 from 23. January 2008

EAC extraction logfile from 20. June 2010, 9:12

REM / Finest Worksong

Used drive : Optiarc DVD RW AD-7561S Adapter: 1 ID: 0

Read mode : Secure
Utilize accurate stream : Yes
Defeat audio cache : Yes
Make use of C2 pointers : No

Read offset correction : 6
Overread into Lead-In and Lead-Out : No
Fill up missing offset samples with silence : Yes
Delete leading and trailing silent blocks : No
Null samples used in CRC calculations : Yes
Used interface : Native Win32 interface for Win NT & 2000
Gap handling : Appended to previous track

Used output format : User Defined Encoder
Selected bitrate : 768 kBit/s
Quality : High
Add ID3 tag : No
Command line compressor : C:\Program Files\FLAC\flac.exe
Additional command line options : -8 -V -T "ARTIST=%a" -T "TITLE=%t" -T "ALBUM=%g" -T "DATE=%y" -T "TRACKNUMBER=%n" -T "GENRE=%m" -T "COMMENT=EAC FLAC -8" %s


TOC of the extracted CD

Track | Start | Length | Start sector | End sector
––––––––––––––––––––––––––––-
1 | 0:00.00 | 3:50.52 | 0 | 17301
2 | 3:50.52 | 8:26.23 | 17302 | 55274
3 | 12:17.00 | 4:05.07 | 55275 | 73656


Track 1

Filename C:\torrent\R.E.M. - Finest Worksong (1988) [FLAC] Limited Edition CD-Single\01 - Finest Worksong.wav

Pre-gap length 0:00:02.00

Peak level 90.4 %
Track quality 100.0 %
Test CRC EBDB35C0
Copy CRC EBDB35C0
Accurately ripped (confidence 2) [5FC482B7]
Copy OK

Track 2

Filename C:\torrent\R.E.M. - Finest Worksong (1988) [FLAC] Limited Edition CD-Single\02 - Time After Time Medley.wav

Pre-gap length 0:00:01.60

Peak level 95.6 %
Track quality 100.0 %
Test CRC D100227D
Copy CRC D100227D
Accurately ripped (confidence 2) [5724E919]
Copy OK

Track 3

Filename C:\torrent\R.E.M. - Finest Worksong (1988) [FLAC] Limited Edition CD-Single\03 - It's The End Of The World As We Know It (And I Feel Fine).wav

Pre-gap length 0:00:01.46

Peak level 89.5 %
Track quality 100.0 %
Test CRC 46896378
Copy CRC 46896378
Accurately ripped (confidence 2) [2840481B]
Copy OK


All tracks accurately ripped

No errors occurred

End of status report

[CUETools log; Date: 16.04.2018 7:50:49; Version: 2.1.4]
[CTDB TOCID: knmWjlMml5FzKNdDLoaqbSC4XQQ-] found.
Track | CTDB Status
1 | (6/6) Accurately ripped
2 | (6/6) Accurately ripped
3 | (6/6) Accurately ripped
[AccurateRip ID: 00023b3a-00078dd2-1c03d603] found.
Track [ CRC | V2 ] Status
01 [5fc482b7|a0eaa580] (4+2/6) Accurately ripped
02 [5724e919|45551cbe] (3+2/5) Accurately ripped
03 [2840481b|71ca3fe8] (3+2/5) Accurately ripped

Track Peak [ CRC32 ] [W/O NULL] [ LOG ]
– 95,6 [8EF1967B] [F87DDC0F]
01 90,4 [EBDB35C0] [E3896A1C] CRC32
02 95,6 [D100227D] [64FE1E84] CRC32
03 89,5 [46896378] [BC99483D] CRC32

foobar2000 1.2 / Dynamic Range Meter 1.1.1
log date: 2018-04-16 08:00:22

––––––––––––––––––––––––––––––––––––––––
Analyzed: R.E.M. / Finest Worksong (Limited Edition CD-Single)
––––––––––––––––––––––––––––––––––––––––

DR Peak RMS Duration Track
––––––––––––––––––––––––––––––––––––––––
DR12 -0.88 dB -14.51 dB 3:51 01-Finest Worksong
DR16 -0.39 dB -23.30 dB 8:26 02-Time After Time Medley
DR12 -0.96 dB -14.45 dB 4:05 03-It's The End Of The World As We Know It (And I Feel Fine)
––––––––––––––––––––––––––––––––––––––––

Number of tracks: 3
Official DR value: DR13

Samplerate: 44100 Hz
Channels: 2
Bits per sample: 16
Bitrate: 976 kbps
Codec: FLAC
================================================================================

R.E.M. - Finest Worksong (1988) UK Limited Edition Single

R.E.M. - Finest Worksong (1988) UK Limited Edition Single