Subcategories

R.E.M. - Reckoning (1984) Expanded Reissue 1992

Posted By: Designol
R.E.M. - Reckoning (1984) Expanded Reissue 1992

R.E.M. - Reckoning (1984) Expanded Reissue 1992
EAC | FLAC | Tracks (Cue&Log) ~ 376 Mb (incl 5%) | Mp3 (CBR320) ~ 161 Mb (incl 5%) | Scans included
Alternative Rock, College Rock, Jungle-Pop | Label: I.R.S. | # 0777 7 13159 2 3 | 00:52:38

R.E.M. abandoned the enigmatic post-punk experiments of Murmur for their second album, Reckoning, returning to their garage pop origins instead. Opening with the ringing "Harborcoat," Reckoning runs through a set of ten jangle pop songs that are different not only in sound but in style from the debut. Where Murmur was enigmatic in its sound, Reckoning is clear, which doesn't necessarily mean that the songs themselves are straightforward. Michael Stipe continues to sing powerful melodies without enunciating, but the band has a propulsive kick that makes the music vital and alive. And, if anything, the songwriting is more direct and memorable than before – the interweaving melodies of "Pretty Persuasion" and the country rocker "(Don't Go Back To) Rockville" are as affecting as the melancholic dirges of "Camera" and "Time After Time," while the ringing minor-key arpeggios of "So. Central Rain," the pulsating riffs of "7 Chinese Bros.," and the hard-rocking rhythms of "Little America" make the songs into classics. On the surface, Reckoning may not be as distinctive as Murmur, but the record's influence on underground American rock in the '80s was just as strong.

Review by Stephen Thomas Erlewine, Allmusic.com

R.E.M. - Reckoning (1984) Expanded Reissue 1992



Tracklist:

01. Harborcoat (03:54)
02. 7 Chinese Bros. (04:18)
03. So. Central Rain (03:16)
04. Pretty Persuasion (03:53)
05. Time After Time (Annelise) (03:32)
06. Second Guessing (02:51)
07. Letter Never Sent (03:02)
08. Camera (05:51)
09. (Don't Go Back To) Rockville (04:32)
10. Little America (02:58)

Bonus tracks:

11. Wind Out (With Friends) (02:00)
12. Pretty Persuasion (Live In Studio) (04:01)
13. White Tornado (Live In Studio) (01:53)
14. Tighten Up (04:09)
15. Moon River (02:21)


Exact Audio Copy V1.1 from 23. June 2015

EAC extraction logfile from 11. January 2017, 13:24

R.E.M. / Reckoning (0777 7 13159 2 3)

Used drive : HL-DT-STDVDRAM GE20NU11 Adapter: 1 ID: 0

Read mode : Secure
Utilize accurate stream : Yes
Defeat audio cache : Yes
Make use of C2 pointers : No

Read offset correction : 667
Overread into Lead-In and Lead-Out : No
Fill up missing offset samples with silence : Yes
Delete leading and trailing silent blocks : No
Null samples used in CRC calculations : Yes
Used interface : Native Win32 interface for Win NT & 2000
Gap handling : Appended to previous track

Used output format : User Defined Encoder
Selected bitrate : 896 kBit/s
Quality : High
Add ID3 tag : No
Command line compressor : C:\Program Files\EAC 3\Exact Audio Copy\Flac\flac.exe
Additional command line options : -V -8 -T "Genre=%genre%" -T "Artist=%artist%" -T "Title=%title%" -T "Album=%albumtitle%" -T "Date=%year%" -T "Tracknumber=%tracknr%" -T "Comment=%comment%" %source%


TOC of the extracted CD

Track | Start | Length | Start sector | End sector
––––––––––––––––––––––––––––-
1 | 0:00.33 | 3:54.30 | 33 | 17612
2 | 3:54.63 | 4:18.40 | 17613 | 37002
3 | 8:13.28 | 3:16.00 | 37003 | 51702
4 | 11:29.28 | 3:53.17 | 51703 | 69194
5 | 15:22.45 | 3:32.10 | 69195 | 85104
6 | 18:54.55 | 2:51.48 | 85105 | 97977
7 | 21:46.28 | 3:02.57 | 97978 | 111684
8 | 24:49.10 | 5:51.33 | 111685 | 138042
9 | 30:40.43 | 4:32.72 | 138043 | 158514
10 | 35:13.40 | 2:58.70 | 158515 | 171934
11 | 38:12.35 | 2:00.60 | 171935 | 180994
12 | 40:13.20 | 4:01.73 | 180995 | 199142
13 | 44:15.18 | 1:53.05 | 199143 | 207622
14 | 46:08.23 | 4:09.00 | 207623 | 226297
15 | 50:17.23 | 2:21.05 | 226298 | 236877


Track 1

Filename Z:\OdW\R.E.M. - 1984 - Reckoning (0777 7 13159 2 3)\01. R.E.M. – Harborcoat.wav

Pre-gap length 0:00:02.33

Peak level 89.6 %
Extraction speed 3.5 X
Track quality 99.9 %
Test CRC E79B42EA
Copy CRC E79B42EA
Accurately ripped (confidence 85) [1E166592] (AR v2)
Copy OK

Track 2

Filename Z:\OdW\R.E.M. - 1984 - Reckoning (0777 7 13159 2 3)\02. R.E.M. – 7 Chinese Bros..wav

Pre-gap length 0:00:00.48

Peak level 100.0 %
Extraction speed 4.7 X
Track quality 100.0 %
Test CRC 8BAD6F8C
Copy CRC 8BAD6F8C
Accurately ripped (confidence 86) [62FCE2EC] (AR v2)
Copy OK

Track 3

Filename Z:\OdW\R.E.M. - 1984 - Reckoning (0777 7 13159 2 3)\03. R.E.M. – So. Central Rain.wav

Pre-gap length 0:00:00.55

Peak level 74.7 %
Extraction speed 4.9 X
Track quality 100.0 %
Test CRC F99B1AE3
Copy CRC F99B1AE3
Accurately ripped (confidence 86) [41828981] (AR v2)
Copy OK

Track 4

Filename Z:\OdW\R.E.M. - 1984 - Reckoning (0777 7 13159 2 3)\04. R.E.M. – Pretty Persuasion.wav

Pre-gap length 0:00:01.13

Peak level 87.5 %
Extraction speed 5.2 X
Track quality 100.0 %
Test CRC C15B2C20
Copy CRC C15B2C20
Accurately ripped (confidence 86) [3DEA11D7] (AR v2)
Copy OK

Track 5

Filename Z:\OdW\R.E.M. - 1984 - Reckoning (0777 7 13159 2 3)\05. R.E.M. – Time After Time (Annelise).wav

Pre-gap length 0:00:02.72

Peak level 74.4 %
Extraction speed 4.5 X
Track quality 99.9 %
Test CRC C1FBBDD4
Copy CRC C1FBBDD4
Accurately ripped (confidence 86) [92EB38EB] (AR v2)
Copy OK

Track 6

Filename Z:\OdW\R.E.M. - 1984 - Reckoning (0777 7 13159 2 3)\06. R.E.M. – Second Guessing.wav

Pre-gap length 0:00:00.02

Peak level 99.6 %
Extraction speed 4.4 X
Track quality 99.9 %
Test CRC DD52F7A4
Copy CRC DD52F7A4
Accurately ripped (confidence 86) [97BA7C93] (AR v2)
Copy OK

Track 7

Filename Z:\OdW\R.E.M. - 1984 - Reckoning (0777 7 13159 2 3)\07. R.E.M. – Letter Never Sent.wav

Pre-gap length 0:00:01.08

Peak level 100.0 %
Extraction speed 5.9 X
Track quality 100.0 %
Test CRC B2895997
Copy CRC B2895997
Accurately ripped (confidence 86) [B9C86E1A] (AR v2)
Copy OK

Track 8

Filename Z:\OdW\R.E.M. - 1984 - Reckoning (0777 7 13159 2 3)\08. R.E.M. – Camera.wav

Pre-gap length 0:00:03.60

Peak level 81.2 %
Extraction speed 6.6 X
Track quality 100.0 %
Test CRC 7946D930
Copy CRC 7946D930
Accurately ripped (confidence 86) [D5B5CA20] (AR v2)
Copy OK

Track 9

Filename Z:\OdW\R.E.M. - 1984 - Reckoning (0777 7 13159 2 3)\09. R.E.M. – (Don't Go Back To) Rockville.wav

Pre-gap length 0:00:00.03

Peak level 77.1 %
Extraction speed 6.8 X
Track quality 100.0 %
Test CRC B7545846
Copy CRC B7545846
Accurately ripped (confidence 85) [5C2560D5] (AR v2)
Copy OK

Track 10

Filename Z:\OdW\R.E.M. - 1984 - Reckoning (0777 7 13159 2 3)\10. R.E.M. – Little America.wav

Pre-gap length 0:00:01.07

Peak level 96.7 %
Extraction speed 3.2 X
Track quality 99.9 %
Test CRC B630093B
Copy CRC B630093B
Accurately ripped (confidence 85) [B5D7C9D5] (AR v2)
Copy OK

Track 11

Filename Z:\OdW\R.E.M. - 1984 - Reckoning (0777 7 13159 2 3)\11. R.E.M. – Wind Out (With Friends).wav

Pre-gap length 0:00:00.02

Peak level 92.5 %
Extraction speed 4.3 X
Track quality 99.9 %
Test CRC B44D0913
Copy CRC B44D0913
Accurately ripped (confidence 88) [3CA4AF77] (AR v2)
Copy OK

Track 12

Filename Z:\OdW\R.E.M. - 1984 - Reckoning (0777 7 13159 2 3)\12. R.E.M. – Pretty Persuasion (Live In Studio).wav

Pre-gap length 0:00:01.00

Peak level 83.4 %
Extraction speed 6.4 X
Track quality 100.0 %
Test CRC 032093C0
Copy CRC 032093C0
Accurately ripped (confidence 87) [14203047] (AR v2)
Copy OK

Track 13

Filename Z:\OdW\R.E.M. - 1984 - Reckoning (0777 7 13159 2 3)\13. R.E.M. – White Tornado (Live In Studio).wav

Pre-gap length 0:00:00.03

Peak level 92.2 %
Extraction speed 2.8 X
Track quality 100.0 %
Test CRC 7251EA6C
Copy CRC 7251EA6C
Accurately ripped (confidence 88) [B2BB9231] (AR v2)
Copy OK

Track 14

Filename Z:\OdW\R.E.M. - 1984 - Reckoning (0777 7 13159 2 3)\14. R.E.M. – Tighten Up.wav

Pre-gap length 0:00:00.65

Peak level 95.5 %
Extraction speed 6.2 X
Track quality 99.9 %
Test CRC 8B711D1E
Copy CRC 8B711D1E
Accurately ripped (confidence 86) [530E5F5D] (AR v2)
Copy OK

Track 15

Filename Z:\OdW\R.E.M. - 1984 - Reckoning (0777 7 13159 2 3)\15. R.E.M. – Moon River.wav

Pre-gap length 0:00:00.03

Peak level 78.9 %
Extraction speed 7.0 X
Track quality 100.0 %
Test CRC 6BE55613
Copy CRC 6BE55613
Accurately ripped (confidence 87) [DB6005CC] (AR v2)
Copy OK


All tracks accurately ripped

No errors occurred

End of status report

–– CUETools DB Plugin V2.1.6

[CTDB TOCID: 3wtcDvnV.7jf_23Xrx8Qyia8M7c-] found
Submit result: 3wtcDvnV.7jf_23Xrx8Qyia8M7c- has been confirmed
Track | CTDB Status
1 | (103/103) Accurately ripped
2 | (102/103) Accurately ripped
3 | (103/103) Accurately ripped
4 | (100/103) Accurately ripped
5 | (102/103) Accurately ripped
6 | (102/103) Accurately ripped
7 | (103/103) Accurately ripped
8 | (102/103) Accurately ripped
9 | (101/103) Accurately ripped
10 | (102/103) Accurately ripped
11 | (102/103) Accurately ripped
12 | (102/103) Accurately ripped
13 | (101/103) Accurately ripped
14 | (101/103) Accurately ripped
15 | (102/103) Accurately ripped


==== Log checksum A0C19463087F3355620C70501961D5DFE11183431BE94D88A02CAAF75020C807 ====

foobar2000 1.2 / Dynamic Range Meter 1.1.1
log date: 2017-02-09 14:43:54

––––––––––––––––––––––––––––––––––––––––
Analyzed: R.E.M. / Reckoning (0777 7 13159 2 3)
––––––––––––––––––––––––––––––––––––––––

DR Peak RMS Duration Track
––––––––––––––––––––––––––––––––––––––––
DR12 -0.95 dB -15.88 dB 3:54 01-Harborcoat
DR13 0.00 dB -16.34 dB 4:19 02-7 Chinese Bros.
DR12 -2.52 dB -16.82 dB 3:16 03-So. Central Rain
DR13 -1.16 dB -15.28 dB 3:53 04-Pretty Persuasion
DR12 -2.57 dB -17.34 dB 3:32 05-Time After Time (Annelise)
DR13 -0.03 dB -15.34 dB 2:52 06-Second Guessing
DR14 0.00 dB -16.47 dB 3:03 07-Letter Never Sent
DR12 -1.81 dB -17.17 dB 5:51 08-Camera
DR12 -2.25 dB -17.04 dB 4:33 09-(Don't Go Back To) Rockville
DR14 -0.29 dB -16.59 dB 2:59 10-Little America
DR11 -0.67 dB -13.35 dB 2:01 11-Wind Out (With Friends)
DR14 -1.57 dB -16.78 dB 4:02 12-Pretty Persuasion (Live In Studio)
DR11 -0.70 dB -14.06 dB 1:53 13-White Tornado (Live In Studio)
DR15 -0.40 dB -17.80 dB 4:09 14-Tighten Up
DR13 -2.05 dB -19.01 dB 2:21 15-Moon River
––––––––––––––––––––––––––––––––––––––––

Number of tracks: 15
Official DR value: DR13

Samplerate: 44100 Hz
Channels: 2
Bits per sample: 16
Bitrate: 746 kbps
Codec: FLAC
================================================================================

R.E.M. - Reckoning (1984) Expanded Reissue 1992

R.E.M. - Reckoning (1984) Expanded Reissue 1992