Subcategories
Tags
Language
Tags

Rafael Riqueni - Parque de Maria Luisa (2017) {Universal Spain}

Posted By: tiburon
Rafael Riqueni - Parque de Maria Luisa (2017) {Universal Spain}

Rafael Riqueni - Parque de Maria Luisa (2017) {Universal Spain}
EAC 1.6 | FLAC tracks level 8 | Cue+Log+M3U | Full Scans 600dpi | 426MB + 5% Recovery
MP3 CBR 320 Kbps | 120MB + 5% Recovery
Genre: Flamenco
Rafael Riqueni - Parque de Maria Luisa (2017) {Universal Spain}

«Parque de María Luisa» se convierte así en el regreso de uno de los mayores genios surgidos del flamenco y la música española. El esperado nuevo capitulo en la evolución musical de Rafael Riqueni, la reinvención que no cesa. Una obra que libera el impresionismo que puede surgir desde raíz flamenca, para con ello protagonizar un camino hacia la suma belleza de lugares y vivencias que permanecían en la memoria más intima del creador.
Track List
01. Aquel día
02. El estanque de los Lotos
03. Monte Gurugú
04. La glorieta de Bécquer
05. Esperándote
06. La isleta de los Patos
07. Tiempos pasados
08. El costurero de la reina
09. Los Quintero
10. Bulerías del parque
11. Te llevé de la mano
12. Trinos
13. La fuente de las ranas
14. Plaza de España
15. Azahar, jazmín y dama de noche
16. Revuelo de palomas

musicians
Guitar: Rafael Riqueni, all tracks; Raimundo Amador (10)
Second Guitar: Joselito Acedo (Intro 3)
Violin: Bruno Axel (2, 4, 7, 13,16) Alan Andrews (2, 4, 7, 13, 16)
Viola: Jerome Ireland (2, 4, 7, 13, 16)
Violonchelo: Gretchen Talbot (2, 4, 7, 13, 16)
Double Bass: Roberto Barroso (3, 13, 16)
Alt Sax: Gautama del Campo (11)
Clarinet: Piotr Szymyslik (16)
Oboe: José M. González (16)
Effects: Xavi Turull (1, 2, 6, 10, 12)
Percussion: Xavi Turull (1, 10) Joselito Carrasco (2,3, 10) Tino di Geraldo (3)
Vocals: Estrella Morente (10) Juan José Amador (10)
Palmas, Jaleos: Bobote y Torombo: Xavi Turull (10)
Moseño: Gautama del Campo (1)

Produced by Paco Bech and Joselito Acedo


Exact Audio Copy V1.6 from 23. October 2020

EAC extraction logfile from 4. May 2021, 23:06

Rafael Riqueni / Parque de Maria Luisa

Used drive : PLEXTOR PX-891SAF Adapter: 1 ID: 0

Read mode : Secure
Utilize accurate stream : Yes
Defeat audio cache : Yes
Make use of C2 pointers : No

Read offset correction : 6
Overread into Lead-In and Lead-Out : No
Fill up missing offset samples with silence : Yes
Delete leading and trailing silent blocks : No
Null samples used in CRC calculations : Yes
Used interface : Native Win32 interface for Win NT & 2000
Gap handling : Appended to previous track

Used output format : User Defined Encoder
Selected bitrate : 128 kBit/s
Quality : High
Add ID3 tag : No
Command line compressor : C:\Program Files (x86)\Exact Audio Copy\FLAC\FLAC.EXE
Additional command line options : -8 -V -T "ARTIST=%artist%" -T "TITLE=%title%" -T "ALBUM=%albumtitle%" -T "DATE=%year%" -T "TRACKNUMBER=%tracknr%" -T "TOTALTRACKS=%numtracks%" -T "GENRE=%genre%" -T "ALBUMARTIST=%albumartist%" -T "ALBUM ARTIST=%albumartist%" -T "COMMENT=EAC Secure Mode, Test & Copy, AccurateRip, FLAC -8" %source%


TOC of the extracted CD

Track | Start | Length | Start sector | End sector
––––––––––––––––––––––––––––-
1 | 0:00.00 | 3:15.06 | 0 | 14630
2 | 3:15.06 | 2:32.74 | 14631 | 26104
3 | 5:48.05 | 4:36.17 | 26105 | 46821
4 | 10:24.22 | 2:18.18 | 46822 | 57189
5 | 12:42.40 | 1:09.64 | 57190 | 62428
6 | 13:52.29 | 3:40.42 | 62429 | 78970
7 | 17:32.71 | 2:15.70 | 78971 | 89165
8 | 19:48.66 | 2:30.62 | 89166 | 100477
9 | 22:19.53 | 1:25.10 | 100478 | 106862
10 | 23:44.63 | 6:33.39 | 106863 | 136376
11 | 30:18.27 | 1:18.55 | 136377 | 142281
12 | 31:37.07 | 6:46.04 | 142282 | 172735
13 | 38:23.11 | 3:10.34 | 172736 | 187019
14 | 41:33.45 | 2:59.17 | 187020 | 200461
15 | 44:32.62 | 5:01.15 | 200462 | 223051
16 | 49:34.02 | 2:49.07 | 223052 | 235733


Track 1

Filename E:\DATOS\EAC\01 - Aquel Dia.wav

Pre-gap length 0:00:02.00

Peak level 97.7 %
Extraction speed 4.9 X
Track quality 100.0 %
Test CRC 0057E8B0
Copy CRC 0057E8B0
Accurately ripped (confidence 1) [26BBCC07] (AR v2)
Copy OK

Track 2

Filename E:\DATOS\EAC\02 - El Estanque de los Lotos.wav

Pre-gap length 0:00:00.67

Peak level 97.7 %
Extraction speed 5.1 X
Track quality 100.0 %
Test CRC 74BF6387
Copy CRC 74BF6387
Accurately ripped (confidence 1) [0039DC15] (AR v2)
Copy OK

Track 3

Filename E:\DATOS\EAC\03 - Monte Gurugu.wav

Pre-gap length 0:00:00.61

Peak level 97.7 %
Extraction speed 4.9 X
Track quality 99.9 %
Test CRC 3F34DA84
Copy CRC 3F34DA84
Accurately ripped (confidence 1) [F5462E25] (AR v2)
Copy OK

Track 4

Filename E:\DATOS\EAC\04 - La Glorieta de Becquer.wav

Pre-gap length 0:00:01.69

Peak level 97.7 %
Extraction speed 5.6 X
Track quality 100.0 %
Test CRC CCFFDC8B
Copy CRC CCFFDC8B
Accurately ripped (confidence 1) [788A9E27] (AR v2)
Copy OK

Track 5

Filename E:\DATOS\EAC\05 - Esperandote.wav

Pre-gap length 0:00:02.46

Peak level 97.7 %
Extraction speed 4.8 X
Track quality 100.0 %
Test CRC 6614DF38
Copy CRC 6614DF38
Accurately ripped (confidence 1) [9D805715] (AR v2)
Copy OK

Track 6

Filename E:\DATOS\EAC\06 - La Isleta de los Patos.wav

Pre-gap length 0:00:00.28

Peak level 97.7 %
Extraction speed 5.3 X
Track quality 99.9 %
Test CRC 6C38010B
Copy CRC 6C38010B
Accurately ripped (confidence 1) [61C22627] (AR v2)
Copy OK

Track 7

Filename E:\DATOS\EAC\07 - Tiempos pasados.wav

Pre-gap length 0:00:02.04

Peak level 97.7 %
Extraction speed 4.7 X
Track quality 99.9 %
Test CRC 76CFC1D4
Copy CRC 76CFC1D4
Accurately ripped (confidence 1) [DECF0134] (AR v2)
Copy OK

Track 8

Filename E:\DATOS\EAC\08 - El Costurero de la Reina.wav

Pre-gap length 0:00:01.27

Peak level 97.7 %
Extraction speed 6.3 X
Track quality 100.0 %
Test CRC D84166E1
Copy CRC D84166E1
Accurately ripped (confidence 1) [2F371A6B] (AR v2)
Copy OK

Track 9

Filename E:\DATOS\EAC\09 - Los Quintero.wav

Pre-gap length 0:00:01.16

Peak level 97.7 %
Extraction speed 3.8 X
Track quality 99.8 %
Test CRC 244D91F7
Copy CRC 244D91F7
Accurately ripped (confidence 1) [053CC0D9] (AR v2)
Copy OK

Track 10

Filename E:\DATOS\EAC\10 - Bulerias del Parque.wav

Pre-gap length 0:00:00.35

Peak level 97.7 %
Extraction speed 5.7 X
Track quality 99.9 %
Test CRC 68397076
Copy CRC 68397076
Accurately ripped (confidence 1) [0CD22C7B] (AR v2)
Copy OK

Track 11

Filename E:\DATOS\EAC\11 - Te lleve de la Mano.wav

Pre-gap length 0:00:03.31

Peak level 97.7 %
Extraction speed 3.1 X
Track quality 99.7 %
Test CRC 5B1CE727
Copy CRC 5B1CE727
Accurately ripped (confidence 1) [8C05BD33] (AR v2)
Copy OK

Track 12

Filename E:\DATOS\EAC\12 - Trinos.wav

Pre-gap length 0:00:01.65

Peak level 97.7 %
Extraction speed 4.7 X
Track quality 99.8 %
Test CRC 61CC97FD
Copy CRC 61CC97FD
Accurately ripped (confidence 1) [ABF375FC] (AR v2)
Copy OK

Track 13

Filename E:\DATOS\EAC\13 - La Fuente de las Ranas.wav

Pre-gap length 0:00:02.45

Peak level 97.7 %
Extraction speed 7.3 X
Track quality 100.0 %
Test CRC C2FA08C2
Copy CRC C2FA08C2
Accurately ripped (confidence 1) [59D7FC6E] (AR v2)
Copy OK

Track 14

Filename E:\DATOS\EAC\14 - Plaza de Espana.wav

Pre-gap length 0:00:01.50

Peak level 97.7 %
Extraction speed 6.0 X
Track quality 99.9 %
Test CRC EB8C1238
Copy CRC EB8C1238
Accurately ripped (confidence 1) [AF42753D] (AR v2)
Copy OK

Track 15

Filename E:\DATOS\EAC\15 - Azahar, Jazmin y Dama de Noche.wav

Pre-gap length 0:00:01.23

Peak level 97.7 %
Extraction speed 5.1 X
Track quality 99.8 %
Test CRC 121635E0
Copy CRC 121635E0
Accurately ripped (confidence 1) [A1F08B76] (AR v2)
Copy OK

Track 16

Filename E:\DATOS\EAC\16 - Revuelo de Palomas.wav

Pre-gap length 0:00:02.62

Peak level 97.7 %
Extraction speed 4.7 X
Track quality 99.8 %
Test CRC 26693491
Copy CRC 26693491
Accurately ripped (confidence 1) [49A65D85] (AR v2)
Copy OK


All tracks accurately ripped

No errors occurred

End of status report

–– CUETools DB Plugin V2.1.6

[CTDB TOCID: y8whJhDOsV_6UYCGfiwZqbC1TKc-] found
Submit result: y8whJhDOsV_6UYCGfiwZqbC1TKc- has been confirmed
Track | CTDB Status
1 | (10/10) Accurately ripped
2 | (10/10) Accurately ripped
3 | (10/10) Accurately ripped
4 | (10/10) Accurately ripped
5 | (10/10) Accurately ripped
6 | (10/10) Accurately ripped
7 | (10/10) Accurately ripped
8 | (10/10) Accurately ripped
9 | (10/10) Accurately ripped
10 | (10/10) Accurately ripped
11 | (10/10) Accurately ripped
12 | (10/10) Accurately ripped
13 | (10/10) Accurately ripped
14 | (10/10) Accurately ripped
15 | (10/10) Accurately ripped
16 | (10/10) Accurately ripped


==== Log checksum FE26F8FED21D7717A941B43DF6F6607D00FB3B5B9AD2A7F66CB44E5CFDBD4473 ====

Rafael Riqueni - Parque de Maria Luisa (2017) {Universal Spain}
Rafael Riqueni - Parque de Maria Luisa (2017) {Universal Spain}


Thanks to the original ripper