Tags
Language
Tags
June 2024
Su Mo Tu We Th Fr Sa
26 27 28 29 30 31 1
2 3 4 5 6 7 8
9 10 11 12 13 14 15
16 17 18 19 20 21 22
23 24 25 26 27 28 29
30 1 2 3 4 5 6

Rage - The Refuge Years (2015) [10CD, Fan Box]

Posted By: v3122
Rage - The Refuge Years (2015) [10CD, Fan Box]

Rage - The Refuge Years (2015)
EAC | Flac(Image) + Cue + Log & MP3 CBR 320Kbps
Dr. Bones Lethal Recordings, LB15C1985 | ~ 4311 or 1874 Mb | Artwork(png) -> 380 Mb
Heavy Metal / Speed Metal / Power Metal

Rage - The Refuge Years (2015) [10CD, Fan Box]

German heavy metal outfit Rage originally formed in the early '80s, and although the group has issued albums on a steady basis ever since, lead singer/bassist Peter "Peavey" Wagner is the only original member still in attendance. First known as Avenger, the group issued a pair of recordings (Prayer of Steel and Depraved to Black) before switching their name to Rage to avoid confusion with a British band of the same name. 1986's Reign of Fear signaled the group's first album released under their new name, as they continued on in the same heavy hitting musical direction on subsequent releases; although they began using orchestral flourishes on their late-'90s experimental albums Lingua Mortis (1996), XIII (1998), and Ghosts (1999). Subsequent efforts like 2003's sci-fi concept album Soundchaser and 2006's classical-infused Speak of the Dead continued to tinker with the formula, and 2013 saw the release of LMO, the official debut of the Lingua Mortis Orchestra, who had been backing the group for the previous decade-and-a-half – the LP was also billed under Rage. 2016 saw the release of The Devil Strikes Again, the band's 22nd studio long-player, and just 14 months later, they dropped another full-length outing, Seasons of the Black.

~ allmusic
Rage - The Refuge Years (2015) [10CD, Fan Box]

Rage - The Refuge Years (2015):

Rage - The Refuge Years (2015) [10CD, Fan Box]

Tracklist CD-1: Perfect Man (Digitally remastered):

1. Wasteland
2. In The Darkest Hour
3. Animal Instinct
4. Perfect Man
5. Sinister Thinking
6. Supersonic Hydromatic
7. Don't Fear The Winter
8. Death In The Afternoon
9. A Pilgrim's Path
10. Time And Place
11. Round Trip
12. Between The Lines
13. Symbols Of Our Fear
14. Neurotic

Exact Audio Copy V1.1 from 23. June 2015

EAC extraction logfile from 23. January 2016, 10:38

Rage / Perfect Man [Dr.Bones Lethal Rec., LB15C1990, Austria]

Used drive : PIONEER DVD-RW DVR-112D Adapter: 1 ID: 0

Read mode : Secure
Utilize accurate stream : Yes
Defeat audio cache : Yes
Make use of C2 pointers : No

Read offset correction : 48
Overread into Lead-In and Lead-Out : No
Fill up missing offset samples with silence : Yes
Delete leading and trailing silent blocks : No
Null samples used in CRC calculations : Yes
Used interface : Installed external ASPI interface

Used output format : User Defined Encoder
Selected bitrate : 1024 kBit/s
Quality : High
Add ID3 tag : No
Command line compressor : C:\Program Files\Exact Audio Copy\FLAC\FLAC.EXE
Additional command line options : -V -8 -T "Date=%year%" -T "Genre=%genre%" %source%


TOC of the extracted CD

Track | Start | Length | Start sector | End sector
––––––––––––––––––––––––––––-
1 | 0:00.00 | 3:26.70 | 0 | 15519
2 | 3:26.70 | 3:16.18 | 15520 | 30237
3 | 6:43.13 | 3:47.65 | 30238 | 47327
4 | 10:31.03 | 3:35.37 | 47328 | 63489
5 | 14:06.40 | 3:18.15 | 63490 | 78354
6 | 17:24.55 | 3:33.08 | 78355 | 94337
7 | 20:57.63 | 3:27.05 | 94338 | 109867
8 | 24:24.68 | 3:56.60 | 109868 | 127627
9 | 28:21.53 | 4:26.72 | 127628 | 147649
10 | 32:48.50 | 4:15.03 | 147650 | 166777
11 | 37:03.53 | 3:24.10 | 166778 | 182087
12 | 40:27.63 | 3:18.27 | 182088 | 196964
13 | 43:46.15 | 3:33.33 | 196965 | 212972
14 | 47:19.48 | 3:02.60 | 212973 | 226682


Range status and errors

Selected range

Filename C:\CDRip by Deminbek\Rage - Perfect Man [Dr.Bones Lethal Rec., LB15C1990, Austria].wav

Peak level 99.9 %
Extraction speed 6.6 X
Range quality 99.9 %
Test CRC 32D8CA12
Copy CRC 32D8CA12
Copy OK

No errors occurred


AccurateRip summary

Track 1 not present in database
Track 2 not present in database
Track 3 not present in database
Track 4 not present in database
Track 5 not present in database
Track 6 not present in database
Track 7 not present in database
Track 8 not present in database
Track 9 not present in database
Track 10 not present in database
Track 11 not present in database
Track 12 not present in database
Track 13 not present in database
Track 14 not present in database

None of the tracks are present in the AccurateRip database

End of status report

–– CUETools DB Plugin V2.1.6

[CTDB TOCID: _YnW59a.xydo6lN2oNGSuv0Ri_k-] found
Submit result: _YnW59a.xydo6lN2oNGSuv0Ri_k- has been confirmed
Track | CTDB Status
1 | (2/4) Accurately ripped
2 | (2/4) Accurately ripped
3 | (2/4) Accurately ripped
4 | (2/4) Accurately ripped
5 | (2/4) Accurately ripped
6 | (2/4) Accurately ripped
7 | (2/4) Accurately ripped
8 | (2/4) Accurately ripped
9 | (2/4) Accurately ripped
10 | (2/4) Accurately ripped
11 | (2/4) Accurately ripped
12 | (2/4) Accurately ripped
13 | (2/4) Accurately ripped
14 | (1/4) Accurately ripped


==== Log checksum B377271E5D7EB364F753D57D9A781BF79A59F2AA82FFF2D0FFF87B99D685A0AD ====


Rage - The Refuge Years (2015) [10CD, Fan Box]

Tracklist CD-2: Secrets In A Weird World (Digitally remastered):

1. Intro (Opus 32 No.3) by Serge Prokofiev
2. Time Waits For Noone
3. Make My Day
4. The Inner Search
5. Invisible Horizons
6. She
7. Light Into The Darkness
8. Talk To Grandpa
9. Distant Voices
10. Without A Trace
11. Lost Side Of The World (Bonus track)

Exact Audio Copy V1.1 from 23. June 2015

EAC extraction logfile from 23. January 2016, 10:57

Rage / Secrets In A Weird World [Dr.Bones Lethal Rec., LB15C1991, Austria]

Used drive : PIONEER DVD-RW DVR-112D Adapter: 1 ID: 0

Read mode : Secure
Utilize accurate stream : Yes
Defeat audio cache : Yes
Make use of C2 pointers : No

Read offset correction : 48
Overread into Lead-In and Lead-Out : No
Fill up missing offset samples with silence : Yes
Delete leading and trailing silent blocks : No
Null samples used in CRC calculations : Yes
Used interface : Installed external ASPI interface

Used output format : User Defined Encoder
Selected bitrate : 1024 kBit/s
Quality : High
Add ID3 tag : No
Command line compressor : C:\Program Files\Exact Audio Copy\FLAC\FLAC.EXE
Additional command line options : -V -8 -T "Date=%year%" -T "Genre=%genre%" %source%


TOC of the extracted CD

Track | Start | Length | Start sector | End sector
––––––––––––––––––––––––––––-
1 | 0:00.00 | 0:52.50 | 0 | 3949
2 | 0:52.50 | 4:49.68 | 3950 | 25692
3 | 5:42.43 | 3:37.50 | 25693 | 42017
4 | 9:20.18 | 4:41.12 | 42018 | 63104
5 | 14:01.30 | 4:36.33 | 63105 | 83837
6 | 18:37.63 | 5:20.17 | 83838 | 107854
7 | 23:58.05 | 2:45.32 | 107855 | 120261
8 | 26:43.37 | 4:50.73 | 120262 | 142084
9 | 31:34.35 | 5:48.63 | 142085 | 168247
10 | 37:23.23 | 9:12.60 | 168248 | 209707
11 | 46:36.08 | 4:45.02 | 209708 | 231084


Range status and errors

Selected range

Filename C:\CDRip by Deminbek\Rage - Secrets In A Weird World [Dr.Bones Lethal Rec., LB15C1991, Austria].wav

Peak level 99.9 %
Extraction speed 6.9 X
Range quality 100.0 %
Test CRC 5A80265C
Copy CRC 5A80265C
Copy OK

No errors occurred


AccurateRip summary

Track 1 not present in database
Track 2 not present in database
Track 3 not present in database
Track 4 not present in database
Track 5 not present in database
Track 6 not present in database
Track 7 not present in database
Track 8 not present in database
Track 9 not present in database
Track 10 not present in database
Track 11 not present in database

None of the tracks are present in the AccurateRip database

End of status report

–– CUETools DB Plugin V2.1.6

[CTDB TOCID: MvaVTuZo2kCNfLvrnE0v2y2Lhc0-] found
Submit result: MvaVTuZo2kCNfLvrnE0v2y2Lhc0- has been confirmed
Track | CTDB Status
1 | (2/2) Accurately ripped
2 | (2/2) Accurately ripped
3 | (2/2) Accurately ripped
4 | (2/2) Accurately ripped
5 | (2/2) Accurately ripped
6 | (2/2) Accurately ripped
7 | (2/2) Accurately ripped
8 | (2/2) Accurately ripped
9 | (2/2) Accurately ripped
10 | (2/2) Accurately ripped
11 | (2/2) Accurately ripped


==== Log checksum B59469909C8AEC153B0740DCEAA0768AD6C70FB0270CDBF707C2C971C6CD3369 ====


Rage - The Refuge Years (2015) [10CD, Fan Box]

Tracklist CD-3: Reflections Of A Shadow (Digitally remastered):

1. Introduction (A Bit More Of Green)
2. That's Human Bondage
3. True Face In Everyone
4. Flowers That Fade In My Hand
5. Reflections Of A Shadow
6. Can't Get Out
7. Waiting For The Moon
8. Faith
9. Saddle The Wind
10. Dust
11. Nobody Knows
12. Wild Seed

Exact Audio Copy V1.1 from 23. June 2015

EAC extraction logfile from 23. January 2016, 11:16

Rage / Reflections Of A Shadow [Dr.Bones Lethal Rec., LB15C1992, Austria]

Used drive : PIONEER DVD-RW DVR-112D Adapter: 1 ID: 0

Read mode : Secure
Utilize accurate stream : Yes
Defeat audio cache : Yes
Make use of C2 pointers : No

Read offset correction : 48
Overread into Lead-In and Lead-Out : No
Fill up missing offset samples with silence : Yes
Delete leading and trailing silent blocks : No
Null samples used in CRC calculations : Yes
Used interface : Installed external ASPI interface

Used output format : User Defined Encoder
Selected bitrate : 1024 kBit/s
Quality : High
Add ID3 tag : No
Command line compressor : C:\Program Files\Exact Audio Copy\FLAC\FLAC.EXE
Additional command line options : -V -8 -T "Date=%year%" -T "Genre=%genre%" %source%


TOC of the extracted CD

Track | Start | Length | Start sector | End sector
––––––––––––––––––––––––––––-
1 | 0:00.00 | 1:32.22 | 0 | 6921
2 | 1:32.22 | 4:27.65 | 6922 | 27011
3 | 6:00.12 | 5:13.05 | 27012 | 50491
4 | 11:13.17 | 7:40.08 | 50492 | 84999
5 | 18:53.25 | 3:54.02 | 85000 | 102551
6 | 22:47.27 | 5:05.08 | 102552 | 125434
7 | 27:52.35 | 4:40.55 | 125435 | 146489
8 | 32:33.15 | 5:42.62 | 146490 | 172201
9 | 38:16.02 | 4:07.10 | 172202 | 190736
10 | 42:23.12 | 4:50.33 | 190737 | 212519
11 | 47:13.45 | 3:50.47 | 212520 | 229816
12 | 51:04.17 | 5:26.70 | 229817 | 254336


Range status and errors

Selected range

Filename C:\CDRip by Deminbek\Rage - Reflections Of A Shadow [Dr.Bones Lethal Rec., LB15C1992, Austria].wav

Peak level 99.9 %
Extraction speed 6.7 X
Range quality 99.9 %
Test CRC 0B74A65C
Copy CRC 0B74A65C
Copy OK

No errors occurred


AccurateRip summary

Track 1 cannot be verified as accurate (confidence 2) [D4F6B953], AccurateRip returned [57B58EB4] (AR v2)
Track 2 cannot be verified as accurate (confidence 2) [08404357], AccurateRip returned [25A2CCBA] (AR v2)
Track 3 cannot be verified as accurate (confidence 2) [CF0D7509], AccurateRip returned [0E205E6E] (AR v2)
Track 4 cannot be verified as accurate (confidence 2) [1081493A], AccurateRip returned [02670A28] (AR v2)
Track 5 cannot be verified as accurate (confidence 2) [4987F087], AccurateRip returned [8F86B896] (AR v2)
Track 6 cannot be verified as accurate (confidence 2) [63268F77], AccurateRip returned [A07217C9] (AR v2)
Track 7 cannot be verified as accurate (confidence 2) [6E7F3990], AccurateRip returned [D48CB471] (AR v2)
Track 8 cannot be verified as accurate (confidence 2) [EE179E67], AccurateRip returned [A479D7C4] (AR v2)
Track 9 cannot be verified as accurate (confidence 2) [856C17FC], AccurateRip returned [9EDD9F8F] (AR v2)
Track 10 cannot be verified as accurate (confidence 2) [A87ED5BF], AccurateRip returned [931E8717] (AR v2)
Track 11 cannot be verified as accurate (confidence 2) [1818ABFB], AccurateRip returned [6F161FBC] (AR v2)
Track 12 cannot be verified as accurate (confidence 2) [67144501], AccurateRip returned [A1E35D38] (AR v2)

No tracks could be verified as accurate
You may have a different pressing from the one(s) in the database

End of status report

–– CUETools DB Plugin V2.1.6

[CTDB TOCID: 3vcAwtczvdDdxHFIFcBXR21JQwA-] found
Submit result: already submitted
Track | CTDB Status
1 | (3/5) Accurately ripped
2 | (3/5) Accurately ripped
3 | (3/5) Accurately ripped
4 | (3/5) Accurately ripped
5 | (3/5) Accurately ripped
6 | (3/5) Accurately ripped
7 | (3/5) Accurately ripped
8 | (3/5) Accurately ripped
9 | (3/5) Accurately ripped
10 | (3/5) Accurately ripped
11 | (3/5) Accurately ripped
12 | (3/5) Accurately ripped


==== Log checksum 6CC0B2CDB71BDDBBD8F08732EF33D47CC61DF99AFC7E1F1D63534AF97E03E9F6 ====


Rage - The Refuge Years (2015) [10CD, Fan Box]

Tracklist CD-4: Trapped! (Digitally remastered):

1. Shame On You
2. Solitary Man
3. Enough Is Enough
4. Medicine
5. Questions
6. Take Me To The Water
7. Power And Greed
8. The Body Talks
9. Not Forever
10. Beyond The Wall Of Sleep
11. Baby, I'm Your Nightmare
12. Fast As A Shark
13. Difference
14. Innocent Guilty (Bonus track)
15. Marching Heroes - The Wooden Cross (Bonus track)

Exact Audio Copy V1.1 from 23. June 2015

EAC extraction logfile from 23. January 2016, 11:36

Rage / Trapped! [Dr.Bones Lethal Rec., LB15C1993, Austria]

Used drive : PIONEER DVD-RW DVR-112D Adapter: 1 ID: 0

Read mode : Secure
Utilize accurate stream : Yes
Defeat audio cache : Yes
Make use of C2 pointers : No

Read offset correction : 48
Overread into Lead-In and Lead-Out : No
Fill up missing offset samples with silence : Yes
Delete leading and trailing silent blocks : No
Null samples used in CRC calculations : Yes
Used interface : Installed external ASPI interface

Used output format : User Defined Encoder
Selected bitrate : 1024 kBit/s
Quality : High
Add ID3 tag : No
Command line compressor : C:\Program Files\Exact Audio Copy\FLAC\FLAC.EXE
Additional command line options : -V -8 -T "Date=%year%" -T "Genre=%genre%" %source%


TOC of the extracted CD

Track | Start | Length | Start sector | End sector
––––––––––––––––––––––––––––-
1 | 0:00.00 | 4:52.15 | 0 | 21914
2 | 4:52.15 | 3:36.68 | 21915 | 38182
3 | 8:29.08 | 6:42.60 | 38183 | 68392
4 | 15:11.68 | 3:43.00 | 68393 | 85117
5 | 18:54.68 | 3:55.02 | 85118 | 102744
6 | 22:49.70 | 6:01.10 | 102745 | 129829
7 | 28:51.05 | 4:25.55 | 129830 | 149759
8 | 33:16.60 | 4:34.05 | 149760 | 170314
9 | 37:50.65 | 3:37.30 | 170315 | 186619
10 | 41:28.20 | 4:05.28 | 186620 | 205022
11 | 45:33.48 | 5:22.55 | 205023 | 229227
12 | 50:56.28 | 3:04.10 | 229228 | 243037
13 | 54:00.38 | 4:59.45 | 243038 | 265507
14 | 59:00.08 | 2:50.30 | 265508 | 278287
15 | 61:50.38 | 3:16.45 | 278288 | 293032


Range status and errors

Selected range

Filename C:\CDRip by Deminbek\Rage - Trapped! [Dr.Bones Lethal Rec., LB15C1993, Austria].wav

Peak level 99.9 %
Extraction speed 7.7 X
Range quality 100.0 %
Test CRC FD24FD2D
Copy CRC FD24FD2D
Copy OK

No errors occurred


AccurateRip summary

Track 1 not present in database
Track 2 not present in database
Track 3 not present in database
Track 4 not present in database
Track 5 not present in database
Track 6 not present in database
Track 7 not present in database
Track 8 not present in database
Track 9 not present in database
Track 10 not present in database
Track 11 not present in database
Track 12 not present in database
Track 13 not present in database
Track 14 not present in database
Track 15 not present in database

None of the tracks are present in the AccurateRip database

End of status report

–– CUETools DB Plugin V2.1.6

[CTDB TOCID: 0cWfmvvgLSjoNvtULVLhMWUTz6o-] found
Submit result: 0cWfmvvgLSjoNvtULVLhMWUTz6o- has been confirmed
Track | CTDB Status
1 | ( 2/12) Accurately ripped
2 | ( 2/12) Accurately ripped
3 | ( 2/12) Accurately ripped
4 | ( 2/12) Accurately ripped
5 | ( 2/12) Accurately ripped
6 | ( 2/12) Accurately ripped
7 | ( 2/12) Accurately ripped
8 | ( 2/12) Accurately ripped
9 | ( 2/12) Accurately ripped
10 | ( 2/12) Accurately ripped
11 | ( 2/12) Accurately ripped
12 | ( 2/12) Accurately ripped
13 | ( 2/12) Accurately ripped
14 | ( 2/12) Accurately ripped
15 | ( 2/12) Accurately ripped


==== Log checksum 8E41D74CF8830E8EEC3796ABCEDEDB640BA642EBE58D7134E03D17F14B6FD18D ====


Rage - The Refuge Years (2015) [10CD, Fan Box]

Tracklist CD-5: The Missing Link (Digitally remastered):

1. Firestorm
2. Nevermore
3. Refuge
4. The Pit And The Pendulum
5. From The Underworld
6. Certain Days
7. Who Dares?
8. Wake Me When I'm Dead
9. Lost In The Ice
10. Her Diary's Black Pages
11. The Missing Link
12. Raw Caress
13. Another Kind Of Madness (Bonus track)

Exact Audio Copy V1.1 from 23. June 2015

EAC extraction logfile from 23. January 2016, 13:24

Rage / The Missing Link [Dr.Bones Lethal Rec., LB15C1994, Austria]

Used drive : PIONEER DVD-RW DVR-112D Adapter: 1 ID: 0

Read mode : Secure
Utilize accurate stream : Yes
Defeat audio cache : Yes
Make use of C2 pointers : No

Read offset correction : 48
Overread into Lead-In and Lead-Out : No
Fill up missing offset samples with silence : Yes
Delete leading and trailing silent blocks : No
Null samples used in CRC calculations : Yes
Used interface : Installed external ASPI interface

Used output format : User Defined Encoder
Selected bitrate : 1024 kBit/s
Quality : High
Add ID3 tag : No
Command line compressor : C:\Program Files\Exact Audio Copy\FLAC\FLAC.EXE
Additional command line options : -V -8 -T "Date=%year%" -T "Genre=%genre%" %source%


TOC of the extracted CD

Track | Start | Length | Start sector | End sector
––––––––––––––––––––––––––––-
1 | 0:00.00 | 4:57.35 | 0 | 22309
2 | 4:57.35 | 4:27.35 | 22310 | 42369
3 | 9:24.70 | 3:38.27 | 42370 | 58746
4 | 13:03.22 | 4:17.18 | 58747 | 78039
5 | 17:20.40 | 3:10.72 | 78040 | 92361
6 | 20:31.37 | 5:45.25 | 92362 | 118261
7 | 26:16.62 | 4:27.70 | 118262 | 138356
8 | 30:44.57 | 5:21.68 | 138357 | 162499
9 | 36:06.50 | 9:49.07 | 162500 | 206681
10 | 45:55.57 | 3:35.03 | 206682 | 222809
11 | 49:30.60 | 4:24.70 | 222810 | 242679
12 | 53:55.55 | 5:25.72 | 242680 | 267126
13 | 59:21.52 | 5:13.50 | 267127 | 290651


Range status and errors

Selected range

Filename C:\CDRip by Deminbek\Rage - The Missing Link [Dr.Bones Lethal Rec., LB15C1994, Austria].wav

Peak level 91.6 %
Extraction speed 7.4 X
Range quality 99.9 %
Test CRC 65C8E71C
Copy CRC 65C8E71C
Copy OK

No errors occurred


AccurateRip summary

Track 1 not present in database
Track 2 not present in database
Track 3 not present in database
Track 4 not present in database
Track 5 not present in database
Track 6 not present in database
Track 7 not present in database
Track 8 not present in database
Track 9 not present in database
Track 10 not present in database
Track 11 not present in database
Track 12 not present in database
Track 13 not present in database

None of the tracks are present in the AccurateRip database

End of status report

–– CUETools DB Plugin V2.1.6

[CTDB TOCID: InF1aOAcunxtwXDJrnXqpvzCLwA-] found
Submit result: InF1aOAcunxtwXDJrnXqpvzCLwA- has been confirmed
Track | CTDB Status
1 | (2/6) Accurately ripped
2 | (2/6) Accurately ripped
3 | (2/6) Accurately ripped
4 | (2/6) Accurately ripped
5 | (2/6) Accurately ripped
6 | (2/6) Accurately ripped
7 | (2/6) Accurately ripped
8 | (2/6) Accurately ripped
9 | (2/6) Accurately ripped
10 | (2/6) Accurately ripped
11 | (2/6) Accurately ripped
12 | (2/6) Accurately ripped
13 | (2/6) Accurately ripped


==== Log checksum C06D759EF642191DBE31DFA3DAD600FC001ED9B0556356D77560317E9AB12306 ====


Rage - The Refuge Years (2015) [10CD, Fan Box]

Tracklist CD-6: Lost In The Eyes (EP's and Sampler tracks):

1. Woman
2. Ashes
3. Bottlefield
4. What's Up?
5. Bury All Life
6. On The Edge
7. I Want You
8. (Those Who Got) Nothing To Lose
9. Last Goodbye
10. Truth Hits Everybody
11. I Can't Control Myself
12. Beyond The Pale
13. Law And Order
14. Mirror

Exact Audio Copy V1.1 from 23. June 2015

EAC extraction logfile from 23. January 2016, 13:04

Rage / Lost In The Eyes [Dr.Bones Lethal Rec., LB15C1995, Austria]

Used drive : PIONEER DVD-RW DVR-112D Adapter: 1 ID: 0

Read mode : Secure
Utilize accurate stream : Yes
Defeat audio cache : Yes
Make use of C2 pointers : No

Read offset correction : 48
Overread into Lead-In and Lead-Out : No
Fill up missing offset samples with silence : Yes
Delete leading and trailing silent blocks : No
Null samples used in CRC calculations : Yes
Used interface : Installed external ASPI interface

Used output format : User Defined Encoder
Selected bitrate : 1024 kBit/s
Quality : High
Add ID3 tag : No
Command line compressor : C:\Program Files\Exact Audio Copy\FLAC\FLAC.EXE
Additional command line options : -V -8 -T "Date=%year%" -T "Genre=%genre%" %source%


TOC of the extracted CD

Track | Start | Length | Start sector | End sector
––––––––––––––––––––––––––––-
1 | 0:00.00 | 3:47.35 | 0 | 17059
2 | 3:47.35 | 5:01.20 | 17060 | 39654
3 | 8:48.55 | 2:37.05 | 39655 | 51434
4 | 11:25.60 | 3:37.48 | 51435 | 67757
5 | 15:03.33 | 5:35.48 | 67758 | 92930
6 | 20:39.06 | 4:15.52 | 92931 | 112107
7 | 24:54.58 | 3:41.30 | 112108 | 128712
8 | 28:36.13 | 4:16.18 | 128713 | 147930
9 | 32:52.31 | 4:23.12 | 147931 | 167667
10 | 37:15.43 | 2:29.10 | 167668 | 178852
11 | 39:44.53 | 2:52.15 | 178853 | 191767
12 | 42:36.68 | 6:36.63 | 191768 | 221530
13 | 49:13.56 | 3:04.30 | 221531 | 235360
14 | 52:18.11 | 6:21.05 | 235361 | 263940


Range status and errors

Selected range

Filename C:\CDRip by Deminbek\Rage - Lost In The Eyes [Dr.Bones Lethal Rec., LB15C1995, Austria].wav

Peak level 100.0 %
Extraction speed 7.2 X
Range quality 99.9 %
Test CRC 2807A9D5
Copy CRC 2807A9D5
Copy OK

No errors occurred


AccurateRip summary

Track 1 not present in database
Track 2 not present in database
Track 3 not present in database
Track 4 not present in database
Track 5 not present in database
Track 6 not present in database
Track 7 not present in database
Track 8 not present in database
Track 9 not present in database
Track 10 not present in database
Track 11 not present in database
Track 12 not present in database
Track 13 not present in database
Track 14 not present in database

None of the tracks are present in the AccurateRip database

End of status report

–– CUETools DB Plugin V2.1.6

[CTDB TOCID: jcPFb_2rp2QPdMxJ5pL6HENlkJk-] found
Submit result: jcPFb_2rp2QPdMxJ5pL6HENlkJk- has been confirmed
Track | CTDB Status
1 | (2/2) Accurately ripped
2 | (2/2) Accurately ripped
3 | (2/2) Accurately ripped
4 | (2/2) Accurately ripped
5 | (2/2) Accurately ripped
6 | (2/2) Accurately ripped
7 | (2/2) Accurately ripped
8 | (2/2) Accurately ripped
9 | (2/2) Accurately ripped
10 | (2/2) Accurately ripped
11 | (2/2) Accurately ripped
12 | (2/2) Accurately ripped
13 | (2/2) Accurately ripped
14 | (1/2) Accurately ripped


==== Log checksum 5E359D4FC236C284A56CE66EAF85116A5E6C083D6B4554BF9C924337900E2995 ====


Rage - The Refuge Years (2015) [10CD, Fan Box]

Tracklist CD-7: Acoustic Live (Recorded in Tokyo, 27.7.1992 for TFM Radio Show):

1. Invisible Horizons
2. The Body Talks
3. Dust
4. Shame On You
5. Not Forever
6. Woman
7. Light Into The Darkness

Exact Audio Copy V1.1 from 23. June 2015

EAC extraction logfile from 23. January 2016, 11:49

Rage / Acoustic Live [Dr.Bones Lethal Rec., LB15C1996, Austria]

Used drive : PIONEER DVD-RW DVR-112D Adapter: 1 ID: 0

Read mode : Secure
Utilize accurate stream : Yes
Defeat audio cache : Yes
Make use of C2 pointers : No

Read offset correction : 48
Overread into Lead-In and Lead-Out : No
Fill up missing offset samples with silence : Yes
Delete leading and trailing silent blocks : No
Null samples used in CRC calculations : Yes
Used interface : Installed external ASPI interface

Used output format : User Defined Encoder
Selected bitrate : 1024 kBit/s
Quality : High
Add ID3 tag : No
Command line compressor : C:\Program Files\Exact Audio Copy\FLAC\FLAC.EXE
Additional command line options : -V -8 -T "Date=%year%" -T "Genre=%genre%" %source%


TOC of the extracted CD

Track | Start | Length | Start sector | End sector
––––––––––––––––––––––––––––-
1 | 0:00.00 | 5:39.02 | 0 | 25426
2 | 5:39.02 | 4:50.02 | 25427 | 47178
3 | 10:29.04 | 4:29.04 | 47179 | 67357
4 | 14:58.08 | 4:52.18 | 67358 | 89275
5 | 19:50.26 | 3:59.02 | 89276 | 107202
6 | 23:49.28 | 4:56.09 | 107203 | 129411
7 | 28:45.37 | 5:42.72 | 129412 | 155133


Range status and errors

Selected range

Filename C:\CDRip by Deminbek\Rage - Acoustic Live [Dr.Bones Lethal Rec., LB15C1996, Austria].wav

Peak level 96.5 %
Extraction speed 6.4 X
Range quality 100.0 %
Test CRC FAE5FD68
Copy CRC FAE5FD68
Copy OK

No errors occurred


AccurateRip summary

Track 1 not present in database
Track 2 not present in database
Track 3 not present in database
Track 4 not present in database
Track 5 not present in database
Track 6 not present in database
Track 7 not present in database

None of the tracks are present in the AccurateRip database

End of status report

–– CUETools DB Plugin V2.1.6

[CTDB TOCID: AnExlwjI2Vf2yk2XxTpMFWK0Y.w-] found
Submit result: AnExlwjI2Vf2yk2XxTpMFWK0Y.w- has been confirmed
Track | CTDB Status
1 | (2/2) Accurately ripped
2 | (2/2) Accurately ripped
3 | (2/2) Accurately ripped
4 | (2/2) Accurately ripped
5 | (2/2) Accurately ripped
6 | (2/2) Accurately ripped
7 | (2/2) Accurately ripped


==== Log checksum A9C04DF83BA3288BE7C93FFAE5761AB68E2EC1C238E2EA9AD4A2A0DE24CA8783 ====


Rage - The Refuge Years (2015) [10CD, Fan Box]

Tracklist CD-8: Demonizer (Demo tracks from 1991 & 1993):

1. The Body Talks
2. Solitary Man
3. Take Me To The Water
4. Another Kind Of Madness
5. Difference
6. Baby, I'm Your Nightmare
7. Questions
8. Waterfalls
9. Beyond The Wall Of Sleep
10. From The Underworld
11. Lost In The Ice
12. Her Diary's Black Pages
13. Firestorm
14. Wake Me When I'm Dead
15. Raw Caress

Exact Audio Copy V1.1 from 23. June 2015

EAC extraction logfile from 23. January 2016, 12:44

Rage / Demonizer [Dr.Bones Lethal Rec., LB15C1997, Austria]

Used drive : PIONEER DVD-RW DVR-112D Adapter: 1 ID: 0

Read mode : Secure
Utilize accurate stream : Yes
Defeat audio cache : Yes
Make use of C2 pointers : No

Read offset correction : 48
Overread into Lead-In and Lead-Out : No
Fill up missing offset samples with silence : Yes
Delete leading and trailing silent blocks : No
Null samples used in CRC calculations : Yes
Used interface : Installed external ASPI interface

Used output format : User Defined Encoder
Selected bitrate : 1024 kBit/s
Quality : High
Add ID3 tag : No
Command line compressor : C:\Program Files\Exact Audio Copy\FLAC\FLAC.EXE
Additional command line options : -V -8 -T "Date=%year%" -T "Genre=%genre%" %source%


TOC of the extracted CD

Track | Start | Length | Start sector | End sector
––––––––––––––––––––––––––––-
1 | 0:00.00 | 4:36.19 | 0 | 20718
2 | 4:36.19 | 3:55.73 | 20719 | 38416
3 | 8:32.17 | 7:11.65 | 38417 | 70806
4 | 15:44.07 | 5:51.70 | 70807 | 97201
5 | 21:36.02 | 4:51.68 | 97202 | 119094
6 | 26:27.70 | 6:16.42 | 119095 | 147336
7 | 32:44.37 | 4:32.25 | 147337 | 167761
8 | 37:16.62 | 6:26.62 | 167762 | 196773
9 | 43:43.49 | 4:45.57 | 196774 | 218205
10 | 48:29.31 | 3:13.12 | 218206 | 232692
11 | 51:42.43 | 9:26.26 | 232693 | 275168
12 | 61:08.69 | 3:27.66 | 275169 | 290759
13 | 64:36.60 | 4:39.61 | 290760 | 311745
14 | 69:16.46 | 4:26.65 | 311746 | 331760
15 | 73:43.36 | 5:12.65 | 331761 | 355225


Range status and errors

Selected range

Filename C:\CDRip by Deminbek\Rage - Demonizer [Dr.Bones Lethal Rec., LB15C1997, Austria].wav

Peak level 100.0 %
Extraction speed 2.0 X
Range quality 100.0 %
Test CRC 780B5314
Copy CRC 780B5314
Copy OK

No errors occurred


AccurateRip summary

Track 1 not present in database
Track 2 not present in database
Track 3 not present in database
Track 4 not present in database
Track 5 not present in database
Track 6 not present in database
Track 7 not present in database
Track 8 not present in database
Track 9 not present in database
Track 10 not present in database
Track 11 not present in database
Track 12 not present in database
Track 13 not present in database
Track 14 not present in database
Track 15 not present in database

None of the tracks are present in the AccurateRip database

End of status report

–– CUETools DB Plugin V2.1.6

[CTDB TOCID: oyQCiugnsUwbJe09NPUEUTBKPzo-] found
Submit result: oyQCiugnsUwbJe09NPUEUTBKPzo- has been confirmed
Track | CTDB Status
1 | (2/2) Accurately ripped
2 | (2/2) Accurately ripped
3 | (2/2) Accurately ripped
4 | (2/2) Accurately ripped
5 | (2/2) Accurately ripped
6 | (2/2) Accurately ripped
7 | (2/2) Accurately ripped
8 | (2/2) Accurately ripped
9 | (2/2) Accurately ripped
10 | (2/2) Accurately ripped
11 | (2/2) Accurately ripped
12 | (2/2) Accurately ripped
13 | (2/2) Accurately ripped
14 | (2/2) Accurately ripped
15 | (1/2) Accurately ripped


==== Log checksum D1B1E453FAD2717029952E02664EA6102233F3B034A9BDB8F78A966ADA7A51E3 ====


Rage - The Refuge Years (2015) [10CD, Fan Box]

Tracklist CD-9: Refuge Live! (Live At Rock Hard Festival 2015):

1. Firestorm
2. Solitary Man
3. Nevermore
4. Death In The Afternoon
5. Enough Is Enough
6. Invisible Horizons
7. Certain Days
8. Light Into The Darkness
9. Shame On You
10. Baby, I'm Your Nightmare
11. Don't Fear The Winter
12. Refuge

Exact Audio Copy V1.1 from 23. June 2015

EAC extraction logfile from 23. January 2016, 13:45

Rage / Refuge Live At Rock Hard Hard Festival [Dr.Bones Lethal Rec., LB15C1988, Austria]

Used drive : PIONEER DVD-RW DVR-112D Adapter: 1 ID: 0

Read mode : Secure
Utilize accurate stream : Yes
Defeat audio cache : Yes
Make use of C2 pointers : No

Read offset correction : 48
Overread into Lead-In and Lead-Out : No
Fill up missing offset samples with silence : Yes
Delete leading and trailing silent blocks : No
Null samples used in CRC calculations : Yes
Used interface : Installed external ASPI interface

Used output format : User Defined Encoder
Selected bitrate : 1024 kBit/s
Quality : High
Add ID3 tag : No
Command line compressor : C:\Program Files\Exact Audio Copy\FLAC\FLAC.EXE
Additional command line options : -V -8 -T "Date=%year%" -T "Genre=%genre%" %source%


TOC of the extracted CD

Track | Start | Length | Start sector | End sector
––––––––––––––––––––––––––––-
1 | 0:00.00 | 5:19.18 | 0 | 23942
2 | 5:19.18 | 4:02.04 | 23943 | 42096
3 | 9:21.22 | 5:30.25 | 42097 | 66871
4 | 14:51.47 | 5:01.39 | 66872 | 89485
5 | 19:53.11 | 4:44.21 | 89486 | 110806
6 | 24:37.32 | 4:57.42 | 110807 | 133123
7 | 29:34.74 | 6:45.31 | 133124 | 163529
8 | 36:20.30 | 5:39.74 | 163530 | 189028
9 | 42:00.29 | 5:04.17 | 189029 | 211845
10 | 47:04.46 | 5:50.09 | 211846 | 238104
11 | 52:54.55 | 4:59.46 | 238105 | 260575
12 | 57:54.26 | 5:25.12 | 260576 | 284962


Range status and errors

Selected range

Filename C:\CDRip by Deminbek\Rage - Refuge [Dr.Bones Lethal Rec., LB15C1988, Austria].wav

Peak level 100.0 %
Extraction speed 7.6 X
Range quality 100.0 %
Test CRC 373D70C0
Copy CRC 373D70C0
Copy OK

No errors occurred


AccurateRip summary

Track 1 not present in database
Track 2 not present in database
Track 3 not present in database
Track 4 not present in database
Track 5 not present in database
Track 6 not present in database
Track 7 not present in database
Track 8 not present in database
Track 9 not present in database
Track 10 not present in database
Track 11 not present in database
Track 12 not present in database

None of the tracks are present in the AccurateRip database

End of status report

–– CUETools DB Plugin V2.1.6

[CTDB TOCID: C2hh_8ORiFCXIN9mYXfoq.akj5w-] found
Submit result: C2hh_8ORiFCXIN9mYXfoq.akj5w- has been confirmed
Track | CTDB Status
1 | (3/3) Accurately ripped
2 | (3/3) Accurately ripped
3 | (3/3) Accurately ripped
4 | (3/3) Accurately ripped
5 | (3/3) Accurately ripped
6 | (3/3) Accurately ripped
7 | (3/3) Accurately ripped
8 | (3/3) Accurately ripped
9 | (3/3) Accurately ripped
10 | (3/3) Accurately ripped
11 | (3/3) Accurately ripped
12 | (3/3) Accurately ripped


==== Log checksum 552FA4E1D3224BD468F6EF3A23EC545229E5A860891D445078B69B456067DE1F ====


Rage - The Refuge Years (2015) [10CD, Fan Box]

Tracklist CD-10: Live Hamburg '93:

1. Shame On You
2. Don't Fear The Winter
3. On The Edge
4. Certain Days
5. Suicide
6. Refuge
7. Baby, I'm Your Nightmare
8. Down By Law
9. Nevermore
10. Firestorm
11. Solitary Man
12. Enough Is Enough
13. Invisible Horizons
14. From The Underworld

Exact Audio Copy V1.1 from 23. June 2015

EAC extraction logfile from 23. January 2016, 14:12

Rage / Live Hamburg '93 [Dr.Bones Lethal Rec., LB15D1999, Austria]

Used drive : PIONEER DVD-RW DVR-112D Adapter: 1 ID: 0

Read mode : Secure
Utilize accurate stream : Yes
Defeat audio cache : Yes
Make use of C2 pointers : No

Read offset correction : 48
Overread into Lead-In and Lead-Out : No
Fill up missing offset samples with silence : Yes
Delete leading and trailing silent blocks : No
Null samples used in CRC calculations : Yes
Used interface : Installed external ASPI interface

Used output format : User Defined Encoder
Selected bitrate : 1024 kBit/s
Quality : High
Add ID3 tag : No
Command line compressor : C:\Program Files\Exact Audio Copy\FLAC\FLAC.EXE
Additional command line options : -V -8 -T "Date=%year%" -T "Genre=%genre%" %source%


TOC of the extracted CD

Track | Start | Length | Start sector | End sector
––––––––––––––––––––––––––––-
1 | 0:00.00 | 4:30.02 | 0 | 20251
2 | 4:30.02 | 3:47.30 | 20252 | 37306
3 | 8:17.32 | 4:35.30 | 37307 | 57961
4 | 12:52.62 | 5:25.13 | 57962 | 82349
5 | 18:18.00 | 3:59.70 | 82350 | 100344
6 | 22:17.70 | 4:02.57 | 100345 | 118551
7 | 26:20.52 | 5:03.53 | 118552 | 141329
8 | 31:24.30 | 3:38.15 | 141330 | 157694
9 | 35:02.45 | 4:25.45 | 157695 | 177614
10 | 39:28.15 | 5:06.00 | 177615 | 200564
11 | 44:34.15 | 3:37.22 | 200565 | 216861
12 | 48:11.37 | 4:27.60 | 216862 | 236946
13 | 52:39.22 | 5:39.08 | 236947 | 262379
14 | 58:18.30 | 3:22.26 | 262380 | 277555


Range status and errors

Selected range

Filename C:\CDRip by Deminbek\Rage - Live Hamburg '93 [Dr.Bones Lethal Rec., LB15D1999, Austria].wav

Peak level 100.0 %
Extraction speed 4.3 X
Range quality 100.0 %
Test CRC 08B20E12
Copy CRC 08B20E12
Copy OK

No errors occurred


AccurateRip summary

Track 1 not present in database
Track 2 not present in database
Track 3 not present in database
Track 4 not present in database
Track 5 not present in database
Track 6 not present in database
Track 7 not present in database
Track 8 not present in database
Track 9 not present in database
Track 10 not present in database
Track 11 not present in database
Track 12 not present in database
Track 13 not present in database
Track 14 not present in database

None of the tracks are present in the AccurateRip database

End of status report

–– CUETools DB Plugin V2.1.6

[CTDB TOCID: shbC_PW25IbM7duj6EMhPU7SOy8-] found
Submit result: already submitted
Track | CTDB Status
1 | (3/3) Accurately ripped
2 | (3/3) Accurately ripped
3 | (3/3) Accurately ripped
4 | (3/3) Accurately ripped
5 | (3/3) Accurately ripped
6 | (3/3) Accurately ripped
7 | (3/3) Accurately ripped
8 | (3/3) Accurately ripped
9 | (3/3) Accurately ripped
10 | (3/3) Accurately ripped
11 | (3/3) Accurately ripped
12 | (3/3) Accurately ripped
13 | (3/3) Accurately ripped
14 | (3/3) Accurately ripped


==== Log checksum 16EB7441B0A4735689EAD8F0C41F71A2C097F313F5848AA09CEEBD82AA886588 ====


All thanks go to deminbek

Rage in my Blog

Download Rage - The Refuge Years (2015):