Subcategories

Richard Bonynge, Joan Sutherland, Horst Stein, Josef Sivo - Glière: Coloraturo Concerto; Glazunov: Violin Concerto (1990)

Posted By: ArlegZ
Richard Bonynge, Joan Sutherland, Horst Stein, Josef Sivo - Glière: Coloraturo Concerto; Glazunov: Violin Concerto (1990)

Richard Bonynge, Joan Sutherland, Osian Ellis, Horst Stein, Josef Sivo - Glière: Coloraturo Concerto, Harp Concerto; Glazunov: Violin Concerto (1990)
EAC | FLAC | Image (Cue & Log) ~ 293 Mb | Total time: 62:51 | Scans included
Classical | Label: Decca | # 430 006-2 | Recorded: 1968, 1971

Of the rarities presented in this unusual Russian music collection, the most tantalizing is Gliére’s Concerto for Coloratura Soprano and Orchestra. Judging by the slight surface noise, it sounds as if this transfer could have been made from an LP. No matter, the sound is fine, and Joan Sutherland sings radiantly, pouring out beguiling tone throughout her range, while her trademark trills are put to good use by Gliére’s vocal writing, which isn’t particularly original, especially considering it was composed in 1943. The same can be said for Gliére’s 1938 Harp Concerto: beguiling solo writing set against standard-fare 19th-century orchestral accompaniment.
Sutherland’s singing also graces three slighter items: Cui’s melancholy Ici bas, Gretchaninov’s soothing Cradle Song, and Stravinsky’s Pastorale, in which Sutherland provides vocal counterpoint for the piquant woodwind melody.
Glazunov’s Violin Concerto is the most substantial work in this collection, featuring virtuoso solo writing (performed with aplomb by violinist Josef Sivo) combined with engaging melodies and sparkling orchestration. Richard Bonynge expertly accompanies Sutherland in all of her numbers, while Horst Stein does the same for Sivo in the Glazunov.
–Victor Carr Jr

Performer:
Joan Sutherland, soprano (tracks: 1 to 5)
Osian Ellis, harp (tracks: 6 to 8)
London Symphony Orchestra (tracks: 1 to 3, 6 to 8)
Richard Bonynge, conductor & piano (tracks: 1 to 8)
Josef Sivo, violin (tracks: 9 to 10)
L'Orchestre de la Suisse Romande (tracks: 9 to 10)
Horst Stein, conductor (tracks: 9 to 10)

Track List:
Reinhold Glière (1875-1956)
Coloraturo Concerto Op. 82
01. Andante
02. Allegro
Igor Stravinsky (1882-1971)
03. Pastorale
César Cui (1835-1918)
04. Ici-bas
Aleksandr Grechaninov (1864-1956)
05. Lullaby
Reinhold Glière (1875-1956)
Harp Concerto Op. 74
06. Allegro Moderato
07. Tema Con Variazioni: Andante
08. Allegro Giocoso
Alexander Glazunov (1865-1936)
Violin Concerto Op. 82
09. Moderato - Andante
10. Allegro


Exact Audio Copy V1.5 from 20. February 2020

EAC Auslese-Logdatei vom 19. Juni 2020, 18:24

- / Konzert für Koloratur-Sopran

Benutztes Laufwerk : hp CDDVDW SN-208BB Adapter: 1 ID: 0

Lesemodus : Sicher
Benutze Accurate Stream : Ja
Audio Puffer abgeschaltet : Ja
Benutze C2 Fehlerinformationen : Nein

Leseoffset Korrektur : 6
Überlesen in das Lead-In und Lead-Out : Nein
Fülle fehlende Offsetsample mit Stille auf : Ja
Lösche führende und nachfolgende stille Blöcke : Nein
Null Samples gehen in CRC Berechnungen ein : Ja
Benutzte Schnittstelle : Natürliche Win32 Schnittstelle für Win NT/2000/XP

Benutztes Ausgabeformat : Benutzerdefinierter Komprimierer
Gewählte Bitrate : 1024 kBit/s
Qualität : Hoch
Füge ID3 Tag hinzu : Nein
Kommandozeilen Komprimierer : C:\Program Files (x86)\Exact Audio Copy\FLAC\FLAC.EXE
Zusätzliche Kommandozeilenoptionen : -6 -V -T "ARTIST=%artist%" -T "TITLE=%title%" -T "ALBUM=%albumtitle%" -T "DATE=%year%" -T "TRACKNUMBER=%tracknr%" -T "GENRE=%genre%" -T "COMMENT=%comment%" -T "BAND=%albuminterpret%" -T "ALBUMARTIST=%albuminterpret%" -T "COMPOSER=%composer%" %haslyrics%–tag-from-file=LYRICS="%lyricsfile%"%haslyrics% -T "DISCNUMBER=%cdnumber%" -T "TOTALDISCS=%totalcds%" -T "TOTALTRACKS=%numtracks%" %hascover%–picture="%coverfile%"%hascover% %source% -o %dest%


TOC der ausgelesenen CD

Track | Start | Länge | Startsektor | Endsektor
–––––––––––––––––––––––––––-
1 | 0:00.32 | 6:29.05 | 32 | 29211
2 | 6:29.37 | 5:08.68 | 29212 | 52379
3 | 11:38.30 | 1:58.67 | 52380 | 61296
4 | 13:37.22 | 2:12.08 | 61297 | 71204
5 | 15:49.30 | 2:12.65 | 71205 | 81169
6 | 18:02.20 | 9:57.42 | 81170 | 125986
7 | 27:59.62 | 11:13.35 | 125987 | 176496
8 | 39:13.22 | 4:47.18 | 176497 | 198039
9 | 44:00.40 | 13:06.67 | 198040 | 257056
10 | 57:07.32 | 5:44.28 | 257057 | 282884


Bereichsstatus und Fehler

Gewählter Bereich

Dateiname C:\Eingang\Glière, Glazunov - Konzerte für Sopran, Harfe und Violine (BOUQUET)\Konzert für Koloratur-Sopran.wav

Spitzenpegel 93.7 %
Auslesegeschwindigkeit 4.2 X
Bereichsqualität 100.0 %
Kopie CRC 7D91EEE1
Kopie OK

Keine Fehler aufgetreten


AccurateRip Übersicht

Track 1 akkurat gelesen (Zuversicht 2) [5606E757] (AR v2)
Track 2 akkurat gelesen (Zuversicht 2) [6206ED9C] (AR v2)
Track 3 akkurat gelesen (Zuversicht 2) [171E2DEB] (AR v2)
Track 4 akkurat gelesen (Zuversicht 2) [8FB03248] (AR v2)
Track 5 akkurat gelesen (Zuversicht 2) [7E9734B7] (AR v2)
Track 6 akkurat gelesen (Zuversicht 2) [8FEA497B] (AR v2)
Track 7 akkurat gelesen (Zuversicht 2) [9079E79D] (AR v2)
Track 8 akkurat gelesen (Zuversicht 2) [94CAF74B] (AR v2)
Track 9 akkurat gelesen (Zuversicht 2) [2A199CD1] (AR v2)
Track 10 akkurat gelesen (Zuversicht 2) [187D2BC5] (AR v2)

Alle Tracks wurden akkurat gelesen

Ende des Statusreports

==== Report Prüfsumme 7E18E211758ED26E7A4E1D2DF9F4787807E0DB8A020D611207C8542137BFA039 ====

Richard Bonynge, Joan Sutherland, Horst Stein, Josef Sivo - Glière: Coloraturo Concerto; Glazunov: Violin Concerto (1990)

Thanks to the original releaser