Subcategories

Rick Vito - Lucky in Love: The Best of Rick Vito (2009)

Posted By: Designol
Rick Vito - Lucky in Love: The Best of Rick Vito (2009)

Rick Vito - Lucky in Love: The Best of Rick Vito (2009)
EAC | FLAC | Image (Cue&Log) ~ 523 Mb | Mp3 (CBR320) ~ 197 Mb | Scans included | 01:16:56
Blues-Rock, Blues, Roots Rock, Rhythm & Blues | Label: Hypertension | # HYP 9268

Lucky in Love: The Best of Rick Vito is a compilation album by former Fleetwood Mac guitarist Rick Vito. This 19-song collection features some of Rick's finest work from all seven of his solo CDs. If you love great slide-blues guitar, roots-rock, and soulfully-crafted songs and vocals, you need this CD!

After listening and enjoying Rick Vito on Mick Fleetwood's Blues Band live recording, I thought I would explore his other albums. To my surprise, I found a treasure trove of good blues, fun latin-tinged songs and ballads with strong guitar and vocal work throughout.

My favorites on this album are Rhumba Diablo, I Do Believe, I Loved Another Woman, Homework and Feels Just Like Home. Also I liked his "Band Box Boogie" album with treats like The Ways of Sin, A Message from Mr. Jordan, Baby's in the Big House and Last Chance to Mambo. A very versatile and talented band leader/guitarist. If you like blues, jump blues, rock and roll with a good dose of latin beats, I recommend you purchase his work.

Review by Gary W. Rice, Amazon.com

I've had the honor of sharing the stage and the studio with this man he is the real deal and these recordings culled together form his many CD's are all top notch. Rick's not only one of the best blues guitar players out there, he is also a fine vocalist and songwriter. He knows exactly how to deliver a song and these tracks really show off his amazing talent. From the jumpy "Bluestown" to the car crash classic "Long Black Car," Rick delivers both with soul. As a former member of Fleetwood Mac and as a current member of Mick Fleetwood's Blues Band Rick has all the credentials he needs to pull off Peter Green's "I Loved Another Woman." If you love the blues, if you love great song writing, if you love great rock and roll, give this one a spin!

Review by Michael Killen, Amazon.com

Rick Vito - Lucky in Love: The Best of Rick Vito (2009)



Tracklist:

01. Mr Lucky (4:12)
02. Walk Another Mile (3:52)
03. Desiree (3:47)
04. Blues Town (4:33)
05. Little Sheba (4:15)
06. Rhumba Diablo (4:06)
07. I Do Believe (4:01)
08. I Loved Another Woman (3:48)
09. Homework (3:36)
10. Feels Just Like Home (4:14)
11. Long Black Car (3:51)
12. Meet Me At Midnight (4:14)
13. Everybody Gets Lucky Sometime (3:35)
14. Exotica By Night (4:18)
15. Rattlesnake Shake (4:06)
16. Black Crow Blues (4:09)
17. Love Is Dangerous (4:06)
18. Talk That Talk (3:58)
19. A Change Is Gonna Come (4:15)


Exact Audio Copy V0.99 prebeta 4 from 23. January 2008

Отчёт EAC об извлечении, выполненном 12. марта 2011, 14:34

Rick Vito / Lucky In Love The Best Of Rick Vito

Дисковод: PLEXTOR DVDR PX-880SA Adapter: 1 ID: 1

Режим чтения : Достоверность
Использование точного потока : Да
Отключение кэша аудио : Да
Использование указателей C2 : Нет

Коррекция смещения при чтении : 6
Способность читать области Lead-in и Lead-out : Нет
Заполнение пропущенных сэмплов тишиной : Да
Удаление блоков с тишиной в начале и конце : Нет
При вычислениях CRC использовались нулевые сэмплы : Да
Интерфейс : Установленный внешний ASPI-интерфейс

Выходной формат : Пользовательский кодировщик
Выбранный битрейт : 1024 kBit/s
Качество : Высокий
Добавление ID3-тэга : Нет
Утилита сжатия : C:\Program Files\Exact Audio Copy\FLAC\FLAC.EXE
Дополнительные параметры : -5 -V -T "ARTIST=%a" -T "TITLE=%t" -T "ALBUM=%g" -T "DATE=%y" -T "TRACKNUMBER=%n" -T "GENRE=%m" -T "COMMENT=%e" %s -o %d


TOC извлечённого CD

Трек | Старт | Длительность | Начальный сектор | Конечный сектор
––––––––––––––––––––––––––––––––––-
1 | 0:00.00 | 4:12.37 | 0 | 18936
2 | 4:12.37 | 3:52.32 | 18937 | 36368
3 | 8:04.69 | 3:47.11 | 36369 | 53404
4 | 11:52.05 | 4:33.09 | 53405 | 73888
5 | 16:25.14 | 4:15.08 | 73889 | 93021
6 | 20:40.22 | 4:05.39 | 93022 | 111435
7 | 24:45.61 | 4:01.34 | 111436 | 129544
8 | 28:47.20 | 3:47.41 | 129545 | 146610
9 | 32:34.61 | 3:35.68 | 146611 | 162803
10 | 36:10.54 | 4:13.47 | 162804 | 181825
11 | 40:24.26 | 3:51.26 | 181826 | 199176
12 | 44:15.52 | 4:13.45 | 199177 | 218196
13 | 48:29.22 | 3:35.16 | 218197 | 234337
14 | 52:04.38 | 4:17.53 | 234338 | 253665
15 | 56:22.16 | 4:05.62 | 253666 | 272102
16 | 60:28.03 | 4:09.32 | 272103 | 290809
17 | 64:37.35 | 4:05.72 | 290810 | 309256
18 | 68:43.32 | 3:57.56 | 309257 | 327087
19 | 72:41.13 | 4:14.63 | 327088 | 346200


Характеристики диапазона извлечения и сообщения об ошибках

Выбранный диапазон

Имя файла I:\BitComet\Rick Vito-Lucky In Love The Best Of Rick Vito(2009)(flac)\Rick Vito - Lucky In Love The Best Of Rick Vito.wav

Пиковый уровень 100.0 %
Качество диапазона 99.9 %
CRC теста B49F1671
CRC копии B49F1671
Копирование… OK

Ошибок не произошло


AccurateRip: сводка

Трек 1 точность не определена (достоверность 2) [7DFDC709], AccurateRip вернул [31CA8300]
Трек 2 точность не определена (достоверность 2) [E4A00756], AccurateRip вернул [692A74A6]
Трек 3 точность не определена (достоверность 2) [D601FF8E], AccurateRip вернул [F8A532C5]
Трек 4 точность не определена (достоверность 2) [BFB2779C], AccurateRip вернул [AFCA2DE8]
Трек 5 точность не определена (достоверность 2) [8DDC80C3], AccurateRip вернул [74C8A26B]
Трек 6 точность не определена (достоверность 2) [8845D821], AccurateRip вернул [93BBF17C]
Трек 7 точность не определена (достоверность 2) [C0EDEC86], AccurateRip вернул [BA663ED5]
Трек 8 точность не определена (достоверность 2) [DB377243], AccurateRip вернул [2BCA5B97]
Трек 9 точность не определена (достоверность 2) [7FA1D0A0], AccurateRip вернул [8FE0BAEE]
Трек 10 точность не определена (достоверность 2) [EBE84239], AccurateRip вернул [BDAEE38F]
Трек 11 точность не определена (достоверность 2) [716D1B72], AccurateRip вернул [7FA874FC]
Трек 12 точность не определена (достоверность 2) [2E2C1EA7], AccurateRip вернул [12EA452B]
Трек 13 точность не определена (достоверность 2) [43E5B049], AccurateRip вернул [BE730141]
Трек 14 точность не определена (достоверность 2) [3B0C4E4A], AccurateRip вернул [4F51D568]
Трек 15 точность не определена (достоверность 2) [FE533C14], AccurateRip вернул [FC58DE54]
Трек 16 точность не определена (достоверность 2) [CAB855E6], AccurateRip вернул [4FA6EA42]
Трек 17 точность не определена (достоверность 2) [D1C7B5C3], AccurateRip вернул [23F011E7]
Трек 18 нет в базе данных
Трек 19 нет в базе данных

17 трек(и) не удалось проверить на точность
2 трек(и) не содержатся в базе AccurateRip

Ни один трек не прошёл проверки на точность
В вашей базе может быть иной вариант штамповки диска

Конец отчёта

[CUETools log; Date: 23.08.2018 19:37:27; Version: 2.1.4]
[CTDB TOCID: .61qMPhIO54H4FKdvIjTQhQGC1c-] found.
Track | CTDB Status
1 | (3/3) Accurately ripped
2 | (3/3) Accurately ripped
3 | (3/3) Accurately ripped
4 | (3/3) Accurately ripped
5 | (3/3) Accurately ripped
6 | (3/3) Accurately ripped
7 | (3/3) Accurately ripped
8 | (3/3) Accurately ripped
9 | (3/3) Accurately ripped
10 | (3/3) Accurately ripped
11 | (3/3) Accurately ripped
12 | (3/3) Accurately ripped
13 | (3/3) Accurately ripped
14 | (3/3) Accurately ripped
15 | (3/3) Accurately ripped
16 | (3/3) Accurately ripped
17 | (3/3) Accurately ripped
18 | (3/3) Accurately ripped
19 | (3/3) Accurately ripped
[AccurateRip ID: 0034c679-02e206ff-25120813] found.
Track [ CRC | V2 ] Status
01 [7dfdc709|73830bef] (0+2/2) Accurately ripped
02 [e4a00756|691ab202] (0+2/2) Accurately ripped
03 [d601ff8e|265499ea] (0+2/2) Accurately ripped
04 [bfb2779c|19376cf3] (0+2/2) Accurately ripped
05 [8ddc80c3|1e90c6dd] (0+2/2) Accurately ripped
06 [8845d821|6a8fe8b7] (0+2/2) Accurately ripped
07 [c0edec86|39e68682] (0+2/2) Accurately ripped
08 [db377243|ec21cc15] (0+2/2) Accurately ripped
09 [7fa1d0a0|e26f21ef] (0+2/2) Accurately ripped
10 [ebe84239|5e160643] (0+2/2) Accurately ripped
11 [716d1b72|277f2eaa] (0+2/2) Accurately ripped
12 [2e2c1ea7|c36bec67] (0+2/2) Accurately ripped
13 [43e5b049|638ca3b3] (0+2/2) Accurately ripped
14 [3b0c4e4a|7ad929f6] (0+2/2) Accurately ripped
15 [fe533c14|c13b17cf] (0+2/2) Accurately ripped
16 [cab855e6|a7fadd52] (0+2/2) Accurately ripped
17 [d1c7b5c3|92c2ca6e] (0+2/2) Accurately ripped
18 [55e85b24|b2772acc] (0+2/2) Accurately ripped
19 [a8ab6ea3|52cc9ea3] (0+2/2) Accurately ripped

Track Peak [ CRC32 ] [W/O NULL] [ LOG ]
– 100,0 [B49F1671] [D00AF8A5] CRC32
01 99,9 [4CA84E1C] [42FA2F72]
02 93,9 [2EDD6577] [2102DDF5]
03 100,0 [61F06610] [90553587]
04 89,7 [0EEFAEA5] [8481E300]
05 82,0 [964127A0] [CABB272F]
06 93,5 [75447C9D] [FC1FB02B]
07 91,0 [0F980551] [05513475]
08 99,9 [52F7FFA4] [620ACE91]
09 98,6 [60A60B17] [C829389B]
10 90,1 [2A05D1E7] [1FEA432C]
11 99,1 [B4DD1C75] [C276CA2C]
12 98,2 [67F1ADAB] [63B544D4]
13 84,2 [E7C9E7D4] [76F91D74]
14 95,9 [1F98631A] [7681110D]
15 76,8 [8D6C1387] [B93AE36A]
16 88,0 [6E4F3A0B] [9B36E86D]
17 98,0 [CED4A13C] [BDA99A9E]
18 98,3 [E800A755] [6C9A2168]
19 96,7 [2C3752E5] [E8663DF2]

foobar2000 1.2 / Dynamic Range Meter 1.1.1
log date: 2018-08-23 19:44:42

––––––––––––––––––––––––––––––––––––––––
Analyzed: Rick Vito / Lucky In Love The Best Of Rick Vito
––––––––––––––––––––––––––––––––––––––––

DR Peak RMS Duration Track
––––––––––––––––––––––––––––––––––––––––
DR10 0.00 dB -10.97 dB 4:12 01-Mr Lucky
DR9 -0.54 dB -10.46 dB 3:52 02-Walk Another Mile
DR10 0.00 dB -11.16 dB 3:47 03-Desiree
DR8 -0.94 dB -9.42 dB 4:33 04-Blues Town
DR7 -1.72 dB -9.74 dB 4:15 05-Little Sheba
DR10 -0.58 dB -11.66 dB 4:06 06-Rhumba Diablo
DR8 -0.81 dB -10.69 dB 4:01 07-I Do Believe
DR11 0.00 dB -12.43 dB 3:48 08-I Loved Another Woman
DR9 -0.12 dB -10.33 dB 3:36 09-Homework
DR10 -0.90 dB -11.84 dB 4:14 10- Feels Just Like Home
DR9 -0.08 dB -10.83 dB 3:51 11-Long Black Car
DR11 -0.15 dB -12.25 dB 4:14 12-Meet Me At Midnight
DR9 -1.49 dB -12.07 dB 3:35 13-Everybody Gets Lucky Sometime
DR10 -0.36 dB -12.34 dB 4:18 14- Exotica By Night
DR7 -2.29 dB -10.28 dB 4:06 15-Rattlesnake Shake
DR9 -1.10 dB -11.77 dB 4:09 16- Black Crow Blues
DR8 -0.17 dB -10.77 dB 4:06 17-Love Is Dangerous
DR8 -0.14 dB -9.81 dB 3:58 18-Talk That Talk
DR8 -0.29 dB -10.67 dB 4:15 19-A Change Is Gonna Come
––––––––––––––––––––––––––––––––––––––––

Number of tracks: 19
Official DR value: DR9

Samplerate: 44100 Hz
Channels: 2
Bits per sample: 16
Bitrate: 913 kbps
Codec: FLAC
================================================================================

Rick Vito - Lucky in Love: The Best of Rick Vito (2009)

Rick Vito - Lucky in Love: The Best of Rick Vito (2009)