Subcategories
Tags
Language
Tags

Ringo Starr And His All Starr Band 2012 - Ringo At The Ryman (2013)

Posted By: popsakov
Ringo Starr And His All Starr Band 2012 - Ringo At The Ryman (2013)

Ringo Starr And His All Starr Band 2012 - Ringo At The Ryman (2013)
DVD9 | MPEG-2, NTSC 720x480 (16:9), 29.97 fps, VBR 9000 Kbps
Dolby AC-3, 2 ch., 192 Kbps | Scans Included | ~ 7,17 Gb | RAR 5% Recovery
Rock | 02:01:44 | Universal Music #0602537317639

Ringo Starr is a living legend whose contribution to the roots of Rock and Roll is immeasurable, not only as a Beatle, but also through his prolific and successful solo career. In gathering a new group of iconic rockers to play as the All Starr band each tour, every configuration offers a new and memorable moment where we get to experience songs we all know and love.

'Ringo At The Ryman,' filmed on July 7, 2012, celebrates Ringo's birthday with an extra special line-up touching on some unforgettable hits spanning 4 decades – from Steve Lukather (Toto), Richard Page (Mr. Mister), Mark Rivera (Billy Joel), Gregg Rollie (Journey, Santana), Todd Rundgren and Gregg Bissonette. The set list is undeniably familiar: 'It Don't Come Easy,' 'Act Naturally,' 'Photograph,' 'I Wanna Be Your Man,' 'Yellow Submarine,' and his bandmates contributions 'Roseanna,' 'Black Magic Woman,' 'Kyrie Elaison,' 'Bang the Drum All Day,' and so many more.

During the show at the Ryman, the All Starrs weren't the only stars out that night. Joe Walsh makes a special guest appearance to play Rocky Mountain Way and is then joined for the encore, 'With A Little Help From My Friends' by his daughter Lucy and some of Nashville s finest players such as Brendan Benson, Kix Brooks, Gary Burr, Vince Gil, Brad Paisley & former All Starr alum Felix Cavaliere, and Richard Marx.

'Ringo at the Ryman' is a musical journey featuring great players and great classic hit songs, all-in-all a momentous celebration, and a heck of a birthday party.
Track List:

01. Open / Matchbox (Ringo Starr)
02. It Don't Come Easy (Ringo Starr)
03. Wings (Ringo Starr)
04. I Saw The Light (Todd Rundgren)
05. Evil Ways (Gregg Rolie)
06. Rosanna (Steve Lukather)
07. Kyrie Eleison (Richard Page)
08. Don't Pass Me By (Ringo Starr)
09. Bang The Drum All Day (Todd Rundgren)
10. Boys (Ringo Starr)
11. Yellow Submarine (Ringo Starr)
12. Black Magic Woman (Gregg Rolie)
13. Band Intro / Happy Birthday (The All Starr Band)
14. Anthem (Ringo Starr)
15. The Greatest (Ringo Starr)
16. Rocky Mountain Way (Joe Walsh)
17. You Are Mine (Richard Page)
18. Africa (Steve Lukather)
19. Everybody s Everything (Gregg Rolie)
20. I Wanna Be Your Man (Ringo Starr)
21. Love Is The Answer (Todd Rundgren)
22. Broken Wings (Richard Page)
23. Hold The Line (Steve Lukather)
24. Photograph (Ringo Starr)
25. Act Naturally (Ringo Starr)
26. With A Little Help From My Friends / Give Peace A Chance (The All Starr Band)

Ringo Starr - Drums, Vocals
Steve Lukather - Guitar, Vocals (Toto)
Todd Rundgren - Guitar, Vocals
Richard Page - Bass Guitar, Vocals (Mr. Mister)
Gregg Rolie - Keyboards, Vocals (Journey, Santana)
Gregg Bissonette - Drums
Mark Rivera - Saxophones, Percussion, Vocals (Billy Joel)
Special Guest:
Joe Walsh - Guitar, Vocals (James Gang, Barnstorm, Eagles)


General
Complete name : J:\Ringo Starr And His All Starr Band 2012 - Ringo At The Ryman\VIDEO_TS\VTS_02_1.VOB
Format : MPEG-PS
File size : 1 024 MiB
Duration : 18mn 44s
Overall bit rate mode : Variable
Overall bit rate : 7 638 Kbps

Video
ID : 224 (0xE0)
Format : MPEG Video
Format version : Version 2
Format profile : Main@Main
Format settings, BVOP : Yes
Format settings, Matrix : Custom
Format settings, GOP : M=3, N=15
Duration : 18mn 44s
Bit rate mode : Variable
Bit rate : 7 294 Kbps
Maximum bit rate : 9 000 Kbps
Width : 720 pixels
Height : 480 pixels
Display aspect ratio : 16:9
Frame rate : 29.970 fps
Standard : NTSC
Color space : YUV
Chroma subsampling : 4:2:0
Bit depth : 8 bits
Scan type : Interlaced
Scan order : Top Field First
Compression mode : Lossy
Bits/(Pixel*Frame) : 0.704
Time code of first frame : 00:59:57:00
Time code source : Group of pictures header
Stream size : 978 MiB (95%)
Color primaries : BT.601 NTSC
Transfer characteristics : BT.601
Matrix coefficients : BT.601

Audio
ID : 189 (0xBD)-128 (0x80)
Format : AC-3
Format/Info : Audio Coding 3
Mode extension : CM (complete main)
Format settings, Endianness : Big
Muxing mode : DVD-Video
Duration : 18mn 44s
Bit rate mode : Constant
Bit rate : 192 Kbps
Channel(s) : 2 channels
Channel positions : Front: L R
Sampling rate : 48.0 KHz
Bit depth : 16 bits
Compression mode : Lossy
Stream size : 25.7 MiB (3%)

Menu

General
Complete name : J:\Ringo Starr And His All Starr Band 2012 - Ringo At The Ryman\VIDEO_TS\VTS_02_2.VOB
Format : MPEG-PS
File size : 1 024 MiB
Duration : 17mn 57s
Overall bit rate mode : Variable
Overall bit rate : 7 970 Kbps

Video
ID : 224 (0xE0)
Format : MPEG Video
Format version : Version 2
Format profile : Main@Main
Format settings, BVOP : Yes
Format settings, Matrix : Custom
Format settings, GOP : M=3, N=15
Duration : 17mn 57s
Bit rate mode : Variable
Bit rate : 7 619 Kbps
Maximum bit rate : 9 000 Kbps
Width : 720 pixels
Height : 480 pixels
Display aspect ratio : 16:9
Frame rate : 29.970 fps
Standard : NTSC
Color space : YUV
Chroma subsampling : 4:2:0
Bit depth : 8 bits
Scan type : Interlaced
Scan order : Top Field First
Compression mode : Lossy
Bits/(Pixel*Frame) : 0.736
Time code of first frame : 01:18:40:16
Time code source : Group of pictures header
Stream size : 979 MiB (96%)
Color primaries : BT.601 NTSC
Transfer characteristics : BT.601
Matrix coefficients : BT.601

Audio
ID : 189 (0xBD)-128 (0x80)
Format : AC-3
Format/Info : Audio Coding 3
Mode extension : CM (complete main)
Format settings, Endianness : Big
Muxing mode : DVD-Video
Duration : 17mn 57s
Bit rate mode : Constant
Bit rate : 192 Kbps
Channel(s) : 2 channels
Channel positions : Front: L R
Sampling rate : 48.0 KHz
Bit depth : 16 bits
Compression mode : Lossy
Delay relative to video : -401ms
Stream size : 24.7 MiB (2%)

Menu

General
Complete name : J:\Ringo Starr And His All Starr Band 2012 - Ringo At The Ryman\VIDEO_TS\VTS_02_3.VOB
Format : MPEG-PS
File size : 1 024 MiB
Duration : 17mn 37s
Overall bit rate mode : Variable
Overall bit rate : 8 118 Kbps

Video
ID : 224 (0xE0)
Format : MPEG Video
Format version : Version 2
Format profile : Main@Main
Format settings, BVOP : Yes
Format settings, Matrix : Custom
Format settings, GOP : M=3, N=15
Duration : 17mn 37s
Bit rate mode : Variable
Bit rate : 7 765 Kbps
Maximum bit rate : 9 000 Kbps
Width : 720 pixels
Height : 480 pixels
Display aspect ratio : 16:9
Frame rate : 29.970 fps
Standard : NTSC
Color space : YUV
Chroma subsampling : 4:2:0
Bit depth : 8 bits
Scan type : Interlaced
Scan order : Top Field First
Compression mode : Lossy
Bits/(Pixel*Frame) : 0.750
Time code of first frame : 01:36:36:29
Time code source : Group of pictures header
Stream size : 979 MiB (96%)
Color primaries : BT.601 NTSC
Transfer characteristics : BT.601
Matrix coefficients : BT.601

Audio
ID : 189 (0xBD)-128 (0x80)
Format : AC-3
Format/Info : Audio Coding 3
Mode extension : CM (complete main)
Format settings, Endianness : Big
Muxing mode : DVD-Video
Duration : 17mn 37s
Bit rate mode : Constant
Bit rate : 192 Kbps
Channel(s) : 2 channels
Channel positions : Front: L R
Sampling rate : 48.0 KHz
Bit depth : 16 bits
Compression mode : Lossy
Delay relative to video : -247ms
Stream size : 24.2 MiB (2%)

Menu

General
Complete name : J:\Ringo Starr And His All Starr Band 2012 - Ringo At The Ryman\VIDEO_TS\VTS_02_4.VOB
Format : MPEG-PS
File size : 1 024 MiB
Duration : 17mn 24s
Overall bit rate mode : Variable
Overall bit rate : 8 223 Kbps

Video
ID : 224 (0xE0)
Format : MPEG Video
Format version : Version 2
Format profile : Main@Main
Format settings, BVOP : Yes
Format settings, Matrix : Custom
Format settings, GOP : M=3, N=15
Duration : 17mn 24s
Bit rate mode : Variable
Bit rate : 7 867 Kbps
Maximum bit rate : 9 000 Kbps
Width : 720 pixels
Height : 480 pixels
Display aspect ratio : 16:9
Frame rate : 29.970 fps
Standard : NTSC
Color space : YUV
Chroma subsampling : 4:2:0
Bit depth : 8 bits
Scan type : Interlaced
Scan order : Top Field First
Compression mode : Lossy
Bits/(Pixel*Frame) : 0.760
Time code of first frame : 01:54:14:00
Time code source : Group of pictures header
Stream size : 979 MiB (96%)
Color primaries : BT.601 NTSC
Transfer characteristics : BT.601
Matrix coefficients : BT.601

Audio
ID : 189 (0xBD)-128 (0x80)
Format : AC-3
Format/Info : Audio Coding 3
Mode extension : CM (complete main)
Format settings, Endianness : Big
Muxing mode : DVD-Video
Duration : 17mn 24s
Bit rate mode : Constant
Bit rate : 192 Kbps
Channel(s) : 2 channels
Channel positions : Front: L R
Sampling rate : 48.0 KHz
Bit depth : 16 bits
Compression mode : Lossy
Delay relative to video : -385ms
Stream size : 23.9 MiB (2%)

Menu

General
Complete name : J:\Ringo Starr And His All Starr Band 2012 - Ringo At The Ryman\VIDEO_TS\VTS_02_5.VOB
Format : MPEG-PS
File size : 1 024 MiB
Duration : 18mn 4s
Overall bit rate mode : Variable
Overall bit rate : 7 922 Kbps

Video
ID : 224 (0xE0)
Format : MPEG Video
Format version : Version 2
Format profile : Main@Main
Format settings, BVOP : Yes
Format settings, Matrix : Custom
Format settings, GOP : M=3, N=15
Duration : 18mn 3s
Bit rate mode : Variable
Bit rate : 7 573 Kbps
Maximum bit rate : 9 000 Kbps
Width : 720 pixels
Height : 480 pixels
Display aspect ratio : 16:9
Frame rate : 29.970 fps
Standard : NTSC
Color space : YUV
Chroma subsampling : 4:2:0
Bit depth : 8 bits
Scan type : Interlaced
Scan order : Top Field First
Compression mode : Lossy
Bits/(Pixel*Frame) : 0.731
Time code of first frame : 02:11:37:17
Time code source : Group of pictures header
Stream size : 978 MiB (96%)
Color primaries : BT.601 NTSC
Transfer characteristics : BT.601
Matrix coefficients : BT.601

Audio
ID : 189 (0xBD)-128 (0x80)
Format : AC-3
Format/Info : Audio Coding 3
Mode extension : CM (complete main)
Format settings, Endianness : Big
Muxing mode : DVD-Video
Duration : 18mn 4s
Bit rate mode : Constant
Bit rate : 192 Kbps
Channel(s) : 2 channels
Channel positions : Front: L R
Sampling rate : 48.0 KHz
Bit depth : 16 bits
Compression mode : Lossy
Delay relative to video : -451ms
Stream size : 24.8 MiB (2%)

Menu

General
Complete name : J:\Ringo Starr And His All Starr Band 2012 - Ringo At The Ryman\VIDEO_TS\VTS_02_6.VOB
Format : MPEG-PS
File size : 1 024 MiB
Duration : 18mn 15s
Overall bit rate mode : Variable
Overall bit rate : 7 839 Kbps

Video
ID : 224 (0xE0)
Format : MPEG Video
Format version : Version 2
Format profile : Main@Main
Format settings, BVOP : Yes
Format settings, Matrix : Custom
Format settings, GOP : M=3, N=15
Duration : 18mn 15s
Bit rate mode : Variable
Bit rate : 7 491 Kbps
Maximum bit rate : 9 000 Kbps
Width : 720 pixels
Height : 480 pixels
Display aspect ratio : 16:9
Frame rate : 29.970 fps
Standard : NTSC
Color space : YUV
Chroma subsampling : 4:2:0
Bit depth : 8 bits
Scan type : Interlaced
Scan order : Top Field First
Compression mode : Lossy
Bits/(Pixel*Frame) : 0.723
Time code of first frame : 02:29:40:15
Time code source : Group of pictures header
Stream size : 978 MiB (96%)
Color primaries : BT.601 NTSC
Transfer characteristics : BT.601
Matrix coefficients : BT.601

Audio
ID : 189 (0xBD)-128 (0x80)
Format : AC-3
Format/Info : Audio Coding 3
Mode extension : CM (complete main)
Format settings, Endianness : Big
Muxing mode : DVD-Video
Duration : 18mn 15s
Bit rate mode : Constant
Bit rate : 192 Kbps
Channel(s) : 2 channels
Channel positions : Front: L R
Sampling rate : 48.0 KHz
Bit depth : 16 bits
Compression mode : Lossy
Delay relative to video : -340ms
Stream size : 25.1 MiB (2%)

Menu

General
Complete name : J:\Ringo Starr And His All Starr Band 2012 - Ringo At The Ryman\VIDEO_TS\VTS_02_7.VOB
Format : MPEG-PS
File size : 814 MiB
Duration : 13mn 47s
Overall bit rate mode : Variable
Overall bit rate : 8 259 Kbps

Video
ID : 224 (0xE0)
Format : MPEG Video
Format version : Version 2
Format profile : Main@Main
Format settings, BVOP : Yes
Format settings, Matrix : Custom
Format settings, GOP : M=3, N=15
Duration : 13mn 46s
Bit rate mode : Variable
Bit rate : 7 903 Kbps
Maximum bit rate : 9 000 Kbps
Width : 720 pixels
Height : 480 pixels
Display aspect ratio : 16:9
Frame rate : 29.970 fps
Standard : NTSC
Color space : YUV
Chroma subsampling : 4:2:0
Bit depth : 8 bits
Scan type : Interlaced
Scan order : Top Field First
Compression mode : Lossy
Bits/(Pixel*Frame) : 0.763
Time code of first frame : 02:47:55:00
Time code source : Group of pictures header
Stream size : 779 MiB (96%)
Color primaries : BT.601 NTSC
Transfer characteristics : BT.601
Matrix coefficients : BT.601

Audio
ID : 189 (0xBD)-128 (0x80)
Format : AC-3
Format/Info : Audio Coding 3
Mode extension : CM (complete main)
Format settings, Endianness : Big
Muxing mode : DVD-Video
Duration : 13mn 47s
Bit rate mode : Constant
Bit rate : 192 Kbps
Channel(s) : 2 channels
Channel positions : Front: L R
Sampling rate : 48.0 KHz
Bit depth : 16 bits
Compression mode : Lossy
Delay relative to video : -254ms
Stream size : 18.9 MiB (2%)

Menu

Ringo Starr And His All Starr Band 2012 - Ringo At The Ryman (2013)

Ringo Starr And His All Starr Band 2012 - Ringo At The Ryman (2013)

Ringo Starr And His All Starr Band 2012 - Ringo At The Ryman (2013)

Ringo Starr And His All Starr Band 2012 - Ringo At The Ryman (2013)

Ringo Starr And His All Starr Band 2012 - Ringo At The Ryman (2013)