Subcategories

Rock in Rio 2019 [29xHDTV, 1080i]

Posted By: v3122
Rock in Rio 2019 [29xHDTV, 1080i]

Rock in Rio 2019
20xTS or MKV: MPEG4 Video (H264) 1920x1080 29.97fps | AC3 48kHz, 6ch, 384kbps
Electrinica, Pop, Rock, Metal | ~ 225.32 Gb

~ Added: King Crimson, H.E.R., Muse, Nervosa, Nile Rodgers & Chic, P!nk, Sepultura, Slayer, The Black Eyed Peas ~

Rock in Rio is a recurring music festival originating in Rio de Janeiro, Brazil. It later branched into other locations such as Lisbon, Madrid and Las Vegas.

Eight incarnations of the festival have been held in Rio de Janeiro, in 1985, 1991, 2001, 2011, 2013, 2015, 2017 and 2019, eight in Lisbon, in 2004, 2006, 2008, 2010, 2012, 2014, 2016 and 2018, three in Madrid in 2008, 2010 and 2012, and one in Las Vegas, in 2015. Brazilian entrepreneur and advertiser Roberto Medina was responsible for the inception and organization of the festival, as well as moving the 2004 edition to Lisbon, while controversially keeping the brand "Rock in Rio".[1] In 2011, Rock in Rio returned to its original location, Rio de Janeiro, with a new line-up of singers and groups.

Rock in Rio is one of the largest music festivals in the world, with 1.5 million people attending the first event, 700,000 attending the second and fourth, about 1.2 million attending the third, and about 350,000 people attending each of the three Lisbon events.

In May 2018, Live Nation Entertainment acquired a majority stake in the festival (including from previous stakeholder SFX Entertainment), with Medina continuing to manage the festival's operations. Live Nation stated that it intended to "[integrate] their industry expertise" into their overall business…

~ wiki
Rock in Rio 2019:

Alok:

United
Tremor (Dimitri Vegas & Martin Garrix & Like Mike cover)
Metaphor
Rhythm Of The Night (Maurice West cover)
Tell Me Why
Encore (MAKJ cover)
Ready! (Deorro cover)
Guerilla (SWACQ cover)
Titanium (David Guetta cover)
Reload (Sebastian Ingrosso cover)
Hear Me Now
Big Jet Plane (Angus & Julia Stone cover)
Astronomia (Tony Igy cover)
Favela
Ocean
Enter The Game (B1 and B2 cover)
It's My Life (Tunesquad Remix) (Bon Jovi & Sugarland cover)
Otherside (Joyriders Big Room Mix) (Red Hot Chili Peppers cover)
Battle (Wookie cover)
Don't You Worry Child (Swedish House Mafia cover)
Piece Of Your Heart (Alok Remix) (Eddie Meduza cover)
Blue Monday (Vandalism Remix) (Kurd Maverick cover)
Old Town Road (Mike Emilio Remix) (Lil Nas X cover)
Work (Bad Royale Remix) / Bitch Better Have My Money (Rihanna cover)
I Love It (Rino Sambo Remix) (Kanye West cover)
Look At Me Now (Unofficial Remix) (Chris Brown cover)
Booty Bounce (GTA Remix) (DJ Funk & Frankie Bones cover)
Whistle (Nitti Gritti Remix) (4B cover)
Better Off Alone (Alice DeeJay cover)
First Mix (DJ Champ, DJ Zet & Inful-8 cover)
Wonderwall (Arcando & Lux Holm Remix) (Oasis cover)
Pais e Filhos (Legião Urbana cover)
Table For 2
We Will Rock You (Movie Mix) / We Are The Champions (Remix) (Queen cover)
Triplet (Instrumental Remix) (Tiësto & Kaaze cover)
Vale Vale
Crowd Control (3 Are Legend Remix) (Technotronic vs. Dimitri Vegas & Like Mike cover)

General
ID : 1 (0x1)
Complete name : E:\Mix\Rock in Rio 2019\Alok - Rock in Rio 2019.ts
Format : MPEG-TS
File size : 6.03 GiB
Duration : 1h 6mn
Overall bit rate mode : Variable
Overall bit rate : 13.0 Mbps

Video
ID : 1328 (0x530)
Menu ID : 1336 (0x538)
Format : AVC
Format/Info : Advanced Video Codec
Format profile : High@L4.0
Format settings, CABAC : Yes
Format settings, ReFrames : 4 frames
Codec ID : 27
Duration : 1h 6mn
Bit rate : 12.0 Mbps
Width : 1 920 pixels
Height : 1 080 pixels
Display aspect ratio : 16:9
Frame rate : 29.970 fps
Color space : YUV
Chroma subsampling : 4:2:0
Bit depth : 8 bits
Scan type : MBAFF
Bits/(Pixel*Frame) : 0.193
Stream size : 5.55 GiB (92%)

Audio
ID : 1329 (0x531)
Menu ID : 1336 (0x538)
Format : AC-3
Format/Info : Audio Coding 3
Mode extension : CM (complete main)
Format settings, Endianness : Big
Codec ID : 129
Duration : 1h 6mn
Bit rate mode : Constant
Bit rate : 384 Kbps
Channel(s) : 6 channels
Channel positions : Front: L C R, Side: L R, LFE
Sampling rate : 48.0 KHz
Bit depth : 16 bits
Compression mode : Lossy
Stream size : 182 MiB (3%)
Language : English



Rock in Rio 2019 [29xHDTV, 1080i]

Rock in Rio 2019 [29xHDTV, 1080i]

Rock in Rio 2019 [29xHDTV, 1080i]

Bon Jovi:

This House Is Not For Sale
Born to Be My Baby
Lost Highway
You Give Love a Bad Name
Roller Coaster
We Weren't Born to Follow
Blood on Blood
In These Arms (David Bryan on vocal)
Have a Nice Day
Keep the Faith
Bed of Roses
It's My Life
Lay Your Hands on Me
Wanted Dead or Alive
Bad Medicine

Encore:
Always
Livin' on a Prayer

General
ID : 1 (0x1)
Complete name : E:\Mix\Rock in Rio 2019\Bon Jovi - Rock in Rio 2019.ts
Format : MPEG-TS
File size : 11.8 GiB
Duration : 2h 6mn
Overall bit rate mode : Variable
Overall bit rate : 13.4 Mbps

Video
ID : 1328 (0x530)
Menu ID : 1336 (0x538)
Format : AVC
Format/Info : Advanced Video Codec
Format profile : High@L4.0
Format settings, CABAC : Yes
Format settings, ReFrames : 4 frames
Codec ID : 27
Duration : 2h 6mn
Bit rate : 12.4 Mbps
Width : 1 920 pixels
Height : 1 080 pixels
Display aspect ratio : 16:9
Frame rate : 29.970 fps
Color space : YUV
Chroma subsampling : 4:2:0
Bit depth : 8 bits
Scan type : MBAFF
Bits/(Pixel*Frame) : 0.199
Stream size : 10.9 GiB (92%)

Audio
ID : 1329 (0x531)
Menu ID : 1336 (0x538)
Format : AC-3
Format/Info : Audio Coding 3
Mode extension : CM (complete main)
Format settings, Endianness : Big
Codec ID : 129
Duration : 2h 6mn
Bit rate mode : Constant
Bit rate : 384 Kbps
Channel(s) : 6 channels
Channel positions : Front: L C R, Side: L R, LFE
Sampling rate : 48.0 KHz
Bit depth : 16 bits
Compression mode : Lossy
Delay relative to video : -167ms
Stream size : 347 MiB (3%)
Language : English



Rock in Rio 2019 [29xHDTV, 1080i]

Rock in Rio 2019 [29xHDTV, 1080i]

Rock in Rio 2019 [29xHDTV, 1080i]

Dave Matthews Band:

Don't Drink the Water
So Much to Say
Too Much
Louisiana Bayou
Crash Into Me
Sledgehammer (Peter Gabriel cover)
Grey Street
Shake Me Like a Monkey
Why I Am
Jimi Thing
Sexy M.F. (Prince cover)
Back in Black / Stayin' Alive
Ants Marching

General
ID : 1 (0x1)
Complete name : E:\Mix\Rock in Rio 2019\Dave Matthews Band - Rock in Rio 2019.ts
Format : MPEG-TS
File size : 8.01 GiB
Duration : 1h 26mn
Overall bit rate mode : Variable
Overall bit rate : 13.3 Mbps

Video
ID : 1328 (0x530)
Menu ID : 1336 (0x538)
Format : AVC
Format/Info : Advanced Video Codec
Format profile : High@L4.0
Format settings, CABAC : Yes
Format settings, ReFrames : 4 frames
Codec ID : 27
Duration : 1h 26mn
Bit rate : 12.2 Mbps
Width : 1 920 pixels
Height : 1 080 pixels
Display aspect ratio : 16:9
Frame rate : 29.970 fps
Color space : YUV
Chroma subsampling : 4:2:0
Bit depth : 8 bits
Scan type : MBAFF
Bits/(Pixel*Frame) : 0.197
Stream size : 7.38 GiB (92%)

Audio
ID : 1329 (0x531)
Menu ID : 1336 (0x538)
Format : AC-3
Format/Info : Audio Coding 3
Mode extension : CM (complete main)
Format settings, Endianness : Big
Codec ID : 129
Duration : 1h 26mn
Bit rate mode : Constant
Bit rate : 384 Kbps
Channel(s) : 6 channels
Channel positions : Front: L C R, Side: L R, LFE
Sampling rate : 48.0 KHz
Bit depth : 16 bits
Compression mode : Lossy
Stream size : 237 MiB (3%)
Language : English



Rock in Rio 2019 [29xHDTV, 1080i]

Rock in Rio 2019 [29xHDTV, 1080i]

Rock in Rio 2019 [29xHDTV, 1080i]

Ego Kill Talent:

01. Diamonds and Landmines
02. Sublimated
03. We All
04. The Searcher
05. Old Love And Skulls
06. Heroes, Kings And Gods (Bob Burnquist on stage)
07. Life Born (Live Premiere)
08. Still Here
09. Last Ride
10. Try (There Will Be Blood)

General
ID : 0 (0x0)
Complete name : E:\Mix\Rock in Rio 2019\Ego Kill Talent - Rock In Rio 2019.ts
Format : MPEG-TS
File size : 4.29 GiB
Duration : 52mn 40s
Overall bit rate mode : Variable
Overall bit rate : 11.7 Mbps

Video
ID : 512 (0x200)
Menu ID : 1 (0x1)
Format : AVC
Format/Info : Advanced Video Codec
Format profile : High@L4.0
Format settings, CABAC : Yes
Format settings, ReFrames : 4 frames
Codec ID : 27
Duration : 52mn 39s
Bit rate : 10.7 Mbps
Width : 1 920 pixels
Height : 1 080 pixels
Display aspect ratio : 16:9
Frame rate : 29.970 fps
Standard : Component
Color space : YUV
Chroma subsampling : 4:2:0
Bit depth : 8 bits
Scan type : MBAFF
Bits/(Pixel*Frame) : 0.172
Stream size : 3.93 GiB (92%)
Color primaries : BT.709
Transfer characteristics : BT.709
Matrix coefficients : BT.709

Audio
ID : 513 (0x201)
Menu ID : 1 (0x1)
Format : AC-3
Format/Info : Audio Coding 3
Mode extension : CM (complete main)
Format settings, Endianness : Big
Codec ID : 129
Duration : 52mn 39s
Bit rate mode : Constant
Bit rate : 384 Kbps
Channel(s) : 6 channels
Channel positions : Front: L C R, Side: L R, LFE
Sampling rate : 48.0 KHz
Bit depth : 16 bits
Compression mode : Lossy
Stream size : 145 MiB (3%)



Rock in Rio 2019 [29xHDTV, 1080i]

Rock in Rio 2019 [29xHDTV, 1080i]

Rock in Rio 2019 [29xHDTV, 1080i]

Foo Fighters:

The Pretender
Learn to Fly
Run
The Sky Is a Neighborhood
Times Like These (with a drum solo)
Sunday Rain (Taylor Hawkins on Vocals)
My Hero
These Days
La Dee Da
Walk (followed by band intro - see Below.)
Under Pressure (Queen cover) (Taylor Hawkins on Vocals;… more )
All My Life
Wheels
Monkey Wrench
Big Me (slow version; dedicated to… more )
Best of You (Fan proposed on stage before the song.)
Everlong



Rock in Rio 2019 [29xHDTV, 1080i]

Rock in Rio 2019 [29xHDTV, 1080i]

Rock in Rio 2019 [29xHDTV, 1080i]

Jessie J:

Masterpiece
Do It Like a Dude
Burnin' Up
Nobody's Perfect
It's My Party / Sexy Lady / Wild
Queen
Flashlight
Brave
Who You Are
Bang Bang
Domino
Price Tag

General
ID : 1 (0x1)
Complete name : E:\Mix\Rock in Rio 2019\Foo Fighters - Rock in Rio 2019.ts
Format : MPEG-TS
File size : 12.4 GiB
Duration : 2h 14mn
Overall bit rate mode : Variable
Overall bit rate : 13.2 Mbps

Video
ID : 1328 (0x530)
Menu ID : 1336 (0x538)
Format : AVC
Format/Info : Advanced Video Codec
Format profile : High@L4.0
Format settings, CABAC : Yes
Format settings, ReFrames : 4 frames
Codec ID : 27
Duration : 2h 14mn
Bit rate : 12.1 Mbps
Width : 1 920 pixels
Height : 1 080 pixels
Display aspect ratio : 16:9
Frame rate : 29.970 fps
Color space : YUV
Chroma subsampling : 4:2:0
Bit depth : 8 bits
Scan type : MBAFF
Bits/(Pixel*Frame) : 0.195
Stream size : 11.4 GiB (92%)

Audio
ID : 1329 (0x531)
Menu ID : 1336 (0x538)
Format : AC-3
Format/Info : Audio Coding 3
Mode extension : CM (complete main)
Format settings, Endianness : Big
Codec ID : 129
Duration : 2h 14mn
Bit rate mode : Constant
Bit rate : 384 Kbps
Channel(s) : 6 channels
Channel positions : Front: L C R, Side: L R, LFE
Sampling rate : 48.0 KHz
Bit depth : 16 bits
Compression mode : Lossy
Stream size : 369 MiB (3%)
Language : English



Rock in Rio 2019 [29xHDTV, 1080i]

Rock in Rio 2019 [29xHDTV, 1080i]

Rock in Rio 2019 [29xHDTV, 1080i]

Seal (feat. Xênia França):

AIKIN (All I Know Is Now)
Killer (Adamski cover)
Person in the Mirror
Fast Changes
Whirlpool
Prayer for the Dying
Love's Divine
Higher Ground (Stevie Wonder cover) (with Xênia França)
Future Love Paradise (with Xênia França)
Kiss From a Rose
Crazy

General
ID : 1 (0x1)
Complete name : E:\Mix\Rock in Rio 2019\Seal (feat. Xênia França) - Rock in Rio 2019.ts
Format : MPEG-TS
File size : 5.36 GiB
Duration : 1h 19mn
Overall bit rate mode : Variable
Overall bit rate : 9 645 Kbps

Video
ID : 1328 (0x530)
Menu ID : 1336 (0x538)
Format : AVC
Format/Info : Advanced Video Codec
Format profile : High@L4.0
Format settings, CABAC : Yes
Format settings, ReFrames : 4 frames
Codec ID : 27
Duration : 1h 19mn
Bit rate : 8 780 Kbps
Width : 1 920 pixels
Height : 1 080 pixels
Display aspect ratio : 16:9
Frame rate : 29.970 fps
Color space : YUV
Chroma subsampling : 4:2:0
Bit depth : 8 bits
Scan type : MBAFF
Bits/(Pixel*Frame) : 0.141
Stream size : 4.88 GiB (91%)

Audio
ID : 1329 (0x531)
Menu ID : 1336 (0x538)
Format : AC-3
Format/Info : Audio Coding 3
Mode extension : CM (complete main)
Format settings, Endianness : Big
Codec ID : 129
Duration : 1h 19mn
Bit rate mode : Constant
Bit rate : 384 Kbps
Channel(s) : 6 channels
Channel positions : Front: L C R, Side: L R, LFE
Sampling rate : 48.0 KHz
Bit depth : 16 bits
Compression mode : Lossy
Stream size : 218 MiB (4%)
Language : English



Rock in Rio 2019 [29xHDTV, 1080i]

Rock in Rio 2019 [29xHDTV, 1080i]

Rock in Rio 2019 [29xHDTV, 1080i]

Tenacious D:

JB JR RAP
WOMAN TIME
SAVE THE WORLD
POST-APOCALYPTO THEME (REPRISE)
Rize of the Fenix
Low Hangin' Fruit
Sax-a-Boom (With Júnior Groovador)
Smells Like Teen Spirit (Nirvana cover) (with Júnior Groovador)
Dude (I Totally Miss You)
Kickapoo
Beelzeboss (The Final Showdown)
The Metal
Dio
Tribute
Double Team (With Júnior Groovador) (With "… more )
Fuck Her Gently

General
ID : 1 (0x1)
Complete name : E:\Mix\Rock in Rio 2019\Tenacious D - Rock in Rio 2019.ts
Format : MPEG-TS
File size : 4.44 GiB
Duration : 1h 3mn
Overall bit rate mode : Variable
Overall bit rate : 10.0 Mbps

Video
ID : 1328 (0x530)
Menu ID : 1336 (0x538)
Format : AVC
Format/Info : Advanced Video Codec
Format profile : High@L4.0
Format settings, CABAC : Yes
Format settings, ReFrames : 4 frames
Codec ID : 27
Duration : 1h 3mn
Bit rate : 9 159 Kbps
Width : 1 920 pixels
Height : 1 080 pixels
Display aspect ratio : 16:9
Frame rate : 29.970 fps
Color space : YUV
Chroma subsampling : 4:2:0
Bit depth : 8 bits
Scan type : MBAFF
Bits/(Pixel*Frame) : 0.147
Stream size : 4.05 GiB (91%)

Audio
ID : 1329 (0x531)
Menu ID : 1336 (0x538)
Format : AC-3
Format/Info : Audio Coding 3
Mode extension : CM (complete main)
Format settings, Endianness : Big
Codec ID : 129
Duration : 1h 3mn
Bit rate mode : Constant
Bit rate : 384 Kbps
Channel(s) : 6 channels
Channel positions : Front: L C R, Side: L R, LFE
Sampling rate : 48.0 KHz
Bit depth : 16 bits
Compression mode : Lossy
Stream size : 174 MiB (4%)
Language : English



Rock in Rio 2019 [29xHDTV, 1080i]

Rock in Rio 2019 [29xHDTV, 1080i]

Rock in Rio 2019 [29xHDTV, 1080i]

Weezer:

Buddy Holly
Beverly Hills
Pork and Beans
Africa (Toto cover)
Holiday
In the Garage
Take On Me (a‐ha cover)
Island in the Sun
Perfect Situation
Happy Together (The Turtles cover) (with “Longview” (Green Day) snippet)
The End of the Game
Undone - The Sweater Song
My Name Is Jonas
Paranoid (Black Sabbath cover) (Brian Bell on vocals)
Hash Pipe
Surf Wax America
Lithium (Nirvana cover) (Dedicated to Foo Fighters)
Buddy Holly (Barbershop quartet version)
Say It Ain't So

General
ID : 1 (0x1)
Complete name : E:\Mix\Rock in Rio 2019\Weezer - Rock in Rio 2019.ts
Format : MPEG-TS
File size : 6.75 GiB
Duration : 1h 12mn
Overall bit rate mode : Variable
Overall bit rate : 13.3 Mbps

Video
ID : 1328 (0x530)
Menu ID : 1336 (0x538)
Format : AVC
Format/Info : Advanced Video Codec
Format profile : High@L4.0
Format settings, CABAC : Yes
Format settings, ReFrames : 4 frames
Codec ID : 27
Duration : 1h 12mn
Bit rate : 12.3 Mbps
Width : 1 920 pixels
Height : 1 080 pixels
Display aspect ratio : 16:9
Frame rate : 29.970 fps
Color space : YUV
Chroma subsampling : 4:2:0
Bit depth : 8 bits
Scan type : MBAFF
Bits/(Pixel*Frame) : 0.198
Stream size : 6.22 GiB (92%)

Audio
ID : 1329 (0x531)
Menu ID : 1336 (0x538)
Format : AC-3
Format/Info : Audio Coding 3
Mode extension : CM (complete main)
Format settings, Endianness : Big
Codec ID : 129
Duration : 1h 12mn
Bit rate mode : Constant
Bit rate : 384 Kbps
Channel(s) : 6 channels
Channel positions : Front: L C R, Side: L R, LFE
Sampling rate : 48.0 KHz
Bit depth : 16 bits
Compression mode : Lossy
Stream size : 199 MiB (3%)
Language : English



Rock in Rio 2019 [29xHDTV, 1080i]

Rock in Rio 2019 [29xHDTV, 1080i]

Rock in Rio 2019 [29xHDTV, 1080i]

Whitesnake:

Bad Boys
Slide It In
Love Ain't No Stranger
Hey You (You Make Me Rock)
Slow an' Easy
Trouble Is Your Middle Name
Drum Solo
Is This Love
Here I Go Again
Still of the Night
Burn (Deep Purple cover)

General
ID : 1 (0x1)
Complete name : E:\Mix\Rock in Rio 2019\Whitesnake - Rock in Rio 2019.ts
Format : MPEG-TS
File size : 5.62 GiB
Duration : 1h 0mn
Overall bit rate mode : Variable
Overall bit rate : 13.4 Mbps

Video
ID : 1328 (0x530)
Menu ID : 1336 (0x538)
Format : AVC
Format/Info : Advanced Video Codec
Format profile : High@L4.0
Format settings, CABAC : Yes
Format settings, ReFrames : 4 frames
Codec ID : 27
Duration : 1h 0mn
Bit rate : 12.3 Mbps
Width : 1 920 pixels
Height : 1 080 pixels
Display aspect ratio : 16:9
Frame rate : 29.970 fps
Color space : YUV
Chroma subsampling : 4:2:0
Bit depth : 8 bits
Scan type : MBAFF
Bits/(Pixel*Frame) : 0.198
Stream size : 5.18 GiB (92%)

Audio
ID : 1329 (0x531)
Menu ID : 1336 (0x538)
Format : AC-3
Format/Info : Audio Coding 3
Mode extension : CM (complete main)
Format settings, Endianness : Big
Codec ID : 129
Duration : 1h 0mn
Bit rate mode : Constant
Bit rate : 384 Kbps
Channel(s) : 6 channels
Channel positions : Front: L C R, Side: L R, LFE
Sampling rate : 48.0 KHz
Bit depth : 16 bits
Compression mode : Lossy
Stream size : 165 MiB (3%)
Language : English



Rock in Rio 2019 [29xHDTV, 1080i]

Rock in Rio 2019 [29xHDTV, 1080i]

Rock in Rio 2019 [29xHDTV, 1080i]

Iron Maiden:

ces High
Where Eagles Dare
2 Minutes to Midnight
The Clansman
The Trooper
Revelations
For the Greater Good of God
The Wicker Man
Sign of the Cross
Flight of Icarus
Fear of the Dark
The Number of the Beast
Iron Maiden

Encore:
The Evil That Men Do
Hallowed Be Thy Name
Run to the Hills
Always Look on the Bright Side of Life (Monty Python song)

General
ID : 1 (0x1)
Complete name : E:\Mix\Rock in Rio 2019\2\Iron Maiden - Rock in Rio 2019.ts
Format : MPEG-TS
File size : 11.3 GiB
Duration : 2h 0mn
Overall bit rate mode : Variable
Overall bit rate : 13.4 Mbps

Video
ID : 1328 (0x530)
Menu ID : 1336 (0x538)
Format : AVC
Format/Info : Advanced Video Codec
Format profile : High@L4.0
Format settings, CABAC : Yes
Format settings, ReFrames : 4 frames
Codec ID : 27
Duration : 2h 0mn
Bit rate : 12.3 Mbps
Width : 1 920 pixels
Height : 1 080 pixels
Display aspect ratio : 16:9
Frame rate : 29.970 fps
Color space : YUV
Chroma subsampling : 4:2:0
Bit depth : 8 bits
Scan type : MBAFF
Bits/(Pixel*Frame) : 0.198
Stream size : 10.4 GiB (92%)

Audio
ID : 1329 (0x531)
Menu ID : 1336 (0x538)
Format : AC-3
Format/Info : Audio Coding 3
Mode extension : CM (complete main)
Format settings, Endianness : Big
Codec ID : 129
Duration : 2h 0mn
Bit rate mode : Constant
Bit rate : 384 Kbps
Channel(s) : 6 channels
Channel positions : Front: L C R, Side: L R, LFE
Sampling rate : 48.0 KHz
Bit depth : 16 bits
Compression mode : Lossy
Stream size : 331 MiB (3%)
Language : English



Rock in Rio 2019 [29xHDTV, 1080i]

Rock in Rio 2019 [29xHDTV, 1080i]

Rock in Rio 2019 [29xHDTV, 1080i]

Panic! at the Disco:

Victorious
(Fuck A) Silver Lining
Don't Threaten Me With a Good Time
Ready to Go (Get Me Out of My Mind)
LA Devotee
Hey Look Ma, I Made It
Hallelujah
Crazy=Genius
The Ballad of Mona Lisa
Nine in the Afternoon
Girls/Girls/Boys
Dancing's Not a Crime
This Is Gospel
Miss Jackson
I Write Sins Not Tragedies
Bohemian Rhapsody (Queen cover)
Emperor's New Clothes
Say Amen (Saturday Night)
High Hopes

General
ID : 1 (0x1)
Complete name : E:\Mix\Rock in Rio 2019\2\Panic! at the Disco - Rock in Rio 2019.ts
Format : MPEG-TS
File size : 8.02 GiB
Duration : 1h 27mn
Overall bit rate mode : Variable
Overall bit rate : 13.1 Mbps

Video
ID : 1328 (0x530)
Menu ID : 1336 (0x538)
Format : AVC
Format/Info : Advanced Video Codec
Format profile : High@L4.0
Format settings, CABAC : Yes
Format settings, ReFrames : 4 frames
Codec ID : 27
Duration : 1h 27mn
Bit rate : 12.1 Mbps
Width : 1 920 pixels
Height : 1 080 pixels
Display aspect ratio : 16:9
Frame rate : 29.970 fps
Color space : YUV
Chroma subsampling : 4:2:0
Bit depth : 8 bits
Scan type : MBAFF
Bits/(Pixel*Frame) : 0.194
Stream size : 7.39 GiB (92%)

Audio
ID : 1329 (0x531)
Menu ID : 1336 (0x538)
Format : AC-3
Format/Info : Audio Coding 3
Mode extension : CM (complete main)
Format settings, Endianness : Big
Codec ID : 129
Duration : 1h 27mn
Bit rate mode : Constant
Bit rate : 384 Kbps
Channel(s) : 6 channels
Channel positions : Front: L C R, Side: L R, LFE
Sampling rate : 48.0 KHz
Bit depth : 16 bits
Compression mode : Lossy
Stream size : 240 MiB (3%)
Language : English



Rock in Rio 2019 [29xHDTV, 1080i]

Rock in Rio 2019 [29xHDTV, 1080i]

Rock in Rio 2019 [29xHDTV, 1080i]

Red Hot Chili Peppers:

Intro Jam
Can't Stop
The Zephyr Song
Dark Necessities
Dani California
Hey
I Wanna Be Your Dog (The Stooges cover)
Right on Time
The Adventures of Rain Dance Maggie
Pea
Sikamikanico (live debut, gift to Josh for his birthday)
Go Robot
Californication
What Is Soul? (Funkadelic cover)
Just What I Needed (The Cars cover)
Aeroplane
The Power of Equality (dedicated to the Amazon rainforest)
Soul to Squeeze
By the Way

Encore:
I Don't Wanna Grow Up (Tom Waits cover) (Josh solo)
Goodbye Angels
Give It Away

General
ID : 1 (0x1)
Complete name : E:\Mix\Rock in Rio 2019\2\Red Hot Chili Peppers - Rock in Rio 2019.ts
Format : MPEG-TS
File size : 10.6 GiB
Duration : 1h 56mn
Overall bit rate mode : Variable
Overall bit rate : 13.1 Mbps

Video
ID : 1328 (0x530)
Menu ID : 1336 (0x538)
Format : AVC
Format/Info : Advanced Video Codec
Format profile : High@L4.0
Format settings, CABAC : Yes
Format settings, ReFrames : 4 frames
Codec ID : 27
Duration : 1h 56mn
Bit rate : 12.0 Mbps
Width : 1 920 pixels
Height : 1 080 pixels
Display aspect ratio : 16:9
Frame rate : 29.970 fps
Color space : YUV
Chroma subsampling : 4:2:0
Bit depth : 8 bits
Scan type : MBAFF
Bits/(Pixel*Frame) : 0.194
Stream size : 9.80 GiB (92%)

Audio
ID : 1329 (0x531)
Menu ID : 1336 (0x538)
Format : AC-3
Format/Info : Audio Coding 3
Mode extension : CM (complete main)
Format settings, Endianness : Big
Codec ID : 129
Duration : 1h 56mn
Bit rate mode : Constant
Bit rate : 384 Kbps
Channel(s) : 6 channels
Channel positions : Front: L C R, Side: L R, LFE
Sampling rate : 48.0 KHz
Bit depth : 16 bits
Compression mode : Lossy
Stream size : 320 MiB (3%)
Language : English



Rock in Rio 2019 [29xHDTV, 1080i]

Rock in Rio 2019 [29xHDTV, 1080i]

Rock in Rio 2019 [29xHDTV, 1080i]

Scorpions:

Going Out With a Bang
Make It Real
The Zoo
Coast to Coast
Top of the Bill / Steamrock Fever / Speedy's Coming / Catch Your Train (70's medley)
We Built This House
Delicate Dance
Cidade Maravilhosa ([traditional] cover) (Tribute to Rio)
Send Me an Angel
Wind of Change
Tease Me Please Me
Drum Solo
Blackout
Big City Nights

Encore:
Still Loving You
Rock You Like a Hurricane

General
ID : 1 (0x1)
Complete name : E:\Mix\Rock in Rio 2019\2\Scorpions - Rock in Rio 2019.ts
Format : MPEG-TS
File size : 9.56 GiB
Duration : 1h 41mn
Overall bit rate mode : Variable
Overall bit rate : 13.4 Mbps

Video
ID : 1328 (0x530)
Menu ID : 1336 (0x538)
Format : AVC
Format/Info : Advanced Video Codec
Format profile : High@L4.0
Format settings, CABAC : Yes
Format settings, ReFrames : 4 frames
Codec ID : 27
Duration : 1h 41mn
Bit rate : 12.4 Mbps
Width : 1 920 pixels
Height : 1 080 pixels
Display aspect ratio : 16:9
Frame rate : 29.970 fps
Color space : YUV
Chroma subsampling : 4:2:0
Bit depth : 8 bits
Scan type : MBAFF
Bits/(Pixel*Frame) : 0.199
Stream size : 8.81 GiB (92%)

Audio
ID : 1329 (0x531)
Menu ID : 1336 (0x538)
Format : AC-3
Format/Info : Audio Coding 3
Mode extension : CM (complete main)
Format settings, Endianness : Big
Codec ID : 129
Duration : 1h 41mn
Bit rate mode : Constant
Bit rate : 384 Kbps
Channel(s) : 6 channels
Channel positions : Front: L C R, Side: L R, LFE
Sampling rate : 48.0 KHz
Bit depth : 16 bits
Compression mode : Lossy
Stream size : 280 MiB (3%)
Language : English



Rock in Rio 2019 [29xHDTV, 1080i]

Rock in Rio 2019 [29xHDTV, 1080i]

Rock in Rio 2019 [29xHDTV, 1080i]

Anthrax:

Caught in a Mosh (preceded by Cowboys From Hell intro snippet)
Got the Time (Joe Jackson cover)
Madhouse
I Am the Law
Now It's Dark
Efilnikufesin (N.F.L.)
A.I.R.
Antisocial (Trust cover)
Indians (with Chuck Billy) (with Cowboys From Hell final snippet)

General
Unique ID : 122789607313467940548479121813846939960 (0x5C606B0C6EBC234FC99B7BB42F0CD938)
Complete name : E:\Mix\Rock in Rio 2019\3\Anthrax - Rock in Rio 2019.mkv
Format : Matroska
Format version : Version 4 / Version 2
File size : 6.16 GiB
Duration : 56mn 57s
Overall bit rate mode : Variable
Overall bit rate : 15.5 Mbps
Encoded date : UTC 2019-10-08 22:47:38
Writing application : mkvmerge v38.0.0 ('The Silent Type') 64-bit
Writing library : libebml v1.3.9 + libmatroska v1.5.2
DURATION : 00:56:57.000000000
NUMBER_OF_FRAMES : 142375
NUMBER_OF_BYTES : 109344000
_STATISTICS_WRITING_APP : mkvmerge v38.0.0 ('The Silent Type') 64-bit
_STATISTICS_WRITING_DATE_UTC : 2019-10-08 22:47:38
_STATISTICS_TAGS : BPS DURATION NUMBER_OF_FRAMES NUMBER_OF_BYTES

Video
ID : 1
Format : AVC
Format/Info : Advanced Video Codec
Format profile : Main@L4.0
Format settings, CABAC : Yes
Format settings, ReFrames : 4 frames
Format settings, GOP : M=3, N=15
Codec ID : V_MPEG4/ISO/AVC
Duration : 56mn 57s
Bit rate mode : Variable
Bit rate : 14.7 Mbps
Maximum bit rate : 15.0 Mbps
Width : 1 920 pixels
Height : 1 080 pixels
Display aspect ratio : 16:9
Frame rate mode : Constant
Frame rate : 29.940 fps
Original frame rate : 29.970 fps
Color space : YUV
Chroma subsampling : 4:2:0
Bit depth : 8 bits
Scan type : Interlaced
Scan order : Top Field First
Bits/(Pixel*Frame) : 0.236
Stream size : 5.84 GiB (95%)
Language : English
Default : Yes
Forced : No
Color primaries : BT.709
Transfer characteristics : BT.709
Matrix coefficients : BT.709

Audio #1
ID : 2
Format : MPEG Audio
Format version : Version 1
Format profile : Layer 2
Codec ID : A_MPEG/L2
Codec ID/Hint : MP2
Duration : 56mn 57s
Bit rate mode : Constant
Bit rate : 256 Kbps
Channel(s) : 2 channels
Sampling rate : 48.0 KHz
Compression mode : Lossy
Delay relative to video : 20ms
Stream size : 104 MiB (2%)
Language : English
Default : Yes
Forced : No

Audio #2
ID : 3
Format : MPEG Audio
Format version : Version 1
Format profile : Layer 2
Codec ID : A_MPEG/L2
Codec ID/Hint : MP2
Duration : 56mn 57s
Bit rate mode : Constant
Bit rate : 256 Kbps
Channel(s) : 2 channels
Sampling rate : 48.0 KHz
Compression mode : Lossy
Delay relative to video : 20ms
Stream size : 104 MiB (2%)
Language : English
Default : No
Forced : No



Rock in Rio 2019 [29xHDTV, 1080i]

Rock in Rio 2019 [29xHDTV, 1080i]

Rock in Rio 2019 [29xHDTV, 1080i]

Charlie Puth:

How Long
Mother
We Don't Talk Anymore
Done for Me
Cheating on You (Live debut)
Boy
I Warned Myself
Suffer
One Call Away
Attention
See You Again (Wiz Khalifa cover)

General
Unique ID : 97284112598869516985344141045430980947 (0x49303D120DCA9AAA44416A165CCF9153)
Complete name : E:\Mix\Rock in Rio 2019\3\Charlie Puth - Rock in Rio 2019.mkv
Format : Matroska
Format version : Version 4 / Version 2
File size : 2.99 GiB
Duration : 27mn 39s
Overall bit rate mode : Variable
Overall bit rate : 15.5 Mbps
Encoded date : UTC 2019-10-08 23:06:58
Writing application : mkvmerge v38.0.0 ('The Silent Type') 64-bit
Writing library : libebml v1.3.9 + libmatroska v1.5.2
DURATION : 00:27:39.456000000
NUMBER_OF_FRAMES : 69144
NUMBER_OF_BYTES : 53102592
_STATISTICS_WRITING_APP : mkvmerge v38.0.0 ('The Silent Type') 64-bit
_STATISTICS_WRITING_DATE_UTC : 2019-10-08 23:06:58
_STATISTICS_TAGS : BPS DURATION NUMBER_OF_FRAMES NUMBER_OF_BYTES

Video
ID : 1
Format : AVC
Format/Info : Advanced Video Codec
Format profile : Main@L4.0
Format settings, CABAC : Yes
Format settings, ReFrames : 4 frames
Format settings, GOP : M=3, N=15
Codec ID : V_MPEG4/ISO/AVC
Duration : 27mn 39s
Bit rate mode : Variable
Bit rate : 14.7 Mbps
Maximum bit rate : 15.0 Mbps
Width : 1 920 pixels
Height : 1 080 pixels
Display aspect ratio : 16:9
Frame rate mode : Constant
Frame rate : 29.940 fps
Original frame rate : 29.970 fps
Color space : YUV
Chroma subsampling : 4:2:0
Bit depth : 8 bits
Scan type : Interlaced
Scan order : Top Field First
Bits/(Pixel*Frame) : 0.236
Stream size : 2.83 GiB (95%)
Language : English
Default : Yes
Forced : No
Color primaries : BT.709
Transfer characteristics : BT.709
Matrix coefficients : BT.709

Audio #1
ID : 2
Format : MPEG Audio
Format version : Version 1
Format profile : Layer 2
Codec ID : A_MPEG/L2
Codec ID/Hint : MP2
Duration : 27mn 39s
Bit rate mode : Constant
Bit rate : 256 Kbps
Channel(s) : 2 channels
Sampling rate : 48.0 KHz
Compression mode : Lossy
Delay relative to video : 4ms
Stream size : 50.6 MiB (2%)
Language : English
Default : Yes
Forced : No

Audio #2
ID : 3
Format : MPEG Audio
Format version : Version 1
Format profile : Layer 2
Codec ID : A_MPEG/L2
Codec ID/Hint : MP2
Duration : 27mn 39s
Bit rate mode : Constant
Bit rate : 256 Kbps
Channel(s) : 2 channels
Sampling rate : 48.0 KHz
Compression mode : Lossy
Delay relative to video : 4ms
Stream size : 50.6 MiB (2%)
Language : English
Default : No
Forced : No



Rock in Rio 2019 [29xHDTV, 1080i]

Rock in Rio 2019 [29xHDTV, 1080i]

Rock in Rio 2019 [29xHDTV, 1080i]

Goo Goo Dolls:

Big Machine
Slide
Indestructible
Here Is Gone
Black Balloon
So Alive
Miracle Pill
Name
Come to Me
Bringing on the Light
Stay With You
Better Days
Broadway
Iris

General
ID : 1 (0x1)
Complete name : E:\Mix\Rock in Rio 2019\3\Goo Goo Dolls - Rock in Rio 2019.ts
Format : MPEG-TS
File size : 5.74 GiB
Duration : 1h 1mn
Overall bit rate mode : Variable
Overall bit rate : 13.3 Mbps

Video
ID : 1328 (0x530)
Menu ID : 1336 (0x538)
Format : AVC
Format/Info : Advanced Video Codec
Format profile : High@L4.0
Format settings, CABAC : Yes
Format settings, ReFrames : 4 frames
Codec ID : 27
Duration : 1h 1mn
Bit rate : 12.2 Mbps
Width : 1 920 pixels
Height : 1 080 pixels
Display aspect ratio : 16:9
Frame rate : 29.970 fps
Color space : YUV
Chroma subsampling : 4:2:0
Bit depth : 8 bits
Scan type : MBAFF
Bits/(Pixel*Frame) : 0.197
Stream size : 5.29 GiB (92%)

Audio
ID : 1329 (0x531)
Menu ID : 1336 (0x538)
Format : AC-3
Format/Info : Audio Coding 3
Mode extension : CM (complete main)
Format settings, Endianness : Big
Codec ID : 129
Duration : 1h 1mn
Bit rate mode : Constant
Bit rate : 384 Kbps
Channel(s) : 6 channels
Channel positions : Front: L C R, Side: L R, LFE
Sampling rate : 48.0 KHz
Bit depth : 16 bits
Compression mode : Lossy
Stream size : 170 MiB (3%)
Language : English



Rock in Rio 2019 [29xHDTV, 1080i]

Rock in Rio 2019 [29xHDTV, 1080i]

Rock in Rio 2019 [29xHDTV, 1080i]

Helloween:

I'm Alive
Dr. Stein
Eagle Fly Free
Perfect Gentleman
Ride the Sky (Kai Hansen on vocals.)
A Tale That Wasn't Right
Power
How Many Tears (Hansen, Deris & Kiske on vocals.)
Future World
I Want Out

General
Unique ID : 54994839645466121165014597419516173938 (0x295F9EEFC368328ABF0FA7870BFA1E72)
Complete name : E:\Mix\Rock in Rio 2019\3\Helloween - Rock in Rio 2019.mkv
Format : Matroska
Format version : Version 4 / Version 2
File size : 6.50 GiB
Duration : 1h 0mn
Overall bit rate mode : Variable
Overall bit rate : 15.5 Mbps
Encoded date : UTC 2019-10-08 22:49:42
Writing application : mkvmerge v38.0.0 ('The Silent Type') 64-bit
Writing library : libebml v1.3.9 + libmatroska v1.5.2
DURATION : 01:00:02.904000000
NUMBER_OF_FRAMES : 150121
NUMBER_OF_BYTES : 115292928
_STATISTICS_WRITING_APP : mkvmerge v38.0.0 ('The Silent Type') 64-bit
_STATISTICS_WRITING_DATE_UTC : 2019-10-08 22:49:42
_STATISTICS_TAGS : BPS DURATION NUMBER_OF_FRAMES NUMBER_OF_BYTES

Video
ID : 1
Format : AVC
Format/Info : Advanced Video Codec
Format profile : Main@L4.0
Format settings, CABAC : Yes
Format settings, ReFrames : 4 frames
Format settings, GOP : M=3, N=15
Codec ID : V_MPEG4/ISO/AVC
Duration : 1h 0mn
Bit rate mode : Variable
Bit rate : 14.7 Mbps
Maximum bit rate : 15.0 Mbps
Width : 1 920 pixels
Height : 1 080 pixels
Display aspect ratio : 16:9
Frame rate mode : Constant
Frame rate : 30.000 fps
Original frame rate : 29.970 fps
Color space : YUV
Chroma subsampling : 4:2:0
Bit depth : 8 bits
Scan type : Interlaced
Scan order : Top Field First
Bits/(Pixel*Frame) : 0.236
Stream size : 6.15 GiB (95%)
Language : English
Default : Yes
Forced : No
Color primaries : BT.709
Transfer characteristics : BT.709
Matrix coefficients : BT.709

Audio #1
ID : 2
Format : MPEG Audio
Format version : Version 1
Format profile : Layer 2
Codec ID : A_MPEG/L2
Codec ID/Hint : MP2
Duration : 1h 0mn
Bit rate mode : Constant
Bit rate : 256 Kbps
Channel(s) : 2 channels
Sampling rate : 48.0 KHz
Compression mode : Lossy
Delay relative to video : 12ms
Stream size : 110 MiB (2%)
Language : English
Default : Yes
Forced : No

Audio #2
ID : 3
Format : MPEG Audio
Format version : Version 1
Format profile : Layer 2
Codec ID : A_MPEG/L2
Codec ID/Hint : MP2
Duration : 1h 0mn
Bit rate mode : Constant
Bit rate : 256 Kbps
Channel(s) : 2 channels
Sampling rate : 48.0 KHz
Compression mode : Lossy
Delay relative to video : 12ms
Stream size : 110 MiB (2%)
Language : English
Default : No
Forced : No



Rock in Rio 2019 [29xHDTV, 1080i]

Rock in Rio 2019 [29xHDTV, 1080i]

Rock in Rio 2019 [29xHDTV, 1080i]

Imagine Dragons:

Act I
Believer
It's Time

Act II
Whatever It Takes
Natural
Gold

Act III
Next to Me (Shortened; acapella)
Bad Liar (Shortened; on piano)
Shots
Yesterday
Start Over
Birds (Shortened)
Hear Me

Act IV
Every Breath You Take (The Police cover)
I'll Make It Up to You
Mouth of the River
I'm So Sorry
Thunder

Act V
Zero
Demons
On Top of the World
Radioactive

General
Unique ID : 310609488082587922453377102523496714714 (0xE9AD361F06696D5EB0A59260C020D1DA)
Complete name : E:\Mix\Rock in Rio 2019\3\Imagine Dragons - Rock in Rio 2019.mkv
Format : Matroska
Format version : Version 4 / Version 2
File size : 11.6 GiB
Duration : 1h 46mn
Overall bit rate mode : Variable
Overall bit rate : 15.5 Mbps
Encoded date : UTC 2019-10-08 23:13:18
Writing application : mkvmerge v38.0.0 ('The Silent Type') 64-bit
Writing library : libebml v1.3.9 + libmatroska v1.5.2
DURATION : 01:46:59.904000000
NUMBER_OF_FRAMES : 267496
NUMBER_OF_BYTES : 205436928
_STATISTICS_WRITING_APP : mkvmerge v38.0.0 ('The Silent Type') 64-bit
_STATISTICS_WRITING_DATE_UTC : 2019-10-08 23:13:18
_STATISTICS_TAGS : BPS DURATION NUMBER_OF_FRAMES NUMBER_OF_BYTES

Video
ID : 1
Format : AVC
Format/Info : Advanced Video Codec
Format profile : Main@L4.0
Format settings, CABAC : Yes
Format settings, ReFrames : 4 frames
Format settings, GOP : M=3, N=15
Codec ID : V_MPEG4/ISO/AVC
Duration : 1h 47mn
Bit rate mode : Variable
Bit rate : 14.7 Mbps
Maximum bit rate : 15.0 Mbps
Width : 1 920 pixels
Height : 1 080 pixels
Display aspect ratio : 16:9
Frame rate mode : Constant
Frame rate : 30.000 fps
Original frame rate : 29.970 fps
Color space : YUV
Chroma subsampling : 4:2:0
Bit depth : 8 bits
Scan type : Interlaced
Scan order : Top Field First
Bits/(Pixel*Frame) : 0.236
Stream size : 11.0 GiB (95%)
Language : English
Default : Yes
Forced : No
Color primaries : BT.709
Transfer characteristics : BT.709
Matrix coefficients : BT.709

Audio #1
ID : 2
Format : MPEG Audio
Format version : Version 1
Format profile : Layer 2
Codec ID : A_MPEG/L2
Codec ID/Hint : MP2
Duration : 1h 46mn
Bit rate mode : Constant
Bit rate : 256 Kbps
Channel(s) : 2 channels
Sampling rate : 48.0 KHz
Compression mode : Lossy
Delay relative to video : 14ms
Stream size : 196 MiB (2%)
Language : English
Default : Yes
Forced : No

Audio #2
ID : 3
Format : MPEG Audio
Format version : Version 1
Format profile : Layer 2
Codec ID : A_MPEG/L2
Codec ID/Hint : MP2
Duration : 1h 46mn
Bit rate mode : Constant
Bit rate : 256 Kbps
Channel(s) : 2 channels
Sampling rate : 48.0 KHz
Compression mode : Lossy
Delay relative to video : 14ms
Stream size : 196 MiB (2%)
Language : English
Default : No
Forced : No



Rock in Rio 2019 [29xHDTV, 1080i]

Rock in Rio 2019 [29xHDTV, 1080i]

Rock in Rio 2019 [29xHDTV, 1080i]

Nickelback:

Feed the Machine
Gotta Be Somebody
Photograph
Savin' Me
Far Away
Figured You Out (shortened, only riff & intro)
Someday
Hero (Chad Kroeger song)
Sad but True (Metallica cover) (partial, played live for the 1… more )
Animals
Rockstar
When We Stand Together
How You Remind Me
Burn It to the Ground

General
Unique ID : 242071713386200707591264372163514770097 (0xB61D50EF342E7351C224A3181A88A2B1)
Complete name : E:\Mix\Rock in Rio 2019\3\Nickelback - Rock in Rio 2019.mkv
Format : Matroska
Format version : Version 4 / Version 2
File size : 6.90 GiB
Duration : 1h 3mn
Overall bit rate mode : Variable
Overall bit rate : 15.5 Mbps
Encoded date : UTC 2019-10-08 23:16:25
Writing application : mkvmerge v38.0.0 ('The Silent Type') 64-bit
Writing library : libebml v1.3.9 + libmatroska v1.5.2
DURATION : 01:03:45.216000000
NUMBER_OF_FRAMES : 159384
NUMBER_OF_BYTES : 122406912
_STATISTICS_WRITING_APP : mkvmerge v38.0.0 ('The Silent Type') 64-bit
_STATISTICS_WRITING_DATE_UTC : 2019-10-08 23:16:25
_STATISTICS_TAGS : BPS DURATION NUMBER_OF_FRAMES NUMBER_OF_BYTES

Video
ID : 1
Format : AVC
Format/Info : Advanced Video Codec
Format profile : Main@L4.0
Format settings, CABAC : Yes
Format settings, ReFrames : 4 frames
Format settings, GOP : M=3, N=15
Codec ID : V_MPEG4/ISO/AVC
Duration : 1h 3mn
Bit rate mode : Variable
Bit rate : 14.7 Mbps
Maximum bit rate : 15.0 Mbps
Width : 1 920 pixels
Height : 1 080 pixels
Display aspect ratio : 16:9
Frame rate mode : Constant
Frame rate : 29.940 fps
Original frame rate : 29.970 fps
Color space : YUV
Chroma subsampling : 4:2:0
Bit depth : 8 bits
Scan type : Interlaced
Scan order : Top Field First
Bits/(Pixel*Frame) : 0.236
Stream size : 6.53 GiB (95%)
Language : English
Default : Yes
Forced : No
Color primaries : BT.709
Transfer characteristics : BT.709
Matrix coefficients : BT.709

Audio #1
ID : 2
Format : MPEG Audio
Format version : Version 1
Format profile : Layer 2
Codec ID : A_MPEG/L2
Codec ID/Hint : MP2
Duration : 1h 3mn
Bit rate mode : Constant
Bit rate : 256 Kbps
Channel(s) : 2 channels
Sampling rate : 48.0 KHz
Compression mode : Lossy
Delay relative to video : 19ms
Stream size : 117 MiB (2%)
Language : English
Default : Yes
Forced : No

Audio #2
ID : 3
Format : MPEG Audio
Format version : Version 1
Format profile : Layer 2
Codec ID : A_MPEG/L2
Codec ID/Hint : MP2
Duration : 1h 3mn
Bit rate mode : Constant
Bit rate : 256 Kbps
Channel(s) : 2 channels
Sampling rate : 48.0 KHz
Compression mode : Lossy
Delay relative to video : 19ms
Stream size : 117 MiB (2%)
Language : English
Default : No
Forced : No



Rock in Rio 2019 [29xHDTV, 1080i]

Rock in Rio 2019 [29xHDTV, 1080i]

Rock in Rio 2019 [29xHDTV, 1080i]

H.E.R.:

Carried Away
2
Racks
Best Part (Daniel Caesar cover)
Hard Place
Make It Rain (Foy Vance cover)
Focus
Ex-Factor (Lauryn Hill cover)
DJ Break / Percussion Solo
Slide
As I Am
Lights On
Fate (With "Earth Song" snippet by Michael Jackson)
H.E.R. Guitar Solo

General
ID : 1 (0x1)
Complete name : E:\Mix\Rock in Rio 2019\4\H.E.R. - Rock in Rio 2019.ts
Format : MPEG-TS
File size : 5.59 GiB
Duration : 1h 12mn
Overall bit rate mode : Variable
Overall bit rate : 11.1 Mbps

Video
ID : 1328 (0x530)
Menu ID : 1336 (0x538)
Format : AVC
Format/Info : Advanced Video Codec
Format profile : High@L4.0
Format settings, CABAC : Yes
Format settings, ReFrames : 4 frames
Codec ID : 27
Duration : 1h 12mn
Bit rate : 10.2 Mbps
Width : 1 920 pixels
Height : 1 080 pixels
Display aspect ratio : 16:9
Frame rate : 29.970 fps
Color space : YUV
Chroma subsampling : 4:2:0
Bit depth : 8 bits
Scan type : MBAFF
Bits/(Pixel*Frame) : 0.163
Stream size : 5.12 GiB (92%)

Audio
ID : 1329 (0x531)
Menu ID : 1336 (0x538)
Format : AC-3
Format/Info : Audio Coding 3
Mode extension : CM (complete main)
Format settings, Endianness : Big
Codec ID : 129
Duration : 1h 12mn
Bit rate mode : Constant
Bit rate : 384 Kbps
Channel(s) : 6 channels
Channel positions : Front: L C R, Side: L R, LFE
Sampling rate : 48.0 KHz
Bit depth : 16 bits
Compression mode : Lossy
Stream size : 198 MiB (3%)
Language : English



Rock in Rio 2019 [29xHDTV, 1080i]

Rock in Rio 2019 [29xHDTV, 1080i]

Muse:

Algorithm (Alternate Reality Version; shortened)
Pressure
[Drill Sergeant]
Psycho
Uprising (Extended intro and outro)
Propaganda
Plug In Baby
Pray (High Valyrian) (Matthew Bellamy song)
The Dark Side
Supermassive Black Hole (with 'Close Encounters' intro)
Thought Contagion
Interlude
Hysteria (ACDC’s “Back in Black” snippet outro)
The 2nd Law: Unsustainable
Dig Down (Acoustic Gospel Version)
STT Interstitial 1
Madness
Mercy
Time Is Running Out
Prelude
Starlight
STT Interstitial 2
Algorithm
STT Interstitial 3
Stockholm Syndrome / Assassin / Reapers / The Handler / New Born (with Deftones "Headup" outro)
Knights of Cydonia (Ennio Morricone's "Man with a Harmonica" intro)

General
ID : 1 (0x1)
Complete name : E:\Mix\Rock in Rio 2019\4\Muse - Rock in Rio 2019.ts
Format : MPEG-TS
File size : 9.98 GiB
Duration : 1h 49mn
Overall bit rate mode : Variable
Overall bit rate : 13.1 Mbps

Video
ID : 1328 (0x530)
Menu ID : 1336 (0x538)
Format : AVC
Format/Info : Advanced Video Codec
Format profile : High@L4.0
Format settings, CABAC : Yes
Format settings, ReFrames : 4 frames
Codec ID : 27
Duration : 1h 49mn
Bit rate : 12.1 Mbps
Width : 1 920 pixels
Height : 1 080 pixels
Display aspect ratio : 16:9
Frame rate : 29.970 fps
Color space : YUV
Chroma subsampling : 4:2:0
Bit depth : 8 bits
Scan type : MBAFF
Bits/(Pixel*Frame) : 0.194
Stream size : 9.19 GiB (92%)

Audio
ID : 1329 (0x531)
Menu ID : 1336 (0x538)
Format : AC-3
Format/Info : Audio Coding 3
Mode extension : CM (complete main)
Format settings, Endianness : Big
Codec ID : 129
Duration : 1h 49mn
Bit rate mode : Constant
Bit rate : 384 Kbps
Channel(s) : 6 channels
Channel positions : Front: L C R, Side: L R, LFE
Sampling rate : 48.0 KHz
Bit depth : 16 bits
Compression mode : Lossy
Stream size : 300 MiB (3%)
Language : English



Rock in Rio 2019 [29xHDTV, 1080i]

Rock in Rio 2019 [29xHDTV, 1080i]

Nervosa:

Horrordome
Intolerance Means War
Hostages
Enslave
Time of Death
Guerra Santa
Kill the Silence
Raise Your Fist!
Fear, Violence and Massacre
Masked Betrayer
Death!
Never Forget, Never Repeat
Into Moshpit

General
ID : 1 (0x1)
Complete name : E:\Mix\Rock in Rio 2019\4\Nervosa - Rock in Rio 2019.ts
Format : MPEG-TS
File size : 6.61 GiB
Duration : 1h 10mn
Overall bit rate mode : Variable
Overall bit rate : 13.5 Mbps

Video
ID : 1328 (0x530)
Menu ID : 1336 (0x538)
Format : AVC
Format/Info : Advanced Video Codec
Format profile : High@L4.0
Format settings, CABAC : Yes
Format settings, ReFrames : 4 frames
Codec ID : 27
Duration : 1h 10mn
Bit rate : 12.4 Mbps
Width : 1 920 pixels
Height : 1 080 pixels
Display aspect ratio : 16:9
Frame rate : 29.970 fps
Color space : YUV
Chroma subsampling : 4:2:0
Bit depth : 8 bits
Scan type : MBAFF
Bits/(Pixel*Frame) : 0.200
Stream size : 6.10 GiB (92%)

Audio
ID : 1329 (0x531)
Menu ID : 1336 (0x538)
Format : AC-3
Format/Info : Audio Coding 3
Mode extension : CM (complete main)
Format settings, Endianness : Big
Codec ID : 129
Duration : 1h 10mn
Bit rate mode : Constant
Bit rate : 384 Kbps
Channel(s) : 6 channels
Channel positions : Front: L C R, Side: L R, LFE
Sampling rate : 48.0 KHz
Bit depth : 16 bits
Compression mode : Lossy
Stream size : 193 MiB (3%)
Language : English



Rock in Rio 2019 [29xHDTV, 1080i]

Rock in Rio 2019 [29xHDTV, 1080i]

Nile Rodgers & Chic:

Chic Cheer (Chic cover)
Dance, Dance, Dance (Yowsah, Yowsah, Yowsah) (Chic cover)
Everybody Dance (Chic cover)
I Want Your Love (Chic cover)
I'm Coming Out (Diana Ross cover)
Upside Down (Diana Ross cover)
He's the Greatest Dancer / We Are Family (Sister Sledge cover)
Lost in Music (Sister Sledge cover) (Band Intro)
Notorious (Duran Duran cover)
Get Lucky (Daft Punk cover)
Let's Dance (David Bowie cover)

Encore:
Le Freak (Chic cover)
Good Times (Chic cover)

General
ID : 1 (0x1)
Complete name : E:\Mix\Rock in Rio 2019\4\Nile Rodgers & Chic - Rock in Rio 2019.ts
Format : MPEG-TS
File size : 6.33 GiB
Duration : 1h 8mn
Overall bit rate mode : Variable
Overall bit rate : 13.2 Mbps

Video
ID : 1328 (0x530)
Menu ID : 1336 (0x538)
Format : AVC
Format/Info : Advanced Video Codec
Format profile : High@L4.0
Format settings, CABAC : Yes
Format settings, ReFrames : 4 frames
Codec ID : 27
Duration : 1h 8mn
Bit rate : 12.2 Mbps
Width : 1 920 pixels
Height : 1 080 pixels
Display aspect ratio : 16:9
Frame rate : 29.970 fps
Color space : YUV
Chroma subsampling : 4:2:0
Bit depth : 8 bits
Scan type : MBAFF
Bits/(Pixel*Frame) : 0.196
Stream size : 5.83 GiB (92%)

Audio
ID : 1329 (0x531)
Menu ID : 1336 (0x538)
Format : AC-3
Format/Info : Audio Coding 3
Mode extension : CM (complete main)
Format settings, Endianness : Big
Codec ID : 129
Duration : 1h 8mn
Bit rate mode : Constant
Bit rate : 384 Kbps
Channel(s) : 6 channels
Channel positions : Front: L C R, Side: L R, LFE
Sampling rate : 48.0 KHz
Bit depth : 16 bits
Compression mode : Lossy
Stream size : 188 MiB (3%)
Language : English



Rock in Rio 2019 [29xHDTV, 1080i]

Rock in Rio 2019 [29xHDTV, 1080i]

P!nk:

Act I
Get the Party Started
Beautiful Trauma
Just Like a Pill
Who Knew

Act II
Revenge Land (video interlude)
Funhouse / Just a Girl (with introduction of the band)
Hustle

Act III
Secrets Film (video interlude)
Secrets

Act IV
Nature
Try
Just Give Me a Reason
Just Like Fire

Act V
Women Are Strong (video interlude)
What About Us
We Are the Champions (Queen cover) (snippet)
Walk Me Home (acoustic)
I Am Here
F**kin' Perfect

Act VI
Song played from tape
My Daughter Is Beautiful (video interlude)
Raise Your Glass
Blow Me (One Last Kiss)
Can We Pretend

Encore:
So What

General
ID : 1 (0x1)
Complete name : E:\Mix\Rock in Rio 2019\4\P!nk (Pink) - Rock in Rio 2019.ts
Format : MPEG-TS
File size : 9.42 GiB
Duration : 1h 43mn
Overall bit rate mode : Variable
Overall bit rate : 13.0 Mbps

Video
ID : 1328 (0x530)
Menu ID : 1336 (0x538)
Format : AVC
Format/Info : Advanced Video Codec
Format profile : High@L4.0
Format settings, CABAC : Yes
Format settings, ReFrames : 4 frames
Codec ID : 27
Duration : 1h 43mn
Bit rate : 12.0 Mbps
Width : 1 920 pixels
Height : 1 080 pixels
Display aspect ratio : 16:9
Frame rate : 29.970 fps
Color space : YUV
Chroma subsampling : 4:2:0
Bit depth : 8 bits
Scan type : MBAFF
Bits/(Pixel*Frame) : 0.193
Stream size : 8.67 GiB (92%)

Audio
ID : 1329 (0x531)
Menu ID : 1336 (0x538)
Format : AC-3
Format/Info : Audio Coding 3
Mode extension : CM (complete main)
Format settings, Endianness : Big
Codec ID : 129
Duration : 1h 43mn
Bit rate mode : Constant
Bit rate : 384 Kbps
Channel(s) : 6 channels
Channel positions : Front: L C R, Side: L R, LFE
Sampling rate : 48.0 KHz
Bit depth : 16 bits
Compression mode : Lossy
Stream size : 285 MiB (3%)
Language : English



Rock in Rio 2019 [29xHDTV, 1080i]

Rock in Rio 2019 [29xHDTV, 1080i]

Sepultura:

Arise
Territory
Phantom Self
Choke
Attitude
Inner Self
Kairos
Carry On (Angra cover) (snippet)
Refuse/Resist
Angel (Massive Attack cover)
Isolation (new song premiere)
Ratamahatta
Roots Bloody Roots

General
Unique ID : 55479727355793805238555906020869778109 (0x29BD01BF17C87C76A0A30CBE8389AABD)
Complete name : E:\Mix\Rock in Rio 2019\4\Sepultura - Rock in Rio 2019.mkv
Format : Matroska
Format version : Version 4 / Version 2
File size : 6.22 GiB
Duration : 57mn 30s
Overall bit rate mode : Variable
Overall bit rate : 15.5 Mbps
Encoded date : UTC 2019-10-08 23:33:00
Writing application : mkvmerge v38.0.0 ('The Silent Type') 64-bit
Writing library : libebml v1.3.9 + libmatroska v1.5.2
DURATION : 00:57:30.648000000
NUMBER_OF_FRAMES : 143777
NUMBER_OF_BYTES : 110420736
_STATISTICS_WRITING_APP : mkvmerge v38.0.0 ('The Silent Type') 64-bit
_STATISTICS_WRITING_DATE_UTC : 2019-10-08 23:33:00
_STATISTICS_TAGS : BPS DURATION NUMBER_OF_FRAMES NUMBER_OF_BYTES

Video
ID : 1
Format : AVC
Format/Info : Advanced Video Codec
Format profile : Main@L4.0
Format settings, CABAC : Yes
Format settings, ReFrames : 4 frames
Format settings, GOP : M=3, N=15
Codec ID : V_MPEG4/ISO/AVC
Duration : 57mn 30s
Bit rate mode : Variable
Bit rate : 14.7 Mbps
Maximum bit rate : 15.0 Mbps
Width : 1 920 pixels
Height : 1 080 pixels
Display aspect ratio : 16:9
Frame rate mode : Constant
Frame rate : 30.000 fps
Original frame rate : 29.970 fps
Color space : YUV
Chroma subsampling : 4:2:0
Bit depth : 8 bits
Scan type : Interlaced
Scan order : Top Field First
Bits/(Pixel*Frame) : 0.236
Stream size : 5.89 GiB (95%)
Language : English
Default : Yes
Forced : No
Color primaries : BT.709
Transfer characteristics : BT.709
Matrix coefficients : BT.709

Audio #1
ID : 2
Format : MPEG Audio
Format version : Version 1
Format profile : Layer 2
Codec ID : A_MPEG/L2
Codec ID/Hint : MP2
Duration : 57mn 30s
Bit rate mode : Constant
Bit rate : 256 Kbps
Channel(s) : 2 channels
Sampling rate : 48.0 KHz
Compression mode : Lossy
Delay relative to video : 1ms
Stream size : 105 MiB (2%)
Language : English
Default : Yes
Forced : No

Audio #2
ID : 3
Format : MPEG Audio
Format version : Version 1
Format profile : Layer 2
Codec ID : A_MPEG/L2
Codec ID/Hint : MP2
Duration : 57mn 30s
Bit rate mode : Constant
Bit rate : 256 Kbps
Channel(s) : 2 channels
Sampling rate : 48.0 KHz
Compression mode : Lossy
Delay relative to video : 1ms
Stream size : 105 MiB (2%)
Language : English
Default : No
Forced : No



Rock in Rio 2019 [29xHDTV, 1080i]

Rock in Rio 2019 [29xHDTV, 1080i]

Slayer:

Repentless
Postmortem
Hate Worldwide
War Ensemble
Disciple
Seasons in the Abyss
Mandatory Suicide
Hell Awaits
South of Heaven
Raining Blood
Black Magic
Dead Skin Mask
Angel of Death

General
Unique ID : 49106989224198300399867781352873291985 (0x24F1A97F8DA3478711465BB07F1470D1)
Complete name : E:\Mix\Rock in Rio 2019\4\Slayer - Rock in Rio 2019.mkv
Format : Matroska
Format version : Version 4 / Version 2
File size : 6.54 GiB
Duration : 1h 0mn
Overall bit rate mode : Variable
Overall bit rate : 15.5 Mbps
Encoded date : UTC 2019-10-08 22:58:55
Writing application : mkvmerge v38.0.0 ('The Silent Type') 64-bit
Writing library : libebml v1.3.9 + libmatroska v1.5.2
DURATION : 01:00:31.320000000
NUMBER_OF_FRAMES : 151305
NUMBER_OF_BYTES : 116202240
_STATISTICS_WRITING_APP : mkvmerge v38.0.0 ('The Silent Type') 64-bit
_STATISTICS_WRITING_DATE_UTC : 2019-10-08 22:58:55
_STATISTICS_TAGS : BPS DURATION NUMBER_OF_FRAMES NUMBER_OF_BYTES

Video
ID : 1
Format : AVC
Format/Info : Advanced Video Codec
Format profile : Main@L4.0
Format settings, CABAC : Yes
Format settings, ReFrames : 4 frames
Format settings, GOP : M=3, N=15
Codec ID : V_MPEG4/ISO/AVC
Duration : 1h 0mn
Bit rate mode : Variable
Bit rate : 14.6 Mbps
Maximum bit rate : 15.0 Mbps
Width : 1 920 pixels
Height : 1 080 pixels
Display aspect ratio : 16:9
Frame rate mode : Constant
Frame rate : 30.000 fps
Original frame rate : 29.970 fps
Color space : YUV
Chroma subsampling : 4:2:0
Bit depth : 8 bits
Scan type : Interlaced
Scan order : Top Field First
Bits/(Pixel*Frame) : 0.235
Stream size : 6.19 GiB (95%)
Language : English
Default : Yes
Forced : No
Color primaries : BT.709
Transfer characteristics : BT.709
Matrix coefficients : BT.709

Audio #1
ID : 2
Format : MPEG Audio
Format version : Version 1
Format profile : Layer 2
Codec ID : A_MPEG/L2
Codec ID/Hint : MP2
Duration : 1h 0mn
Bit rate mode : Constant
Bit rate : 256 Kbps
Channel(s) : 2 channels
Sampling rate : 48.0 KHz
Compression mode : Lossy
Delay relative to video : 8ms
Stream size : 111 MiB (2%)
Language : English
Default : Yes
Forced : No

Audio #2
ID : 3
Format : MPEG Audio
Format version : Version 1
Format profile : Layer 2
Codec ID : A_MPEG/L2
Codec ID/Hint : MP2
Duration : 1h 0mn
Bit rate mode : Constant
Bit rate : 256 Kbps
Channel(s) : 2 channels
Sampling rate : 48.0 KHz
Compression mode : Lossy
Delay relative to video : 8ms
Stream size : 111 MiB (2%)
Language : English
Default : No
Forced : No



Rock in Rio 2019 [29xHDTV, 1080i]

Rock in Rio 2019 [29xHDTV, 1080i]

The Black Eyed Peas:

Intro
Let's Get It Started
Imma Be
Rock That Body
Boom Boom Pow
Pump It (With "Seven Nation Army"… more )
Just Can't Get Enough (With presentation of Jessica Reynoso)
Rockin to the Beat (With "Mi Gente" beat by J Balvin)
Bebot (With "Taki taki" beat by DJ Snake)
Mami (Piso 21 cover) (with Piso 21)

Will.i.am DJ Set:

This Is Love (will.i.am song)
OMG (Usher cover)
#thatPower (will.i.am song) (With "Smells Like Teen Spirit" sample by Nirvana)
Scream & Shout (will.i.am song)

The Black Eyed Peas:

Don't Stop the Party
The Time (Dirty Bit)
Where Is the Love? (Dedicated to the rainforest)
Don't Lie (with Anitta)
eXplosion (with Anitta) (Live Debut with Anitta)
I Gotta Feeling

General
Unique ID : 237701364331749696099051236610061351049 (0xB2D39E1706331E132E4B5820E9DFB889)
Complete name : E:\Mix\Rock in Rio 2019\4\The Black Eyed Peas - Rock in Rio 2019.mkv
Format : Matroska
Format version : Version 4 / Version 2
File size : 8.70 GiB
Duration : 1h 20mn
Overall bit rate mode : Variable
Overall bit rate : 15.5 Mbps
Encoded date : UTC 2019-10-08 23:04:40
Writing application : mkvmerge v38.0.0 ('The Silent Type') 64-bit
Writing library : libebml v1.3.9 + libmatroska v1.5.2
DURATION : 01:20:21.816000000
NUMBER_OF_FRAMES : 200909
NUMBER_OF_BYTES : 154298112
_STATISTICS_WRITING_APP : mkvmerge v38.0.0 ('The Silent Type') 64-bit
_STATISTICS_WRITING_DATE_UTC : 2019-10-08 23:04:40
_STATISTICS_TAGS : BPS DURATION NUMBER_OF_FRAMES NUMBER_OF_BYTES

Video
ID : 1
Format : AVC
Format/Info : Advanced Video Codec
Format profile : Main@L4.0
Format settings, CABAC : Yes
Format settings, ReFrames : 4 frames
Format settings, GOP : M=3, N=15
Codec ID : V_MPEG4/ISO/AVC
Duration : 1h 20mn
Bit rate mode : Variable
Bit rate : 14.7 Mbps
Maximum bit rate : 15.0 Mbps
Width : 1 920 pixels
Height : 1 080 pixels
Display aspect ratio : 16:9
Frame rate mode : Constant
Frame rate : 29.940 fps
Original frame rate : 29.970 fps
Color space : YUV
Chroma subsampling : 4:2:0
Bit depth : 8 bits
Scan type : Interlaced
Scan order : Top Field First
Bits/(Pixel*Frame) : 0.236
Stream size : 8.23 GiB (95%)
Language : English
Default : Yes
Forced : No
Color primaries : BT.709
Transfer characteristics : BT.709
Matrix coefficients : BT.709

Audio #1
ID : 2
Format : MPEG Audio
Format version : Version 1
Format profile : Layer 2
Codec ID : A_MPEG/L2
Codec ID/Hint : MP2
Duration : 1h 20mn
Bit rate mode : Constant
Bit rate : 256 Kbps
Channel(s) : 2 channels
Sampling rate : 48.0 KHz
Compression mode : Lossy
Delay relative to video : 7ms
Stream size : 147 MiB (2%)
Language : English
Default : Yes
Forced : No

Audio #2
ID : 3
Format : MPEG Audio
Format version : Version 1
Format profile : Layer 2
Codec ID : A_MPEG/L2
Codec ID/Hint : MP2
Duration : 1h 20mn
Bit rate mode : Constant
Bit rate : 256 Kbps
Channel(s) : 2 channels
Sampling rate : 48.0 KHz
Compression mode : Lossy
Delay relative to video : 7ms
Stream size : 147 MiB (2%)
Language : English
Default : No
Forced : No



Rock in Rio 2019 [29xHDTV, 1080i]

Rock in Rio 2019 [29xHDTV, 1080i]

King Crimson:

Drumsons
Neurotica
Red
Drumzilla
The Court of the Crimson King (with Coda)
Indiscipline
Epitaph
21st Century Schizoid Man (with "Take the "A" Train" snippet)

General
ID : 1 (0x1)
Complete name : E:\Mix\Rock in Rio 2019\King Crimson - Rock in Rio 2019.ts
Format : MPEG-TS
File size : 5.69 GiB
Duration : 59mn 54s
Overall bit rate mode : Variable
Overall bit rate : 13.6 Mbps

Video
ID : 1328 (0x530)
Menu ID : 1336 (0x538)
Format : AVC
Format/Info : Advanced Video Codec
Format profile : High@L4.0
Format settings, CABAC : Yes
Format settings, ReFrames : 4 frames
Codec ID : 27
Duration : 59mn 54s
Bit rate : 12.5 Mbps
Width : 1 920 pixels
Height : 1 080 pixels
Display aspect ratio : 16:9
Frame rate : 29.970 fps
Color space : YUV
Chroma subsampling : 4:2:0
Bit depth : 8 bits
Scan type : MBAFF
Bits/(Pixel*Frame) : 0.202
Stream size : 5.25 GiB (92%)

Audio
ID : 1329 (0x531)
Menu ID : 1336 (0x538)
Format : AC-3
Format/Info : Audio Coding 3
Mode extension : CM (complete main)
Format settings, Endianness : Big
Codec ID : 129
Duration : 59mn 54s
Bit rate mode : Constant
Bit rate : 384 Kbps
Channel(s) : 6 channels
Channel positions : Front: L C R, Side: L R, LFE
Sampling rate : 48.0 KHz
Bit depth : 16 bits
Compression mode : Lossy
Stream size : 165 MiB (3%)
Language : English



Rock in Rio 2019 [29xHDTV, 1080i]

Rock in Rio 2019 [29xHDTV, 1080i]

Rock in Rio 2019 [29xHDTV, 1080i]

Rock in Rio 2019 [29xHDTV, 1080i]

Rock in Rio 2019 [29xHDTV, 1080i]

All thanks go to the original releasers

Rock in Rioin my Blog

Download Rock in Rio 2019: