Subcategories

Roger Taylor (Queen) - Solo Studio Albums Collection 1981-1998 (4CD) Japanese Releases [Re-Up]

Posted By: Designol
Roger Taylor (Queen) - Solo Studio Albums Collection 1981-1998 (4CD) Japanese Releases [Re-Up]

Roger Taylor (Queen) - Solo Studio Albums 1981-1998 (4CD) Japanese Releases
EAC | FLAC | Image (Cue&Log) ~ 1.23 Gb | Mp3 (CBR320) ~ 445 Mb | Scans ~ 186 Mb
Classic Rock, Hard Rock, Prog-Rock, Art Rock, Dance-Rock | Time: 03:14:11

Drummer and songwriter best known as a member of million-selling album hard rock/glam band Queen. Collection includes: Fun In Space (1981); Strange Frontier (1984); Happiness? (1994); Electric Fire (1998).

Before drumming with Queen, Roger Taylor was the drummer in the late '60s hard rock band, Smile, along with future Queen guitarist Brian May. In 1970, that group morphed into Queen with the addition of flamboyant lead singer Freddie Mercury. Over the next decade, Taylor would generally write one or two songs per Queen album, usually singing on his own compositions. The first member of the band to start a solo career, Taylor released his single "I Wanna Testify" in 1977. Although it failed to chart, that did not deter the drummer from recording a solo album, Fun in Space (1981). A modest success, the album showed Taylor performing more straightforward and political rock music than Queen. He followed with 1984's Strange Frontier, which sounded similar to Bruce Springsteen's music of the same period.

After Queen's Magic Tour in 1986, Taylor formed his own band, the Cross, for which he played guitar. The group released three albums between 1987 and 1991, but never received much interest in England. After Freddie Mercury died of AIDS in 1991, Taylor returned to a solo career, releasing Happiness? in 1994. Its first single, "Nazis 1994," was banned by Radio 1 and several stores as it was feared it would lead to neo-Nazi riots. Nonetheless, "Nazis 1994" became Taylor's first hit single in England and was followed by two other Top 40 U.K. hits, "Happiness" and "Foreign Sand." Electric Fire, which saw Taylor add some slight electronica elements to his rock sound, was released in 1998. In 2001, Taylor performed with May for Queen's induction into the Rock and Roll Hall of Fame. From 2005 to 2006, Taylor again joined May for the Queen + Paul Rodgers tour, a partnership that resulted in the 2008 studio album The Cosmos Rocks. In 2013 he released his fifth studio album, the politically and socially conscious Fun on Earth. Also in 2013, Taylor saw the release of his solo career-spanning box set The Lot. This archival release was succeeded in 2015 by reissues of Fun in Space and Strange Frontier by Omnivore Records.

Biography by Geoff Orens, Allmusic.com

Roger Taylor (Queen) - Solo Studio Albums Collection 1981-1998 (4CD) Japanese Releases [Re-Up]






Roger Taylor (Queen) - Solo Studio Albums Collection 1981-1998 (4CD) Japanese Releases [Re-Up]

Roger Taylor - Fun In Space (1981) Japanese Remastered 1996
EAC | FLAC | Image (Cue&Log) ~ 248 Mb | Mp3 (CBR320) ~ 91 Mb | Scans ~ 26 Mb
Label: Toshiba-EMI Ltd | # TOCP-50027 | Time: 00:40:05

Queen drummer Roger Taylor's first solo album is a fairly strong set of up-tempo rockers and well-written ballads featuring Taylor's rough voice and effective croon. Much of the material is reminiscent of Taylor's work for Queen – more guitar-based and less bombastic than the work of his cohorts in that band. That's not to say Taylor doesn't get over-dramatic. On "Future Management" and "Magic Is Loose," Taylor's vocals are quite over the top. However, "No Violins" and "Let's Get Crazy" balance things out with some fairly straightforward rock numbers that show the influence of 1950s rock & roll. Surprisingly, Taylor, who rarely wrote a ballad with Queen, shows himself quite adept at writing slower pieces on the lovely "Laugh or Cry." The interesting sci-fi ballad "Fun Is Space" is a striking and beautiful mix of classic rock and futuristic keyboard backdrops. The true highlight of the album though is the marvelous "My Country Parts 1 & 2." A powerful anthem of disillusionment with politics and war, the middle of the song picks up in intensity with some fine drumming from Taylor. Not all the material here is as strong or as memorable, but the album is a fine addition to the collection of any fan of classic rock or Queen.

Review by Geoff Orens, Allmusic.com

Tracklist:

01. No Violins (04:32)
02. Laugh Or Cry (03:05)
03. Future Management (03:02)
04. Let's Get Crazy (03:40)
05. My Country I & II (06:48)
06. Good Times Are Now (03:27)
07. Magic Is Loose (03:29)
08. Interlude In Constantinople (02:05)
09. Airheads (03:39)
10. Fun In Space (06:19)


Exact Audio Copy V0.99 prebeta 5 from 4. May 2009

EAC extraction logfile from 2. August 2012, 22:01

Roger Taylor / Fun In Space [TOCP-50027]

Used drive : ASUS DRW-22B3L Adapter: 0 ID: 1

Read mode : Secure
Utilize accurate stream : Yes
Defeat audio cache : Yes
Make use of C2 pointers : No

Read offset correction : 6
Overread into Lead-In and Lead-Out : No
Fill up missing offset samples with silence : Yes
Delete leading and trailing silent blocks : No
Null samples used in CRC calculations : Yes
Used interface : Native Win32 interface for Win NT & 2000

Used output format : Internal WAV Routines
Sample format : 44.100 Hz; 16 Bit; Stereo


TOC of the extracted CD

Track | Start | Length | Start sector | End sector
––––––––––––––––––––––––––––-
1 | 0:00.32 | 4:32.23 | 32 | 20454
2 | 4:32.55 | 3:05.07 | 20455 | 34336
3 | 7:37.62 | 3:01.48 | 34337 | 47959
4 | 10:39.35 | 3:39.72 | 47960 | 64456
5 | 14:19.32 | 6:48.10 | 64457 | 95066
6 | 21:07.42 | 3:26.68 | 95067 | 110584
7 | 24:34.35 | 3:28.40 | 110585 | 126224
8 | 28:03.00 | 2:04.40 | 126225 | 135564
9 | 30:07.40 | 3:39.02 | 135565 | 151991
10 | 33:46.42 | 6:18.63 | 151992 | 180404


Range status and errors

Selected range

Filename D:\Roger Taylor - Fun In Space [TOCP-50027].wav

Peak level 98.0 %
Range quality 100.0 %
Test CRC B3834987
Copy CRC B3834987
Copy OK

No errors occurred


AccurateRip summary

Track 1 not present in database
Track 2 not present in database
Track 3 not present in database
Track 4 not present in database
Track 5 not present in database
Track 6 not present in database
Track 7 not present in database
Track 8 not present in database
Track 9 not present in database
Track 10 not present in database

None of the tracks are present in the AccurateRip database

End of status report

[CUETools log; Date: 18.04.2018 10:46:18; Version: 2.1.4]
Pregap length 00:00:32.
[CTDB TOCID: JfLYMypQWBmDeI_tmtSnqIM3Cb4-] found.
Track | CTDB Status
1 | (3/3) Accurately ripped
2 | (3/3) Accurately ripped
3 | (3/3) Accurately ripped
4 | (3/3) Accurately ripped
5 | (3/3) Accurately ripped
6 | (3/3) Accurately ripped
7 | (3/3) Accurately ripped
8 | (3/3) Accurately ripped
9 | (3/3) Accurately ripped
10 | (3/3) Accurately ripped
[AccurateRip ID: 000ec1a8-00760e03-9109650a] found.
Track [ CRC | V2 ] Status
01 [0b0c85ac|42f3ad28] (0+3/3) Accurately ripped
02 [2bec42e6|16ca2810] (0+3/3) Accurately ripped
03 [c5eadae0|00606799] (0+3/3) Accurately ripped
04 [1228e8f9|e5dba05e] (0+3/3) Accurately ripped
05 [4e511e83|d3dc5d0c] (0+3/3) Accurately ripped
06 [e9e68524|7a9f33ba] (0+3/3) Accurately ripped
07 [34eabcd4|5fe81f65] (0+3/3) Accurately ripped
08 [4152f7c2|a6a637ad] (0+3/3) Accurately ripped
09 [566de788|490a7502] (0+3/3) Accurately ripped
10 [3fb8ed33|e818e138] (0+3/3) Accurately ripped

Track Peak [ CRC32 ] [W/O NULL] [ LOG ]
– 98,0 [B3834987] [E3CCC984] CRC32
01 98,0 [0A7D12DA] [C1410D96]
02 95,8 [7EC86E81] [3495B74C]
03 98,0 [2CF2EB8B] [553E472D]
04 98,0 [4485101F] [30E6D219]
05 98,0 [5C7A6A9F] [7EB16D06]
06 98,0 [05C36057] [C68176C9]
07 98,0 [6D6F649B] [F7814003]
08 97,9 [CD450B66] [BD00C5BA]
09 98,0 [03254A7D] [D838E09C]
10 98,0 [FDCE1ADD] [EE3191DE]

foobar2000 1.2 / Dynamic Range Meter 1.1.1
log date: 2018-04-18 10:47:46

––––––––––––––––––––––––––––––––––––––––
Analyzed: Roger Taylor / Fun In Space [TOCP-50027]
––––––––––––––––––––––––––––––––––––––––

DR Peak RMS Duration Track
––––––––––––––––––––––––––––––––––––––––
DR11 -0.18 dB -13.22 dB 4:32 01-No Violins
DR13 -0.37 dB -16.29 dB 3:05 02-Laugh Or Cry
DR12 -0.18 dB -14.85 dB 3:02 03-Future Management (You Don't Need Nobody Else)
DR10 -0.18 dB -12.95 dB 3:40 04-Let's Get Crazy
DR12 -0.18 dB -15.14 dB 6:48 05-My Country I & II
DR13 -0.18 dB -14.36 dB 3:27 06-Good Times Are Now
DR13 -0.18 dB -16.60 dB 3:29 07-Magic Is Loose
DR13 -0.18 dB -17.19 dB 2:05 08-Interlude In Constantinople
DR11 -0.18 dB -13.32 dB 3:39 09-Airheads
DR12 -0.18 dB -15.15 dB 6:19 10-Fun In Space
––––––––––––––––––––––––––––––––––––––––

Number of tracks: 10
Official DR value: DR12

Samplerate: 44100 Hz
Channels: 2
Bits per sample: 16
Bitrate: 868 kbps
Codec: FLAC
================================================================================




Roger Taylor (Queen) - Solo Studio Albums Collection 1981-1998 (4CD) Japanese Releases [Re-Up]

Roger Taylor - Strange Frontier (1984) Japanese Remastered 1996
EAC | FLAC | Image (Cue&Log) ~ 276 Mb | Mp3 (CBR320) ~ 96 Mb | Scans ~ 31 Mb
Label: Toshiba-EMI Ltd | # TOCP-50028 | Time: 00:42:00

With Strange Frontier, Roger Taylor seemed to try and cast himself as a British version of Bruce Springsteen, writing a set of songs that were similar to the gutsy and anthemic work of the American rock hero. The similarity went as far as the lyrics, many of which focused on working-class politics. Taylor even throws in a Springsteen cover, "Racing in the Street," for good measure. The differences between Taylor's music here and Springsteen's lie both in Taylor's production, which added some artsier ideas such as the symphonic break in "Killing Time," and in his vocals, which stray more into melodramatic territory than Springsteen ever has. For the most part, the concept works. The album is far from original, but Taylor is an accomplished enough songwriter that he doesn't come off like a poor man's Springsteen. The cover of Dylan's "Masters of War" is a bit bombastic but much of the rest of the album is fairly convincing with the title track and "Man on Fire" being among the highlights. Interestingly enough, Taylor's music is far more reliant on drum machines and synthesizers here than on his previous Fun in Space.

Review by Geoff Orens, Allmusic.com

Tracklist:

01. Strange Frontier (04:16)
02. Beautiful Dreams (04:24)
03. Man On Fire (04:05)
04. Racing In The Street (Bruce Springsteen cover) (04:27)
05. Masters Of War (Bob Dylan cover) (03:51)
06. Killing Time (04:58)
07. Abandonfire (04:13)
08. Young Love (03:22)
09. It's An Illusion (04:03)
10. I Cry For You (Love, Hope And Confusion) (04:22)


Exact Audio Copy V0.99 prebeta 5 from 4. May 2009

EAC extraction logfile from 27. March 2012, 13:46

Roger Taylor / Strange Frontier [TOCP-50028]

Used drive : ASUS DRW-22B3L Adapter: 0 ID: 1

Read mode : Secure
Utilize accurate stream : Yes
Defeat audio cache : Yes
Make use of C2 pointers : No

Read offset correction : 6
Overread into Lead-In and Lead-Out : No
Fill up missing offset samples with silence : Yes
Delete leading and trailing silent blocks : No
Null samples used in CRC calculations : Yes
Used interface : Native Win32 interface for Win NT & 2000

Used output format : Internal WAV Routines
Sample format : 44.100 Hz; 16 Bit; Stereo


TOC of the extracted CD

Track | Start | Length | Start sector | End sector
––––––––––––––––––––––––––––-
1 | 0:00.00 | 4:16.05 | 0 | 19204
2 | 4:16.05 | 4:23.67 | 19205 | 38996
3 | 8:39.72 | 4:04.68 | 38997 | 57364
4 | 12:44.65 | 4:27.22 | 57365 | 77411
5 | 17:12.12 | 3:51.23 | 77412 | 94759
6 | 21:03.35 | 4:57.57 | 94760 | 117091
7 | 26:01.17 | 4:12.53 | 117092 | 136044
8 | 30:13.70 | 3:21.62 | 136045 | 151181
9 | 33:35.57 | 4:02.53 | 151182 | 169384
10 | 37:38.35 | 4:22.00 | 169385 | 189034


Range status and errors

Selected range

Filename D:\Roger Taylor - Strange Frontier [TOCP-50028].wav

Peak level 95.1 %
Range quality 100.0 %
Test CRC EAD1B32F
Copy CRC EAD1B32F
Copy OK

No errors occurred


AccurateRip summary

Track 1 not present in database
Track 2 not present in database
Track 3 not present in database
Track 4 not present in database
Track 5 not present in database
Track 6 not present in database
Track 7 not present in database
Track 8 not present in database
Track 9 not present in database
Track 10 not present in database

None of the tracks are present in the AccurateRip database

End of status report

[CUETools log; Date: 18.04.2018 10:46:31; Version: 2.1.4]
[CTDB TOCID: xLWilUrKaRg4ffHT8pUOvyybsB4-] found.
Track | CTDB Status
1 | (60/61) Accurately ripped
2 | (60/61) Accurately ripped
3 | (60/61) Accurately ripped
4 | (60/61) Accurately ripped
5 | (60/61) Accurately ripped
6 | (60/61) Accurately ripped
7 | (59/61) Accurately ripped
8 | (60/61) Accurately ripped
9 | (60/61) Accurately ripped
10 | (60/61) Accurately ripped
[AccurateRip ID: 0010076e-007fe797-7409d80a] found.
Track [ CRC | V2 ] Status
01 [953c7b37|91f69485] (00+02/61) Accurately ripped
02 [ff5555cd|43070572] (00+02/61) Accurately ripped
03 [254a9c0b|b929c6ff] (00+02/61) Accurately ripped
04 [9af0a0e2|f17d02e4] (00+02/61) Accurately ripped
05 [20c814e4|cee2f0c5] (00+02/61) Accurately ripped
06 [94013a07|6cedfd42] (00+02/60) Accurately ripped
07 [08cc939d|039c1a29] (00+02/61) Accurately ripped
08 [fff77385|709d8c8e] (00+02/61) Accurately ripped
09 [6e38c806|3d30f25c] (00+02/58) Accurately ripped
10 [5b62e232|42f905ac] (00+02/61) Accurately ripped
Offsetted by 1950:
01 [3461f022] (21/61) Accurately ripped
02 [383e6cba] (21/61) Accurately ripped
03 [793873ff] (21/61) Accurately ripped
04 [3cfdbfaa] (21/61) Accurately ripped
05 [d9c68916] (21/61) Accurately ripped
06 [c43a6798] (20/60) Accurately ripped
07 [3664c304] (21/61) Accurately ripped
08 [4fd03bcf] (21/61) Accurately ripped
09 [3ef5f68c] (19/58) Accurately ripped
10 [6117b51c] (21/61) Accurately ripped
Offsetted by 1072:
01 [9d82deb8] (00/61) No match (V2 was not tested)
02 [9e0577c5] (00/61) No match (V2 was not tested)
03 [19551f01] (00/61) No match (V2 was not tested)
04 [62f64412] (00/61) No match (V2 was not tested)
05 [4e5aa589] (00/61) No match (V2 was not tested)
06 [290ca360] (00/60) No match (V2 was not tested)
07 [a1eda712] (00/61) No match (V2 was not tested)
08 [5d605260] (00/61) No match (V2 was not tested)
09 [1372188a] (00/58) No match (V2 was not tested)
10 [fd2749b1] (00/61) No match (V2 was not tested)
Offsetted by 1274:
01 [a0f26869] (00/61) No match (V2 was not tested)
02 [b351fa2a] (00/61) No match (V2 was not tested)
03 [d89c954b] (00/61) No match (V2 was not tested)
04 [4ff7d007] (00/61) No match (V2 was not tested)
05 [c22796e2] (00/61) No match (V2 was not tested)
06 [39ee447f] (00/60) No match (V2 was not tested)
07 [6685efc8] (00/61) No match (V2 was not tested)
08 [c29215c3] (00/61) No match (V2 was not tested)
09 [84ceabc3] (00/58) No match (V2 was not tested)
10 [271b3792] (00/61) No match (V2 was not tested)

Track Peak [ CRC32 ] [W/O NULL] [ LOG ]
– 95,1 [EAD1B32F] [E81D1581] CRC32
01 95,1 [D18782A0] [F648B911]
02 87,9 [FC57A9EC] [396F4021]
03 95,1 [CFE65CF1] [E7B53A36]
04 95,1 [34C99B54] [AF2F893D]
05 84,8 [30FE39E6] [05651146]
06 95,1 [3E82DBEE] [FEDBC0ED]
07 84,8 [68B9DB50] [63B5FA8E]
08 95,1 [9E0B6221] [97F829A9]
09 95,1 [F4CA68B6] [0AB6E8FA]
10 95,1 [0E9CC3EB] [BCDDF197]

foobar2000 1.2 / Dynamic Range Meter 1.1.1
log date: 2018-04-18 10:47:58

––––––––––––––––––––––––––––––––––––––––
Analyzed: Roger Taylor / Strange Frontier [TOCP-50028]
––––––––––––––––––––––––––––––––––––––––

DR Peak RMS Duration Track
––––––––––––––––––––––––––––––––––––––––
DR8 -0.43 dB -11.67 dB 4:16 01-Strange Frontier
DR10 -1.11 dB -13.32 dB 4:24 02-Beautiful Dreams
DR8 -0.43 dB -10.11 dB 4:05 03-Man On Fire
DR8 -0.43 dB -10.51 dB 4:27 04-Racing In The Street (Bruce Springsteen cover)
DR10 -1.43 dB -13.81 dB 3:51 05-Masters Of War (Bob Dylan cover)
DR9 -0.43 dB -11.60 dB 4:58 06-Killing Time
DR9 -1.43 dB -12.46 dB 4:13 07-Abandonfire
DR9 -0.43 dB -11.29 dB 3:22 08-Young Love
DR8 -0.43 dB -10.56 dB 4:03 09-It's An Illusion
DR9 -0.43 dB -10.90 dB 4:22 10-I Cry For You (Love, Hope And Confusion)
––––––––––––––––––––––––––––––––––––––––

Number of tracks: 10
Official DR value: DR9

Samplerate: 44100 Hz
Channels: 2
Bits per sample: 16
Bitrate: 920 kbps
Codec: FLAC
================================================================================




Roger Taylor (Queen) - Solo Studio Albums Collection 1981-1998 (4CD) Japanese Releases [Re-Up]

Roger Taylor - Happiness? (1994) Japanese Press
EAC | FLAC | Image (Cue&Log) ~ 292 Mb | Mp3 (CBR320) ~ 113 Mb | Scans ~ 60 Mb
Label: Toshiba-EMI Ltd | # TOCP-8290 | Time: 00:49:29

Taylor's first official solo effort in ten years, Happiness? is a politically themed album that tackles various issues such as the rise of neo-Nazis ("Nazis 1994"), the plight of Third World peoples ("Revelation"), and political and religious hypocrisy ("The Key"). In large measure, Taylor has abandoned the upbeat rock that dominated his first solo efforts for a more produced record of ballads and mid-tempo tracks. And while the album sounds good, it's hard to come up with a truly memorable song here. Only "Dear Mr. Murdoch" and "Nazis 1994" have enough bile to really grab the listener's attention. The rest of the album offers professional yet rather bland material not helped by Taylor's simplistic lyrics. While Taylor's political and social sympathies are quite admirable, lyrics like "I went to the Ukraine/They don't have much to eat/No sugar on the table/But the people stay sweet," make it hard to be truly affected by his concerns.

Review by Geoff Orens, Allmusic.com

Tracklist:

01. Nazis 1994 (02:35)
02. Happiness (03:17)
03. Revelations (03:44)
04. Touch The Sky (05:05)
05. Foreigh Sand (06:54)
06. Freedom Train (06:12)
07. Final Destination (05:27)
08. 'You Had To Be There' (02:56)
09. The Key (04:26)
10. Everybody Hurts Sometime (02:53)
11. Loneliness… (02:25)
12. Old Friends (03:33)


Exact Audio Copy V0.99 prebeta 5 from 4. May 2009

EAC extraction logfile from 6. January 2012, 17:08

Roger Taylor / Happiness ? [TOCP-8290]

Used drive : ASUS DRW-22B3L Adapter: 0 ID: 1

Read mode : Secure
Utilize accurate stream : Yes
Defeat audio cache : Yes
Make use of C2 pointers : No

Read offset correction : 6
Overread into Lead-In and Lead-Out : No
Fill up missing offset samples with silence : Yes
Delete leading and trailing silent blocks : No
Null samples used in CRC calculations : Yes
Used interface : Native Win32 interface for Win NT & 2000

Used output format : Internal WAV Routines
Sample format : 44.100 Hz; 16 Bit; Stereo


TOC of the extracted CD

Track | Start | Length | Start sector | End sector
––––––––––––––––––––––––––––-
1 | 0:00.00 | 2:35.30 | 0 | 11654
2 | 2:35.30 | 3:17.25 | 11655 | 26454
3 | 5:52.55 | 3:44.20 | 26455 | 43274
4 | 9:37.00 | 5:04.72 | 43275 | 66146
5 | 14:41.72 | 6:53.70 | 66147 | 97191
6 | 21:35.67 | 6:12.05 | 97192 | 125096
7 | 27:47.72 | 5:27.28 | 125097 | 149649
8 | 33:15.25 | 2:55.65 | 149650 | 162839
9 | 36:11.15 | 4:25.57 | 162840 | 182771
10 | 40:36.72 | 2:52.60 | 182772 | 195731
11 | 43:29.57 | 2:25.33 | 195732 | 206639
12 | 45:55.15 | 3:33.27 | 206640 | 222641


Range status and errors

Selected range

Filename D:\Roger Taylor - Happiness [TOCP-8290].wav

Peak level 99.4 %
Range quality 100.0 %
Test CRC 95674C91
Copy CRC 95674C91
Copy OK

No errors occurred


AccurateRip summary

Track 1 accurately ripped (confidence 2) [50CD1061]
Track 2 accurately ripped (confidence 2) [02D8D0C9]
Track 3 accurately ripped (confidence 2) [A7849D94]
Track 4 accurately ripped (confidence 2) [5470B0D1]
Track 5 accurately ripped (confidence 2) [AEE8811A]
Track 6 accurately ripped (confidence 2) [1CA965F0]
Track 7 accurately ripped (confidence 2) [6F1DABF2]
Track 8 accurately ripped (confidence 2) [9B490C9F]
Track 9 accurately ripped (confidence 2) [68567B8D]
Track 10 accurately ripped (confidence 2) [37F8F19A]
Track 11 accurately ripped (confidence 2) [7FF353C7]
Track 12 accurately ripped (confidence 2) [C52F41F4]

All tracks accurately ripped

End of status report

[CUETools log; Date: 18.04.2018 10:46:50; Version: 2.1.4]
[CTDB TOCID: OoJK3ZQ_ThA8_bmy_lBIo.RThq4-] found.
Track | CTDB Status
1 | (6/6) Accurately ripped
2 | (6/6) Accurately ripped
3 | (6/6) Accurately ripped
4 | (6/6) Accurately ripped
5 | (6/6) Accurately ripped
6 | (6/6) Accurately ripped
7 | (6/6) Accurately ripped
8 | (6/6) Accurately ripped
9 | (6/6) Accurately ripped
10 | (6/6) Accurately ripped
11 | (6/6) Accurately ripped
12 | (6/6) Accurately ripped
[AccurateRip ID: 0016bcb1-00d6e354-c30b980c] found.
Track [ CRC | V2 ] Status
01 [50cd1061|75feaf07] (3+3/6) Accurately ripped
02 [02d8d0c9|d9d20150] (3+2/5) Accurately ripped
03 [a7849d94|3e588f7c] (3+2/5) Accurately ripped
04 [5470b0d1|4acfd5f3] (3+2/5) Accurately ripped
05 [aee8811a|88c589d1] (3+2/5) Accurately ripped
06 [1ca965f0|b2b2ccc8] (3+2/5) Accurately ripped
07 [6f1dabf2|262326b3] (3+2/5) Accurately ripped
08 [9b490c9f|dcd87c1d] (3+2/5) Accurately ripped
09 [68567b8d|5553c933] (3+2/5) Accurately ripped
10 [37f8f19a|e44cba9d] (3+2/5) Accurately ripped
11 [7ff353c7|c9fdfca1] (3+2/5) Accurately ripped
12 [c52f41f4|0cb18494] (3+2/5) Accurately ripped

Track Peak [ CRC32 ] [W/O NULL] [ LOG ]
– 99,4 [95674C91] [E58924D3] CRC32
01 97,5 [A8D1E220] [ECC7CF34]
02 99,4 [70654596] [9355B500]
03 99,4 [38F8C7D4] [529163BF]
04 99,4 [DFF7A8E7] [8BA19DA5]
05 75,7 [0FBC073C] [B044A5D9]
06 99,4 [A7337A4F] [D1F5A12E]
07 85,8 [2AD6CD5F] [698F7778]
08 91,0 [1517F212] [CADBA79A]
09 99,2 [045DEB41] [526BE549]
10 85,3 [244C0412] [F76A0AF3]
11 90,4 [4C9641F9] [E40C3830]
12 98,5 [55318EB1] [F882181E]

foobar2000 1.2 / Dynamic Range Meter 1.1.1
log date: 2018-04-18 10:48:12

––––––––––––––––––––––––––––––––––––––––
Analyzed: Roger Taylor / Happiness ? [TOCP-8290]
––––––––––––––––––––––––––––––––––––––––

DR Peak RMS Duration Track
––––––––––––––––––––––––––––––––––––––––
DR11 -0.22 dB -13.45 dB 2:35 01-Nazis 1994
DR14 -0.05 dB -16.76 dB 3:17 02-Happiness
DR12 -0.05 dB -13.62 dB 3:44 03-Revelations
DR12 -0.05 dB -14.94 dB 5:05 04-Touch The Sky
DR11 -2.41 dB -16.89 dB 6:54 05-Foreigh Sand
DR13 -0.05 dB -15.51 dB 6:12 06-Freedom Train
DR11 -1.33 dB -16.36 dB 5:27 07-Final Destination
DR12 -0.81 dB -15.29 dB 2:56 08-'You Had To Be There'
DR15 -0.07 dB -17.06 dB 4:26 09-The Key
DR12 -1.37 dB -16.57 dB 2:53 10-Everybody Hurts Sometime
DR13 -0.87 dB -15.89 dB 2:25 11-Loneliness…
DR15 -0.13 dB -19.00 dB 3:33 12-Old Friends
––––––––––––––––––––––––––––––––––––––––

Number of tracks: 12
Official DR value: DR13

Samplerate: 44100 Hz
Channels: 2
Bits per sample: 16
Bitrate: 826 kbps
Codec: FLAC
================================================================================




Roger Taylor (Queen) - Solo Studio Albums Collection 1981-1998 (4CD) Japanese Releases [Re-Up]

Roger Taylor - Electric Fire (1998) Japan Edition
EAC | FLAC | Image (Cue&Log) ~ 445 Mb | Mp3 (CBR320) ~ 143 Mb | Scans ~ 67 Mb
Label: Toshiba-EMI Ltd | # TOCP-50706 | Time: 01:02:43

With Electric Fire, Roger Taylor put together his strongest set of songs since 1984's Strange Frontier. Adding light touches of electronica to his highly produced rock sound, Taylor manages to sound somewhat current without bending over backwards to be hip like some artists of his generation. The former Queen drummer was also wise to stay away from writing as many ballads as he did for the less memorable Happiness?. The result is that, with "A Nation of Haircuts" and "No More Fun," Taylor wrote his best rockers in years. "Surrender," a powerful and anthemic duet about a crumbling marriage and spousal abuse, is another highlight. Meanwhile, "People on Streets" finds Taylor advancing some of his well-known populism over a subtle electronic groove. The ballad "Tonight" plays it a bit too safe, and the cover of Lennon's "Working Class Hero" was a mistake, but mid-tempo tracks like "Pressure On" and "The Whisperers" have a grand reflective air to them. Lyrically, Taylor still has his shortcomings, but when the music is as strong as most of Electric Fire is, it's not a major concern.

Review by Geoff Orens, Allmusic.com

Tracklist:

01. Pressure On (04:57)
02. A Nation Of Haircuts (03:33)
03. Believe In Yourself (05:00)
04. Surrender (03:36)
05. People On Streets (04:11)
06. The Whisperers (06:06)
07. Is It Me? (03:24)
08. No More Fun (04:13)
09. Tonight (03:45)
10. Where Are You Now? (04:49)
11. Working Class Hero (John Lennon cover) (04:42)
12. London Town - C'mon Down (07:01)
13. A Nation Of Haircuts (Club Cut) (03:43)
14. People On Streets (Mashed) (03:44)


Exact Audio Copy V0.99 prebeta 5 from 4. May 2009

EAC extraction logfile from 16. November 2011, 23:32

Roger Taylor / Electric Fire [TOCP-50706]

Used drive : ASUS DRW-22B3L Adapter: 0 ID: 1

Read mode : Secure
Utilize accurate stream : Yes
Defeat audio cache : Yes
Make use of C2 pointers : No

Read offset correction : 6
Overread into Lead-In and Lead-Out : No
Fill up missing offset samples with silence : Yes
Delete leading and trailing silent blocks : No
Null samples used in CRC calculations : Yes
Used interface : Native Win32 interface for Win NT & 2000

Used output format : Internal WAV Routines
Sample format : 44.100 Hz; 16 Bit; Stereo


TOC of the extracted CD

Track | Start | Length | Start sector | End sector
––––––––––––––––––––––––––––-
1 | 0:00.00 | 4:56.65 | 0 | 22264
2 | 4:56.65 | 3:33.25 | 22265 | 38264
3 | 8:30.15 | 5:00.17 | 38265 | 60781
4 | 13:30.32 | 3:36.20 | 60782 | 77001
5 | 17:06.52 | 4:11.00 | 77002 | 95826
6 | 21:17.52 | 6:05.55 | 95827 | 123256
7 | 27:23.32 | 3:23.65 | 123257 | 138546
8 | 30:47.22 | 4:13.28 | 138547 | 157549
9 | 35:00.50 | 3:45.00 | 157550 | 174424
10 | 38:45.50 | 4:48.62 | 174425 | 196086
11 | 43:34.37 | 4:41.40 | 196087 | 217201
12 | 48:16.02 | 7:00.60 | 217202 | 248761
13 | 55:16.62 | 3:43.00 | 248762 | 265486
14 | 58:59.62 | 3:43.45 | 265487 | 282256


Range status and errors

Selected range

Filename D:\Roger Taylor - Electric Fire [TOCP-50706].wav

Peak level 97.9 %
Range quality 100.0 %
Test CRC F861BC9E
Copy CRC F861BC9E
Copy OK

No errors occurred


AccurateRip summary

Track 1 not present in database
Track 2 not present in database
Track 3 not present in database
Track 4 not present in database
Track 5 not present in database
Track 6 not present in database
Track 7 not present in database
Track 8 not present in database
Track 9 not present in database
Track 10 not present in database
Track 11 not present in database
Track 12 not present in database
Track 13 not present in database
Track 14 not present in database

None of the tracks are present in the AccurateRip database

End of status report

[CUETools log; Date: 18.04.2018 10:47:08; Version: 2.1.4]
[CTDB TOCID: 0iTOAjBRY80eVstiwjZVnlQyltA-] found.
Track | CTDB Status
1 | (8/8) Accurately ripped
2 | (8/8) Accurately ripped
3 | (8/8) Accurately ripped
4 | (8/8) Accurately ripped
5 | (8/8) Accurately ripped
6 | (8/8) Accurately ripped
7 | (8/8) Accurately ripped
8 | (8/8) Accurately ripped
9 | (8/8) Accurately ripped
10 | (8/8) Accurately ripped
11 | (8/8) Accurately ripped
12 | (8/8) Accurately ripped
13 | (8/8) Accurately ripped
14 | (8/8) Accurately ripped
[AccurateRip ID: 00200233-015676f1-c50eb30e] found.
Track [ CRC | V2 ] Status
01 [8f3f247b|31b24e4f] (3+2/5) Accurately ripped
02 [25a149e3|ba970f12] (3+2/5) Accurately ripped
03 [1f40d786|468995d2] (3+2/5) Accurately ripped
04 [1f061c2a|f8ac43bf] (3+2/5) Accurately ripped
05 [7b972ed2|50dc858f] (3+2/5) Accurately ripped
06 [9036862f|ff112486] (3+2/5) Accurately ripped
07 [a1714b86|6eb4db5e] (3+2/5) Accurately ripped
08 [7c9c3249|17dc7be8] (3+2/5) Accurately ripped
09 [8dbfb893|2e04cded] (3+2/5) Accurately ripped
10 [c86cffed|ebee8786] (3+2/5) Accurately ripped
11 [50824f8f|d4304250] (3+2/5) Accurately ripped
12 [9951cc1f|cf34fea5] (3+2/5) Accurately ripped
13 [b372328e|8b8e0c70] (3+2/5) Accurately ripped
14 [da27be92|d30d3014] (3+2/5) Accurately ripped

Track Peak [ CRC32 ] [W/O NULL] [ LOG ]
– 97,9 [F861BC9E] [9735CBD0] CRC32
01 97,9 [17E81A49] [F34F9BC8]
02 97,9 [BCAA050B] [79A07CA3]
03 97,9 [D3933F33] [BCD73387]
04 97,9 [9928E82D] [F43911A8]
05 97,9 [E598AAFB] [6F3F9C22]
06 97,9 [1FD71D47] [6C444866]
07 97,9 [5ACAD39F] [475C8CB3]
08 97,9 [28529F2D] [6F3462AC]
09 97,9 [6DF1E11C] [CC2E5E85]
10 97,9 [55074E64] [6EEFE3EC]
11 97,9 [9C57294F] [610DD93F]
12 97,9 [049B1077] [E798338C]
13 97,9 [9C70B5AF] [67FA899C]
14 97,9 [F2A707CD] [6BC26FA7]

foobar2000 1.2 / Dynamic Range Meter 1.1.1
log date: 2018-04-18 10:48:39

––––––––––––––––––––––––––––––––––––––––
Analyzed: Roger Taylor / Electric Fire [TOCP-50706]
––––––––––––––––––––––––––––––––––––––––

DR Peak RMS Duration Track
––––––––––––––––––––––––––––––––––––––––
DR9 -0.18 dB -11.40 dB 4:57 01-Pressure On
DR7 -0.18 dB -9.04 dB 3:33 02-A Nation Of Haircuts
DR9 -0.18 dB -11.26 dB 5:00 03-Believe In Yourself
DR7 -0.18 dB -10.24 dB 3:36 04-Surrender
DR8 -0.18 dB -10.69 dB 4:11 05-People On Streets
DR9 -0.18 dB -11.63 dB 6:06 06-The Whisperers
DR8 -0.18 dB -10.21 dB 3:24 07-Is It Me?
DR7 -0.18 dB -8.79 dB 4:13 08-No More Fun
DR10 -0.18 dB -11.70 dB 3:45 09-Tonight
DR11 -0.18 dB -13.09 dB 4:49 10-Where Are You Now?
DR8 -0.18 dB -10.82 dB 4:42 11-Working Class Hero (John Lennon cover)
DR10 -0.18 dB -12.53 dB 7:01 12-London Town - C'mon Down
DR8 -0.18 dB -9.56 dB 3:43 13-A Nation Of Haircuts (Club Cut)
DR8 -0.18 dB -11.05 dB 3:44 14-People On Streets (Mashed)
––––––––––––––––––––––––––––––––––––––––

Number of tracks: 14
Official DR value: DR9

Samplerate: 44100 Hz
Channels: 2
Bits per sample: 16
Bitrate: 992 kbps
Codec: FLAC
================================================================================