Tags
Language
Tags

Roxy Music - Heart Still Beating (1990) [2013, Japanese SHM-CD] Re-up

Posted By: v3122
Roxy Music - Heart Still Beating (1990) [2013, Japanese SHM-CD] Re-up

Roxy Music - Heart Still Beating (1990)
EAC | Flac(Image) + Cue + Log & MP3 CBR 320Kbps
Virgin / EMI Music Japan, VJCP-98145 | ~ 495 or 161 Mb | Artwork(png) -> 160 Mb
Art Rock, Glam Rock, Experimental

Recorded live in France in 1982 but not released on CD in the U.S. until 1990, Heart Still Beating isn't quite in a class with Roxy Music's first live album, Viva, but nonetheless gives us a lot to be excited about. Lead singer Bryan Ferry and guitarist Phil Manzanera sound quite inspired much of the time, and Manzanera delivers some excellent solos. Longtime Roxy devotees will want to savor engaging versions of "Out of the Blue" and "Both Ends Burning" (both of which were heard on Viva), as well as such favorites as "Dance Away," "Avalon" and the clever "Love Is the Drug." Roxy comes closer to a mainstream rock sound on enjoyable interpretations of Neil Young's "Like a Hurricane" and John Lennon's "Jealous Guy," but even then, the distinctive band's quirky art-rock tendencies remain.

by Alex Henderson, allmusic
Roxy Music - Heart Still Beating (1990):

Roxy Music - Heart Still Beating (1990) [2013, Japanese SHM-CD] Re-up

Tracklist:

01. India
02. Can't Let Go
03. While My Heart Is Still Beating
04. Out Of The Blue
05. Dance Away
06. Impossible Guitar
07. A Song For Europe
08. Love Is The Drug
09. Like A Hurricane
10. My Only Love
11. Both Ends Burning
12. Avalon
13. Editions Of You
14. Jealous Guy

Exact Audio Copy V1.0 beta 3 from 29. August 2011

EAC extraction logfile from 25. August 2013, 11:42

Roxy Music / Heart Still Beating

Used drive : PLEXTOR BD-R PX-B950SA Adapter: 6 ID: 0

Read mode : Secure
Utilize accurate stream : Yes
Defeat audio cache : Yes
Make use of C2 pointers : No

Read offset correction : 6
Overread into Lead-In and Lead-Out : No
Fill up missing offset samples with silence : Yes
Delete leading and trailing silent blocks : No
Null samples used in CRC calculations : Yes
Used interface : Native Win32 interface for Win NT & 2000

Used output format : Internal WAV Routines
Sample format : 44.100 Hz; 16 Bit; Stereo


TOC of the extracted CD

Track | Start | Length | Start sector | End sector
––––––––––––––––––––––––––––-
1 | 0:00.00 | 0:54.02 | 0 | 4051
2 | 0:54.02 | 5:20.23 | 4052 | 28074
3 | 6:14.25 | 3:51.60 | 28075 | 45459
4 | 10:06.10 | 4:26.32 | 45460 | 65441
5 | 14:32.42 | 3:45.28 | 65442 | 82344
6 | 18:17.70 | 3:47.62 | 82345 | 99431
7 | 22:05.57 | 6:21.23 | 99432 | 128029
8 | 28:27.05 | 3:52.22 | 128030 | 145451
9 | 32:19.27 | 7:43.58 | 145452 | 180234
10 | 40:03.10 | 7:16.47 | 180235 | 212981
11 | 47:19.57 | 5:32.50 | 212982 | 237931
12 | 52:52.32 | 4:29.28 | 237932 | 258134
13 | 57:21.60 | 4:04.22 | 258135 | 276456
14 | 61:26.07 | 6:32.25 | 276457 | 305881


Range status and errors

Selected range

Filename C:\Users\Meijin\Desktop\ALLexxess\Roxy Music\1990 Heart Still Beating (Mini LP SHM-CD EMI Music Japan 2013)\Roxy Music - Heart Still Beating.wav

Peak level 97.7 %
Extraction speed 8.3 X
Range quality 100.0 %
Test CRC 4718891C
Copy CRC 4718891C
Copy OK

No errors occurred


AccurateRip summary

Track 1 not present in database
Track 2 not present in database
Track 3 not present in database
Track 4 not present in database
Track 5 not present in database
Track 6 not present in database
Track 7 not present in database
Track 8 not present in database
Track 9 not present in database
Track 10 not present in database
Track 11 not present in database
Track 12 not present in database
Track 13 not present in database
Track 14 not present in database

None of the tracks are present in the AccurateRip database

End of status report

==== Log checksum B4EE2EF595011D569A8F107055EFAA47269903E9F3763F9A772A019D08C0511B ====


[CUETools log; Date: 02.11.2019 12:39:48; Version: 2.1.4]
[AccurateRip ID: 001f9597-015e076d-ce0fee0e] found.
Track [ CRC | V2 ] Status
01 [f2a2a8a4|a964624d] (0+2/5) Accurately ripped
02 [84c0caf7|0e8f6899] (0+2/5) Accurately ripped
03 [39e0c8e2|9279eb2b] (0+2/5) Accurately ripped
04 [3ab6741a|623bfde0] (0+2/5) Accurately ripped
05 [bde40413|fdddaaa5] (0+2/5) Accurately ripped
06 [baa9f036|3978c4cc] (0+2/5) Accurately ripped
07 [0d8ade8f|87b9cb1f] (0+2/5) Accurately ripped
08 [407291c0|69ec370b] (0+2/5) Accurately ripped
09 [9fc9b5c6|380b313e] (0+2/5) Accurately ripped
10 [37fd7dda|b3a8f398] (0+2/5) Accurately ripped
11 [604b7f2f|a3756df2] (0+2/5) Accurately ripped
12 [8859596d|6b69c541] (0+2/5) Accurately ripped
13 [4273b135|66405321] (0+2/5) Accurately ripped
14 [c858a3a5|ffdec539] (0+2/5) Accurately ripped
Offsetted by 18:
01 [f4ba720e] (0/5) No match (V2 was not tested)
02 [4032a2fd] (0/5) No match (V2 was not tested)
03 [8c07914a] (0/5) No match (V2 was not tested)
04 [cb1f533b] (0/5) No match (V2 was not tested)
05 [574b7e48] (0/5) No match (V2 was not tested)
06 [3110a554] (0/5) No match (V2 was not tested)
07 [fc8c1239] (0/5) No match (V2 was not tested)
08 [c2273873] (0/5) No match (V2 was not tested)
09 [d9306c46] (0/5) No match (V2 was not tested)
10 [563533e6] (0/5) No match (V2 was not tested)
11 [7ef14e57] (0/5) No match (V2 was not tested)
12 [10e5ce51] (0/5) No match (V2 was not tested)
13 [c7e57ecf] (0/5) No match (V2 was not tested)
14 [b6b374cb] (0/5) No match (V2 was not tested)
Offsetted by 158:
01 [750cc6d9] (0/5) No match (V2 was not tested)
02 [986c1969] (0/5) No match (V2 was not tested)
03 [be249606] (0/5) No match (V2 was not tested)
04 [788d05d3] (0/5) No match (V2 was not tested)
05 [5db5d47f] (0/5) No match (V2 was not tested)
06 [c0eec581] (0/5) No match (V2 was not tested)
07 [bef45c4d] (0/5) No match (V2 was not tested)
08 [4f76976e] (0/5) No match (V2 was not tested)
09 [0744fca9] (0/5) No match (V2 was not tested)
10 [028e1f32] (0/5) No match (V2 was not tested)
11 [41c60faf] (0/5) No match (V2 was not tested)
12 [b638c798] (0/5) No match (V2 was not tested)
13 [a1cab430] (0/5) No match (V2 was not tested)
14 [82fbcf1f] (0/5) No match (V2 was not tested)

Track Peak [ CRC32 ] [W/O NULL] [ LOG ]
– 97,7 [4718891C] [6A6B5069] CRC32
01 79,4 [83D7DB95] [5DF777E2]
02 97,7 [6384B3F9] [AE59C875]
03 97,7 [ED6F205F] [34212839]
04 97,7 [C74E81CE] [EDDC39EE]
05 97,7 [D749BDE2] [3B5E5B76]
06 97,7 [CEDD7C8F] [A0643B4F]
07 97,7 [51451855] [233B786B]
08 97,7 [06A0880B] [E24F2A9D]
09 97,7 [334B5989] [F733C788]
10 97,7 [4F0F551A] [E517B8EC]
11 97,0 [F72154FC] [6AD28766]
12 97,0 [1CF24B0E] [B4DB752C]
13 97,0 [F7EAB0FD] [F91D1921]
14 97,0 [F53AD0BA] [5800354D]


Roxy Music - Heart Still Beating (1990) [2013, Japanese SHM-CD] Re-up

All thanks go to ALLexxess

Roxy Music in my Blog

Download Roxy Music - Heart Still Beating (1990):