Tags
Language
Tags

Ry Cooder & V.M. Bhatt - A Meeting by the River (1993) [Analogue Productions, Remastered 2008]

Posted By: Designol
Ry Cooder & V.M. Bhatt - A Meeting by the River (1993) [Analogue Productions, Remastered 2008]

Ry Cooder & V.M. Bhatt - A Meeting by the River (1993) APO Remastered 2008
EAC | FLAC | Tracks (Cue&Log) ~ 161 Mb | Mp3 (CBR320) ~ 100 Mb | Scans included | Time: 00:39:55
Ethnic Fusion, Slide Guitar Blues, Indian Classical | Label: Analogue Productions | # CAPW 29 SA

1994 Grammy winner for Best World Music Album. American composer, musicologist and guitar legend Ry Cooder teams with North Indian musician Vishwa Mohan Bhatt to create an exquisite musical realm, with both musicians playing exceptional slide guitar. Their collaboration evokes musical elements from many cultures and styles. Percussion by Sukhvindar Singh on tabla and Cooder's 14-year-old son Joachim on dumbek. The album is included in Tom Moon's 2008 book 1,000 Recordings to Hear Before You Die.

A Meeting by the River can best be described as a spontaneous outpouring of music, unhindered by convention or form, brought into being by musicians so supremely capable that the music is never labored, the technique of their craft always subservient to the final product. Cooder and Bhatt are genuine masters of the guitar and mohan vina, respectively. The latter, an instrument created by Bhatt himself, is a sort of hybrid between a guitar and a vichitra vina, and is played with a metal slide. This fact is just one of the many things that connect Bhatt's playing to Cooder's, who plays nothing but bottleneck guitar here. The musical interplay between Cooder and Bhatt is nothing short of astounding, especially so considering that they met for the first time only a half-hour before the recording of this album. The voices of the two instruments blend marvelously, first alternating melodic statements, then doing so together, each dancing around the other, playing cat and mouse, probing, answering, reflecting. They are ably accompanied by a pair of percussionists: tabla player Sukhvinder Singh Namdhari and Cooder's own son, Joachim, on dumbek. A Meeting by the River is one of those few cross-genre albums in which the listener never feels for a second that there is some kind of fusion going on; one does not hear the component parts so much as the integrated whole. However, one can theoretically separate guitar from vina, America from India, the Mississippi from the Ganges. Once this is done, the resulting music makes more sense than ever before, the combination of two traditions of stringed instruments that use slides to produce sound and value improvisation and voice-like phrasing. As good as this sounds on paper, the actual results are even more impressive. The splendor of the music is aided in its transmission by the fact that, like all Water Lily Acoustics releases, this album is masterfully recorded; each instrument is clear, distinct, and three-dimensional sounding. A Meeting by the River is a must-own, a thing of pure, unadulterated beauty, and the strongest record in Cooder's extensive catalog.

Review by Daniel Gioffre, Allmusic.com

Ry Cooder & V.M. Bhatt - A Meeting by the River (1993) [Analogue Productions, Remastered 2008]



Tracklist:

01. A Meeting by the River (10:08)
02. Longing (11:58)
03. Ganges Delta Blues (9:59)
04. Isa Lei (7:49)


Exact Audio Copy V1.3 from 2. September 2016

EAC extraction logfile from 22. July 2017, 18:22

Ry Cooder & V.M. Bhatt / A Meeting By The River (2008 AP)

Used drive : PLEXTOR CD-R PREMIUM Adapter: 1 ID: 1

Read mode : Secure
Utilize accurate stream : Yes
Defeat audio cache : Yes
Make use of C2 pointers : No

Read offset correction : 30
Overread into Lead-In and Lead-Out : No
Fill up missing offset samples with silence : Yes
Delete leading and trailing silent blocks : No
Null samples used in CRC calculations : Yes
Used interface : Native Win32 interface for Win NT & 2000
Gap handling : Appended to previous track

Used output format : User Defined Encoder
Selected bitrate : 768 kBit/s
Quality : High
Add ID3 tag : No
Command line compressor : C:\Program Files (x86)\Exact Audio Copy\FLAC\FLAC.EXE
Additional command line options : -6 -e -p -V -T "ARTIST=%artist%" -T "TITLE=%title%" -T "ALBUM=%albumtitle%" -T "DATE=%year%" -T "TRACKNUMBER=%tracknr%" -T "GENRE=%genre%" -T "PERFORMER=%albuminterpret%" -T "COMPOSER=%composer%" %haslyrics%–tag-from-file=LYRICS="%lyricsfile%"%haslyrics% -T "ALBUMARTIST=%albumartist%" -T "DISCNUMBER=%cdnumber%" -T "TOTALDISCS=%totalcds%" -T "TOTALTRACKS=%numtracks%" -T "COMMENT=%comment%" %source% -o %dest%


TOC of the extracted CD

Track | Start | Length | Start sector | End sector
––––––––––––––––––––––––––––-
1 | 0:00.14 | 10:08.32 | 14 | 45645
2 | 10:08.46 | 11:58.07 | 45646 | 99502
3 | 22:06.53 | 9:59.27 | 99503 | 144454
4 | 32:06.05 | 7:49.00 | 144455 | 179629


Track 1

Filename C:\tmp\00_RIPS\01 - A Meeting By The River.wav

Pre-gap length 0:00:02.18

Peak level 39.6 %
Extraction speed 9.1 X
Track quality 100.0 %
Test CRC 83397F11
Copy CRC 83397F11
Accurately ripped (confidence 25) [CC7989B2] (AR v2)
Copy OK

Track 2

Filename C:\tmp\00_RIPS\02 - Longing.wav

Pre-gap length 0:00:00.28

Peak level 30.2 %
Extraction speed 10.8 X
Track quality 99.9 %
Test CRC 40D5D4AA
Copy CRC 40D5D4AA
Accurately ripped (confidence 25) [6D619C5F] (AR v2)
Copy OK

Track 3

Filename C:\tmp\00_RIPS\03 - Ganges Delta Blues.wav

Pre-gap length 0:00:00.28

Peak level 50.7 %
Extraction speed 13.3 X
Track quality 100.0 %
Test CRC 55BB58D8
Copy CRC 55BB58D8
Accurately ripped (confidence 25) [382A8C71] (AR v2)
Copy OK

Track 4

Filename C:\tmp\00_RIPS\04 - Isa Lei.wav

Pre-gap length 0:00:00.17

Peak level 16.1 %
Extraction speed 13.4 X
Track quality 100.0 %
Test CRC D789DDAF
Copy CRC D789DDAF
Accurately ripped (confidence 25) [7FCE2825] (AR v2)
Copy OK


All tracks accurately ripped

No errors occurred

End of status report

–– CUETools DB Plugin V2.1.6

[CTDB TOCID: gi2f8uKW4LpQkdKiPeTFg31e_t0-] found
Submit result: gi2f8uKW4LpQkdKiPeTFg31e_t0- has been confirmed
Track | CTDB Status
1 | (11/11) Accurately ripped
2 | (11/11) Accurately ripped
3 | (11/11) Accurately ripped
4 | (11/11) Accurately ripped


==== Log checksum 5311D00E1C276D82EA66B78C7C3EF3557F3A8D81F8822DD96F21291700713058 ====

foobar2000 1.2 / Dynamic Range Meter 1.1.1
log date: 2017-09-25 00:07:05

––––––––––––––––––––––––––––––––––––––––
Analyzed: Ry Cooder & V.M. Bhatt / A Meeting by the River
––––––––––––––––––––––––––––––––––––––––

DR Peak RMS Duration Track
––––––––––––––––––––––––––––––––––––––––
DR19 -8.03 dB -32.20 dB 10:08 01-A Meeting by the River
DR17 -10.39 dB -34.66 dB 11:58 02-Longing
DR17 -5.89 dB -26.92 dB 9:59 03-Ganges Delta Blues
DR15 -15.83 dB -34.99 dB 7:49 04-Isa Lei
––––––––––––––––––––––––––––––––––––––––

Number of tracks: 4
Official DR value: DR17

Samplerate: 44100 Hz
Channels: 2
Bits per sample: 16
Bitrate: 470 kbps
Codec: FLAC
================================================================================

Ry Cooder & V.M. Bhatt - A Meeting by the River (1993) [Analogue Productions, Remastered 2008]

Ry Cooder & V.M. Bhatt - A Meeting by the River (1993) [Analogue Productions, Remastered 2008]

All thanks to original releaser - mclarenspy

More interesting music in My Blog