Subcategories
Tags
Language
Tags

Ryan McGarvey - Live At Swinghouse (2018)

Posted By: popsakov
Ryan McGarvey - Live At Swinghouse (2018)

Ryan McGarvey - Live At Swinghouse (2018)
EAC Rip | FLAC (Img) + Cue + Log ~ 481 Mb | MP3 CBR320 ~ 182 Mb
Full Scans | 01:06:09 | RAR 5% Recovery
Blues Rock | Forward In Reverse Music #FIRM004

This very special, and intimate evening was recorded LIVE in 2016 at Swinghouse Studios (Los Angeles, California USA). It consisted of Ryan McGarvey on Guitar/Vocals, Logan Miles Nix (John5 & The Creatures) on Drums, and Carmine Rojas (David Bowie/Rod Stewart/Tina Turner/Joe Bonamassa/etc) on Bass. This performance included such crowd favorites as "My Heart TO You", "Memphis", and "Joyride". As well as epic orchestrations of key original songs "Prove Myself", and "Mystic Dream".

Ryan McGarvey is a star on the rise. In just the past few years his accolades have included being selected by Eric Clapton from over 4,000+ artists worldwide to perform at his 2010 Crossroads Guitar Festival in Chicago, to the Guitar Player Magazine’s Annual Readers Choice Award for “Best New Talent” in 2013. 2014 proved to be another epic year for McGarvey as he voted the winner of “Best Guitarist” in the European Blues Awards. Ryan is constantly on tour internationally, and records whenever time permits. His incendiary, yet dynamic guitar playing leaves crowds around the world marveling, and wanting more. With strong songs, award winning vocals, fierce guitar playing, an unstoppable work ethic, and an undying love for the blues flavored hard rock he pours from his soul, Ryan has been compared to the best in the business. Ryan McGarvey, though already a seasoned professional, has a bright future ahead of him that has only just begun. Catch him when you can!

***************

Ryan McGarvey - Live At Swinghouse (2018)

Track List:

01. I Wish I Was Your Man [3:22]
02. Texas Special [3:23]
03. Prove Myself [12:28]
04. Blues Knockin' At My Door [7:37]
05. LIttle Red Riding Hood [3:53]
06. My Heart To You [6:07]
07. Memphis [4:15]
08. Mystic Dream [17:30]
09. Joyride [7:33]

Exact Audio Copy V1.3 from 2. September 2016

Отчёт EAC об извлечении, выполненном 26. мая 2018, 14:00

Ryan McGarvey / Live At Swinghouse

Дисковод: HL-DT-STDVD+-RW GH82N Adapter: 1 ID: 0

Режим чтения : Достоверность
Использование точного потока : Да
Отключение кэша аудио : Да
Использование указателей C2 : Нет

Коррекция смещения при чтении : 667
Способность читать области Lead-in и Lead-out : Нет
Заполнение пропущенных сэмплов тишиной : Да
Удаление блоков с тишиной в начале и конце : Нет
При вычислениях CRC использовались нулевые сэмплы : Да
Интерфейс : Встроенный Win32-интерфейс для Win NT/2000

Выходной формат : Пользовательский кодировщик
Выбранный битрейт : 1024 kBit/s
Качество : Высокий
Добавление ID3-тега : Нет
Утилита сжатия : C:\Program Files (x86)\Exact Audio Copy\FLAC\FLAC.EXE
Дополнительные параметры : -8 -V -T "ARTIST=%artist%" -T "ALBUM=%albumtitle%" -T "DATE=%year%" -T "GENRE=%genre%" -T "COMMENT=ripped by izia1956" %source%


TOC извлечённого CD

Трек | Старт | Длительность | Начальный сектор | Конечный сектор
––––––––––––––––––––––––––––––––––-
1 | 0:00.00 | 3:22.33 | 0 | 15182
2 | 3:22.33 | 3:23.37 | 15183 | 30444
3 | 6:45.70 | 12:28.20 | 30445 | 86564
4 | 19:14.15 | 7:36.63 | 86565 | 120827
5 | 26:51.03 | 3:52.60 | 120828 | 138287
6 | 30:43.63 | 6:06.50 | 138288 | 165787
7 | 36:50.38 | 4:15.13 | 165788 | 184925
8 | 41:05.51 | 17:30.32 | 184926 | 263707
9 | 58:36.08 | 7:32.74 | 263708 | 297681


Характеристики диапазона извлечения и сообщения об ошибках

Выбранный диапазон

Имя файла E:\BitComet\Ryan McGarvey\2018 - Live at Swinghouse\Ryan McGarvey - Live At Swinghouse.wav

Пиковый уровень 96.5 %
Скорость извлечения 3.3 X
Качество диапазона 99.9 %
CRC теста 9472D743
CRC копии 9472D743
Копирование… OK

Ошибок не произошло


AccurateRip: сводка

Трек 1 отсутствует в базе данных
Трек 2 отсутствует в базе данных
Трек 3 отсутствует в базе данных
Трек 4 отсутствует в базе данных
Трек 5 отсутствует в базе данных
Трек 6 отсутствует в базе данных
Трек 7 отсутствует в базе данных
Трек 8 отсутствует в базе данных
Трек 9 отсутствует в базе данных

Ни одного трека нет в базе AccurateRip

Конец отчёта

==== Контрольная сумма отчёта 6DC7C4C9A4B882A4EC853019609B5276375DB10DFAA3E60BE2A472AD84758FB0 ====

Ryan McGarvey - Live At Swinghouse (2018)


All thanks go to izia1956

>>> My Blog <<<

DOWNLOAD: