Subcategories
Tags
Language
Tags

Ryuichi Sakamoto - Field Work, Steppin' into Asia (1987) [Midi Inc. MID-1503, Japan]

Posted By: v3122
Ryuichi Sakamoto - Field Work, Steppin' into Asia (1987) [Midi Inc. MID-1503, Japan]

Ryuichi Sakamoto - Field Work, Steppin' into Asia (1987)
EAC | Flac(Image) + Cue + Log & MP3 CBR 320Kbps
Midi Inc. MID-1503 | ~ 233 or 92 Mb | Artwork(jpg) -> 4.15 Mb
Electro, Synth-Pop, Ambient

Ryuichi Sakamoto (born January 17, 1952 in Tokyo, Japan) is a Japanese musician, composer and actor. Sakamoto studied at the Tokyo National University of Fine Arts and Music, where he graduated with a BA in composition, and a Master's degree with special emphasis electronic and ethnic music. Sakamoto began his career in the late 1970s, working as a composer, arranger and producer with some of Japan's most popular rock, jazz and classical artists. He released his first solo album in 1978 but came to fame as a member of Japanese synth-rock outfit Yellow Magic Orchestra with co-founders Haruomi Hosono and Yukihiro Takahashi. He collaborated with David Sylvian on a number of singles and most of Sylvian's albums. He appeared in the 1983 Nagisa Oshima film Merry Christmas, Mr Lawrence alongside British rock singer David Bowie; he also wrote the film's musical score. He won the Academy Award for his score to the 1987 Bernardo Bertolucci film The Last Emperor. He has also written soundtracks for Pedro Almodovar's film High Heels, and Oliver Stone's Wild Palms. Sakamoto was married to a Japanese pianist and singer Akiko Yano, collaborating with her on some of her recordings. He is also known as a critic of copyright law, saying it is antiquated in the information age…

~ discogs
Ryuichi Sakamoto - Field Work, Steppin' into Asia (1987):

Ryuichi Sakamoto - Field Work, Steppin' into Asia (1987) [Midi Inc. MID-1503, Japan]

Tracklist:

01. Field Work (Long-Lon) (feat. Thomas Dolby) (6:04)
02. Field Work (Long-Tyo) (feat. Thomas Dolby) (6:58)
03. Exhibition (15:32)
04. Steppin' into Asia (5:21)
05. Steppin' into Asia (Urban Mix) (5:11)

X Lossless Decoder version 20161007 (149.3)

XLD extraction logfile from 2017-02-21 11:05:01 +0900

Ryuichi Sakamoto / Field Work + Steppin' Into Asia

Used drive : _NEC DVD_RW ND-3540A (revision 1.01)
Media type : Pressed CD

Ripper mode : XLD Secure Ripper
Disable audio cache : OK for the drive with a cache less than 1375KiB
Make use of C2 pointers : NO
Read offset correction : 48
Max retry count : 20
Gap status : Analyzed, Appended (except HTOA)

TOC of the extracted CD
Track | Start | Length | Start sector | End sector
––––––––––––––––––––––––––––-
1 | 00:00:37 | 06:04:13 | 37 | 27349
2 | 06:04:50 | 06:57:62 | 27350 | 58686
3 | 13:02:37 | 15:31:60 | 58687 | 128571
4 | 28:34:22 | 05:20:65 | 128572 | 152636
5 | 33:55:12 | 05:11:15 | 152637 | 175976

AccurateRip Summary (DiscID: 00084a1c-00272025-3f092a05)
Track 01 : OK (v1+v2, confidence 2/2)
Track 02 : OK (v1+v2, confidence 2/2)
Track 03 : OK (v1+v2, confidence 2/2)
Track 04 : OK (v2, confidence 1/2)
Track 05 : OK (v1+v2, confidence 2/2)
->All tracks accurately ripped.

All Tracks
Album gain : -1.98 dB
Peak : 1.000000
Statistics
Read error : 0
Jitter error (maybe fixed) : 0
Retry sector count : 0
Damaged sector count : 0

Track 01
Filename : /konwersja/Ryuichi Sakamoto - Field Work + Steppin' Into Asia (1987) [FLAC] (MID-1503)/01 - Field Work (Long-LON).flac
Pre-gap length : 00:02:37

Track gain : -2.11 dB
Peak : 0.853577
CRC32 hash (test run) : 39CD90DB
CRC32 hash : 39CD90DB
CRC32 hash (skip zero) : 98160699
AccurateRip v1 signature : 0EBB0E50
AccurateRip v2 signature : 099F75F8
->Accurately ripped (v1+v2, confidence 1+1/2)
Statistics
Read error : 0
Jitter error (maybe fixed) : 0
Retry sector count : 0
Damaged sector count : 0

Track 02
Filename : /konwersja/Ryuichi Sakamoto - Field Work + Steppin' Into Asia (1987) [FLAC] (MID-1503)/02 - Field Work (Long-TYO).flac

Track gain : -1.44 dB
Peak : 1.000000
CRC32 hash (test run) : AE6B67EB
CRC32 hash : AE6B67EB
CRC32 hash (skip zero) : 8DFB9D55
AccurateRip v1 signature : 3A139FA4
AccurateRip v2 signature : 0AB447C6
->Accurately ripped (v1+v2, confidence 1+1/2)
Statistics
Read error : 0
Jitter error (maybe fixed) : 0
Retry sector count : 0
Damaged sector count : 0

Track 03
Filename : /konwersja/Ryuichi Sakamoto - Field Work + Steppin' Into Asia (1987) [FLAC] (MID-1503)/03 - Exhibition.flac
Pre-gap length : 00:02:24

Track gain : 3.02 dB
Peak : 0.643311
CRC32 hash (test run) : AEF235BB
CRC32 hash : AEF235BB
CRC32 hash (skip zero) : B9D9FCEA
AccurateRip v1 signature : F4D53E56
AccurateRip v2 signature : A85D2363
->Accurately ripped (v1+v2, confidence 1+1/2)
Statistics
Read error : 0
Jitter error (maybe fixed) : 0
Retry sector count : 0
Damaged sector count : 0

Track 04
Filename : /konwersja/Ryuichi Sakamoto - Field Work + Steppin' Into Asia (1987) [FLAC] (MID-1503)/04 - Steppin' Into Asia.flac
Pre-gap length : 00:01:22

Track gain : -3.64 dB
Peak : 0.776245
CRC32 hash (test run) : CB24F26D
CRC32 hash : CB24F26D
CRC32 hash (skip zero) : 4DF290F6
AccurateRip v1 signature : 972DD058
AccurateRip v2 signature : 872FA766
->Accurately ripped (v2, confidence 1/2)
Statistics
Read error : 0
Jitter error (maybe fixed) : 0
Retry sector count : 0
Damaged sector count : 0

Track 05
Filename : /konwersja/Ryuichi Sakamoto - Field Work + Steppin' Into Asia (1987) [FLAC] (MID-1503)/05 - Steppin' Into Asia (Urban Mix).flac
Pre-gap length : 00:00:74

Track gain : -3.94 dB
Peak : 0.904724
CRC32 hash (test run) : 7139D27D
CRC32 hash : 7139D27D
CRC32 hash (skip zero) : C93EFEA1
AccurateRip v1 signature : 767A13E3
AccurateRip v2 signature : 2341FB04
->Accurately ripped (v1+v2, confidence 1+1/2)
Statistics
Read error : 0
Jitter error (maybe fixed) : 0
Retry sector count : 0
Damaged sector count : 0

No errors occurred

End of status report

––-BEGIN XLD SIGNATURE––-
8jgusHH5r6EJD8cpndTa_vUkckRUmF0CggIwCy.jawb2_YmGuxzHGwnj4UzW7AXuQTrDA9JDV4xHknKBXGWJO8Etz3rmCJsmicJkdgW
––-END XLD SIGNATURE––-


[CUETools log; Date: 22.12.2018 13:19:03; Version: 2.1.4]
Pregap length 00:00:37.
[AccurateRip ID: 00084a1c-00272025-3f092a05] found.
Track [ CRC | V2 ] Status
01 [0ebb0e50|099f75f8] (1+1/2) Accurately ripped
02 [3a139fa4|0ab447c6] (1+1/2) Accurately ripped
03 [f4d53e56|a85d2363] (1+1/2) Accurately ripped
04 [972dd058|872fa766] (0+1/2) Accurately ripped
05 [767a13e3|2341fb04] (1+1/2) Accurately ripped

Track Peak [ CRC32 ] [W/O NULL]
– 100,0 [74737D3D] [FF98EE88]
01 85,3 [39CD90DB] [98160699]
02 100,0 [AE6B67EB] [8DFB9D55]
03 64,3 [AEF235BB] [B9D9FCEA]
04 77,6 [CB24F26D] [4DF290F6]
05 90,4 [7139D27D] [C93EFEA1]


Ryuichi Sakamoto - Field Work, Steppin' into Asia (1987) [Midi Inc. MID-1503, Japan]

All thanks go to dotdash

Ryuichi Sakamoto in my Blog

Download Ryuichi Sakamoto - Field Work, Steppin' into Asia (1987):