Subcategories
Tags
Language
Tags

Sade - Lovers Rock (2000)

Posted By: v3122
Sade - Lovers Rock (2000)

Sade - Lovers Rock (2000)
EAC | Flac(Image) + Cue + Log & MP3 CBR 320Kbps
Epic EK 85185 | Canada | ~ 257 or 105 Mb | Artwork(jpg) -> 92 Mb
Electronic, Reggae, Funk / Soul, Soft Rock, Downtempo

Lovers Rock, the title of Sade's first album of the 21st century, could be taken on many levels. Never before has the singer infused more mainstream rock elements (prominent strummed guitars) into her music as evidenced by the first single, "By Your Side." That's not to say that she has eschewed her own tried-and-true brand of smoky, dusky ballads. The singer/songwriter is reunited with co-producer Mike Pela and musician/songwriters Andrew Hale, Stuart Matthewman, and Paul S. Denman; and Lovers Rock finds them all in fine form. "Somebody Already Broke My Heart," "Every Word," and "Lovers Rock" are vintage Sade.

by Ed Hogan, allmusic
Sade - Lovers Rock (2000):

Sade - Lovers Rock (2000)

Tracklist:

01. By Your Side 4:35
02. Flow 4:34
03. King Of Sorrow 4:53
04. Somebody Already Broke My Heart 5:01
05. All About Our Love 2:41
06. Slave Song 4:14
07. The Sweetest Gift 2:19
08. Every Word 4:04
09. Immigrant 3:49
10. Lovers Rock 4:15
11. It's Only Love That Gets You Through 3:54

Exact Audio Copy V1.6 from 23. October 2020

EAC extraction logfile from 25. May 2021, 19:10

Sade / Lovers Rock (EK 85185)

Used drive : ASUS DRW-24D5MT Adapter: 1 ID: 0

Read mode : Secure
Utilize accurate stream : Yes
Defeat audio cache : Yes
Make use of C2 pointers : No

Read offset correction : 6
Overread into Lead-In and Lead-Out : No
Fill up missing offset samples with silence : Yes
Delete leading and trailing silent blocks : No
Null samples used in CRC calculations : Yes
Used interface : Native Win32 interface for Win NT & 2000

Used output format : User Defined Encoder
Selected bitrate : 768 kBit/s
Quality : High
Add ID3 tag : No
Command line compressor : C:\Program Files (x86)\Exact Audio Copy\Flac\flac.exe
Additional command line options : -V -8 -T "Genre=%genre%" -T "Artist=%artist%" -T "Title=%title%" -T "Album=%albumtitle%" -T "Date=%year%" -T "Tracknumber=%tracknr%" -T "Comment=%comment%" %source%


TOC of the extracted CD

Track | Start | Length | Start sector | End sector
––––––––––––––––––––––––––––-
1 | 0:00.00 | 4:34.67 | 0 | 20616
2 | 4:34.67 | 4:34.33 | 20617 | 41199
3 | 9:09.25 | 4:52.67 | 41200 | 63166
4 | 14:02.17 | 5:01.15 | 63167 | 85756
5 | 19:03.32 | 2:40.50 | 85757 | 97806
6 | 21:44.07 | 4:14.33 | 97807 | 116889
7 | 25:58.40 | 2:18.65 | 116890 | 127304
8 | 28:17.30 | 4:04.35 | 127305 | 145639
9 | 32:21.65 | 3:49.35 | 145640 | 162849
10 | 36:11.25 | 4:14.40 | 162850 | 181939
11 | 40:25.65 | 3:53.60 | 181940 | 199474


Range status and errors

Selected range

Filename I:\dafnaplus\Sade - Lovers Rock\Sade - Lovers Rock (EK 85185).wav

Peak level 99.8 %
Extraction speed 3.0 X
Range quality 99.9 %
Test CRC B952144C
Copy CRC B952144C
Copy OK

No errors occurred


AccurateRip summary

Track 1 accurately ripped (confidence 72) [B579039E] (AR v2)
Track 2 accurately ripped (confidence 71) [257FBBD0] (AR v2)
Track 3 accurately ripped (confidence 72) [3A97E211] (AR v2)
Track 4 accurately ripped (confidence 71) [9FC924DC] (AR v2)
Track 5 accurately ripped (confidence 70) [0E94A8D7] (AR v2)
Track 6 accurately ripped (confidence 71) [2FC0D19E] (AR v2)
Track 7 accurately ripped (confidence 71) [C46D54EC] (AR v2)
Track 8 accurately ripped (confidence 71) [19348CA8] (AR v2)
Track 9 accurately ripped (confidence 68) [0BB20491] (AR v2)
Track 10 accurately ripped (confidence 68) [ECBB4122] (AR v2)
Track 11 accurately ripped (confidence 70) [79313099] (AR v2)

All tracks accurately ripped

End of status report

–– CUETools DB Plugin V2.1.6

[CTDB TOCID: YmFKuWoz3suQ2pl.hW1i._TMEbk-] found
Submit result: YmFKuWoz3suQ2pl.hW1i._TMEbk- has been confirmed
Track | CTDB Status
1 | (662/680) Accurately ripped
2 | (669/680) Accurately ripped
3 | (668/680) Accurately ripped
4 | (671/680) Accurately ripped
5 | (669/680) Accurately ripped
6 | (666/680) Accurately ripped
7 | (669/680) Accurately ripped
8 | (668/680) Accurately ripped
9 | (666/680) Accurately ripped
10 | (666/680) Accurately ripped
11 | (669/680) Accurately ripped


==== Log checksum B919A5F53F097A04F3649A42EA6D9F801E3D1F8AD15B2A943DF3D98072A8466A ====


[CUETools log; Date: 16.06.2021 8:33:14; Version: 2.1.4]
[AccurateRip ID: 0012f618-00a1ce44-930a630b] found.
Track [ CRC | V2 ] Status
01 [3c968435|b579039e] (034+075/495) Accurately ripped
02 [55a7d292|257fbbd0] (035+074/496) Accurately ripped
03 [748aea90|3a97e211] (035+075/496) Accurately ripped
04 [3e49b753|9fc924dc] (035+074/493) Accurately ripped
05 [122b04db|0e94a8d7] (036+073/497) Accurately ripped
06 [f482e8ba|2fc0d19e] (033+074/491) Accurately ripped
07 [82d3b0f2|c46d54ec] (034+074/495) Accurately ripped
08 [99a4982e|19348ca8] (034+074/496) Accurately ripped
09 [e70c5078|0bb20491] (035+071/492) Accurately ripped
10 [99e68a94|ecbb4122] (034+071/491) Accurately ripped
11 [d89b705e|79313099] (034+073/491) Accurately ripped
Offsetted by -110:
01 [9caad464] (037/495) Accurately ripped
02 [528c6859] (037/496) Accurately ripped
03 [5ce06a1c] (038/496) Accurately ripped
04 [15ff5fe5] (038/493) Accurately ripped
05 [d1b0f78b] (038/497) Accurately ripped
06 [0d41044c] (037/491) Accurately ripped
07 [429226d2] (038/495) Accurately ripped
08 [bbbd69aa] (037/496) Accurately ripped
09 [a6d59ed0] (036/492) Accurately ripped
10 [e7e141f2] (038/491) Accurately ripped
11 [4dc2a10c] (036/491) Accurately ripped
Offsetted by -40:
01 [c8701f65] (003/495) Accurately ripped
02 [54ee379a] (003/496) Accurately ripped
03 [66b957e2] (003/496) Accurately ripped
04 [2f459035] (003/493) Accurately ripped
05 [b4e75d1b] (003/497) Accurately ripped
06 [fd823892] (003/491) Accurately ripped
07 [3cea6772] (003/495) Accurately ripped
08 [48f36ffe] (003/496) Accurately ripped
09 [a126f898] (003/492) Accurately ripped
10 [b641b5fc] (003/491) Accurately ripped
11 [03355386] (003/491) Accurately ripped
Offsetted by -16:
01 [daed8f15] (031/495) Accurately ripped
02 [222a6162] (031/496) Accurately ripped
03 [72259ed8] (031/496) Accurately ripped
04 [051e405b] (031/493) Accurately ripped
05 [86765b5b] (031/497) Accurately ripped
06 [c4e908aa] (031/491) Accurately ripped
07 [9a0ff9f2] (031/495) Accurately ripped
08 [795dbb4e] (031/496) Accurately ripped
09 [64b093b8] (031/492) Accurately ripped
10 [3ed7cf24] (031/491) Accurately ripped
11 [1cd8fe6e] (030/491) Accurately ripped
Offsetted by 25:
01 [852e8337] (012/495) Accurately ripped
02 [561bd36d] (012/496) Accurately ripped
03 [b342a784] (012/496) Accurately ripped
04 [c79ed31e] (012/493) Accurately ripped
05 [ac754db3] (012/497) Accurately ripped
06 [eee356d3] (012/491) Accurately ripped
07 [ee857ee2] (012/495) Accurately ripped
08 [4c13514c] (012/496) Accurately ripped
09 [52bba764] (011/492) Accurately ripped
10 [082d8f73] (012/491) Accurately ripped
11 [bdfb4265] (012/491) Accurately ripped
Offsetted by 109:
01 [45e58a1f] (010/495) Accurately ripped
02 [246e65a9] (010/496) Accurately ripped
03 [bd0a2518] (010/496) Accurately ripped
04 [b930d86e] (010/493) Accurately ripped
05 [89e9c793] (010/497) Accurately ripped
06 [a8cb2f27] (010/491) Accurately ripped
07 [b488ffa2] (010/495) Accurately ripped
08 [f58758e4] (010/496) Accurately ripped
09 [7f1d4654] (010/492) Accurately ripped
10 [663ae77f] (010/491) Accurately ripped
11 [97b81891] (010/491) Accurately ripped
Offsetted by 139:
01 [9d0255bb] (007/495) Accurately ripped
02 [24f999e3] (007/496) Accurately ripped
03 [f524fcf4] (007/496) Accurately ripped
04 [c8b30118] (007/493) Accurately ripped
05 [0fdc8563] (007/497) Accurately ripped
06 [a20bb345] (007/491) Accurately ripped
07 [68f7f6c2] (007/495) Accurately ripped
08 [320c3708] (007/496) Accurately ripped
09 [3389483c] (007/492) Accurately ripped
10 [50f686f1] (007/491) Accurately ripped
11 [77c4ae33] (007/491) Accurately ripped
Offsetted by 281:
01 [9fbdd537] (002/495) Accurately ripped
02 [8df2e66d] (002/496) Accurately ripped
03 [9044783b] (002/496) Accurately ripped
04 [76f3a647] (002/493) Accurately ripped
05 [67bfe5b3] (002/497) Accurately ripped
06 [e88157d3] (002/491) Accurately ripped
07 [7cbe27b2] (002/495) Accurately ripped
08 [50572040] (002/496) Accurately ripped
09 [78777364] (002/492) Accurately ripped
10 [b9194673] (002/491) Accurately ripped
11 [7a226165] (002/491) Accurately ripped
Offsetted by 288:
01 [1a77c075] (005/495) Accurately ripped
02 [f479c7f2] (005/496) Accurately ripped
03 [3c6ed67a] (005/496) Accurately ripped
04 [608c7f65] (005/493) Accurately ripped
05 [e4deefdb] (005/497) Accurately ripped
06 [4d54a9da] (005/491) Accurately ripped
07 [e2f13993] (005/495) Accurately ripped
08 [de762105] (005/496) Accurately ripped
09 [117f95f8] (005/492) Accurately ripped
10 [00efb874] (005/491) Accurately ripped
11 [0c47733e] (005/491) Accurately ripped
Offsetted by 331:
01 [30edd33b] (002/495) Accurately ripped
02 [8edae823] (002/496) Accurately ripped
03 [ff3accaa] (002/496) Accurately ripped
04 [8da3015a] (002/493) Accurately ripped
05 [9c547763] (002/497) Accurately ripped
06 [dd423405] (002/491) Accurately ripped
07 [795b8bb2] (002/495) Accurately ripped
08 [b5ae9554] (002/496) Accurately ripped
09 [4fd6213c] (002/492) Accurately ripped
10 [95a75031] (002/491) Accurately ripped
11 [44e20573] (002/491) Accurately ripped
Offsetted by 811:
01 [5f21cd45] (017/495) Accurately ripped
02 [97df2b69] (016/496) Accurately ripped
03 [19d7a5d0] (015/496) Accurately ripped
04 [2c19c05c] (016/493) Accurately ripped
05 [fb805463] (016/497) Accurately ripped
06 [714a75e5] (016/491) Accurately ripped
07 [48f4c8af] (016/495) Accurately ripped
08 [7985773f] (016/496) Accurately ripped
09 [96963fbc] (016/492) Accurately ripped
10 [41614751] (016/491) Accurately ripped
11 [45ab5f93] (016/491) Accurately ripped
Offsetted by 861:
01 [114c8177] (017/495) Accurately ripped
02 [9a9026c5] (017/496) Accurately ripped
03 [85fb0eb7] (016/496) Accurately ripped
04 [45c28bbf] (017/493) Accurately ripped
05 [3014e613] (017/497) Accurately ripped
06 [660b5217] (017/491) Accurately ripped
07 [640d7562] (017/495) Accurately ripped
08 [c7ecca74] (017/496) Accurately ripped
09 [6df4ed94] (017/492) Accurately ripped
10 [1def510f] (017/491) Accurately ripped
11 [106b03a1] (017/491) Accurately ripped
Offsetted by 952:
01 [4cbd839c] (009/495) Accurately ripped
02 [cf698a87] (010/496) Accurately ripped
03 [a220eac6] (010/496) Accurately ripped
04 [36896005] (009/493) Accurately ripped
05 [8aa86a1b] (009/497) Accurately ripped
06 [84c67c72] (009/491) Accurately ripped
07 [be4d685b] (010/495) Accurately ripped
08 [d8639b31] (010/496) Accurately ripped
09 [335eaf18] (010/492) Accurately ripped
10 [c3d31b1c] (010/491) Accurately ripped
11 [7c4ceba6] (010/491) Accurately ripped
Offsetted by 1047:
01 [6098c3bd] (010/495) Accurately ripped
02 [d12249e1] (010/496) Accurately ripped
03 [dea4d68c] (010/496) Accurately ripped
04 [07dfe1f8] (010/493) Accurately ripped
05 [08291883] (010/497) Accurately ripped
06 [6f681ed1] (010/491) Accurately ripped
07 [d9b136fd] (010/495) Accurately ripped
08 [01e039f9] (010/496) Accurately ripped
09 [995f5fcc] (010/492) Accurately ripped
10 [007a9405] (010/491) Accurately ripped
11 [171f7027] (010/491) Accurately ripped
Offsetted by 1201:
01 [ec931623] (002/495) Accurately ripped
02 [a0b9903d] (002/496) Accurately ripped
03 [10178684] (002/496) Accurately ripped
04 [72d7ee0a] (002/493) Accurately ripped
05 [c8d3f7f3] (002/497) Accurately ripped
06 [19912b6b] (002/491) Accurately ripped
07 [1d32d8c3] (002/495) Accurately ripped
08 [3b4b5e57] (002/496) Accurately ripped
09 [c0125884] (002/492) Accurately ripped
10 [2ce8601b] (002/491) Accurately ripped
11 [a64ef8cd] (002/491) Accurately ripped
Offsetted by -664:
01 [dd5a0aa9] (000/495) No match (V2 was not tested)
02 [567f811e] (000/496) No match (V2 was not tested)
03 [2a9d3835] (000/496) No match (V2 was not tested)
04 [e0fed3d6] (000/493) No match (V2 was not tested)
05 [6c618a9b] (000/497) No match (V2 was not tested)
06 [bd111622] (000/491) No match (V2 was not tested)
07 [c7198672] (000/495) No match (V2 was not tested)
08 [5e27c9de] (000/496) No match (V2 was not tested)
09 [c52d3758] (000/492) No match (V2 was not tested)
10 [d70327ec] (000/491) No match (V2 was not tested)
11 [6895f7f6] (000/491) No match (V2 was not tested)
Offsetted by -170:
01 [23cc2af9] (000/495) No match (V2 was not tested)
02 [4d0ef7b4] (000/496) No match (V2 was not tested)
03 [1f5fbb60] (000/496) No match (V2 was not tested)
04 [fe054a05] (000/493) No match (V2 was not tested)
05 [c5cb7beb] (000/497) No match (V2 was not tested)
06 [1abffc10] (000/491) No match (V2 was not tested)
07 [d9b43892] (000/495) No match (V2 was not tested)
08 [42b3ad62] (000/496) No match (V2 was not tested)
09 [3dfd9b00] (000/492) No match (V2 was not tested)
10 [126a030e] (000/491) No match (V2 was not tested)
11 [8da975c8] (000/491) No match (V2 was not tested)
Offsetted by -18:
01 [6eb87071] (000/495) No match (V2 was not tested)
02 [bbbab33c] (000/496) No match (V2 was not tested)
03 [8910d54f] (000/496) No match (V2 was not tested)
04 [9df5718e] (000/493) No match (V2 was not tested)
05 [f4ffc62b] (000/497) No match (V2 was not tested)
06 [5ef5cca8] (000/491) No match (V2 was not tested)
07 [7cf78312] (000/495) No match (V2 was not tested)
08 [7554dfb2] (000/496) No match (V2 was not tested)
09 [14651c20] (000/492) No match (V2 was not tested)
10 [7375f7b6] (000/491) No match (V2 was not tested)
11 [8560b030] (000/491) No match (V2 was not tested)
Offsetted by 6:
01 [8135e021] (000/495) No match
02 [88f6dd04] (000/496) No match
03 [468a2f44] (000/496) No match
04 [73b2242d] (000/493) No match
05 [c68ec46b] (000/497) No match
06 [265c9cc0] (000/491) No match
07 [da1d1592] (000/495) No match
08 [a5bf2b02] (000/496) No match
09 [d7eeb740] (000/492) No match (V2 was not tested)
10 [fc0c10de] (000/491) No match (V2 was not tested)
11 [9f045b18] (000/491) No match (V2 was not tested)
Offsetted by 128:
01 [49de2d35] (000/495) No match (V2 was not tested)
02 [f1935c12] (000/496) No match (V2 was not tested)
03 [042a393e] (000/496) No match (V2 was not tested)
04 [0fb58bad] (000/493) No match (V2 was not tested)
05 [6fd050db] (000/497) No match (V2 was not tested)
06 [7151e93a] (000/491) No match (V2 was not tested)
07 [c8f168f2] (000/495) No match (V2 was not tested)
08 [9bdb7f2e] (000/496) No match (V2 was not tested)
09 [f9ea3678] (000/492) No match (V2 was not tested)
10 [725c6614] (000/491) No match (V2 was not tested)
11 [b6aeffde] (000/491) No match (V2 was not tested)

Track Peak [ CRC32 ] [W/O NULL] [ LOG ]
– 99,8 [B952144C] [02B83657] CRC32
01 99,8 [8A9EAEA7] [EEDAB562]
02 99,8 [C60BEC01] [6BA02558]
03 99,8 [9638E695] [66D4391D]
04 99,8 [0A39312F] [6BFBD104]
05 89,0 [F4D0441F] [0CBE9E06]
06 99,8 [CE430211] [468DDF7D]
07 79,3 [1E57538C] [55C1D5ED]
08 99,8 [DC507B86] [BC295AD0]
09 99,8 [26D65EC2] [0E5B6078]
10 99,8 [ED202904] [9B310A2C]
11 79,2 [63BCB7B1] [B00567BA]


Sade - Lovers Rock (2000)

All thanks go to the original releaser

Sade in my Blog

Download Sade - Lovers Rock (2000):