Subcategories
Tags
Language
Tags

Samsara Blues Experiment - 4 Studio Albums (2010-2017) (Re-up)

Posted By: gribovar
Samsara Blues Experiment - 4 Studio Albums (2010-2017) (Re-up)

Samsara Blues Experiment - 4 Studio Albums (2010-2017)
EAC Rip | FLAC (tracks+.cue+log) - 1,42 GB | MP3 CBR 320 kbps (LAME 3.93) - 492 MB | Covers - 221 MB
Genre: Psychedelic/Space Rock, Stoner Rock | RAR 3% Rec. | Label: World In Sound, Electric Magic Records

Samsara Blues Experiment are a Berlin based band, founded in Summer 2007 by leadguitarist/singer Christian Peters. They went through several changes in the first period but are in constant line-up since September 2008 featuring Hans Eiselt (guitar), drummer Thomas Vedder and Richard Behrens (bass). As the band name implies three elemental aspects are to notice - the blues as the fundament where it all comes from, the inclusion of spiritual influences accompanied by Indian/raga music and the experimental approach to mix up varied elements in a convincing manner.
The band's songs are dominated by a playful dual guitar work as well as a passionate blend of heavy psych, stoner and space rock. This is provided with several nuances and transitions in between - quite retro styled, jamming, even sometimes worked out with a repetitive hypnotic touch in the tradition of krautrock. The band produced two appetizer EP's and intensively toured Europe as well as the US-Westcoast in order to reach for the appropriate condition to record a full album.
World In Sound released the long awaited debut "Long Distance Trip" in March 2010 which finally offers the band's potential. Samsara Blues Experiment are a demanded live band in the meanwhile and participate at many European festivals, Roadburn, Yellowstock and Burg Herzberg to name a few.

Samsara Blues Experiment - 4 Studio Albums (2010-2017) (Re-up)

Samsara Blues Experiment - Long Distance Trip (2010)
EAC Rip | FLAC (tracks+.cue+log) - 447 MB | MP3 CBR 320 kbps (LAME 3.93) - 156 MB | Covers - 32 MB
Genre: Psychedelic/Space Rock, Stoner Rock | RAR 3% Rec. | Label: World In Sound (WIS-3010)

Tracklist:
01. Singata (Mystic Queen)
02. Army of Ignorance
03. For the Lost Souls
04. Center Of The Sun
05. Wheel of Life
06. Double Freedom

Total time: 01:06:29

Exact Audio Copy V1.0 beta 3 from 29. August 2011

EAC extraction logfile from 13. May 2017, 9:55

Samsara Blues Experiment / Long Distance Trip

Used drive : _NEC DVD_RW ND-3540A Adapter: 1 ID: 0

Read mode : Secure
Utilize accurate stream : Yes
Defeat audio cache : Yes
Make use of C2 pointers : No

Read offset correction : 48
Overread into Lead-In and Lead-Out : No
Fill up missing offset samples with silence : Yes
Delete leading and trailing silent blocks : No
Null samples used in CRC calculations : Yes
Used interface : Native Win32 interface for Win NT & 2000
Gap handling : Appended to previous track

Used output format : User Defined Encoder
Selected bitrate : 1024 kBit/s
Quality : High
Add ID3 tag : Yes
Command line compressor : C:\Program Files (x86)\Exact Audio Copy\FLAC\FLAC.EXE
Additional command line options : -6 -V -T "ARTIST=%artist%" -T "TITLE=%title%" -T "ALBUM=%albumtitle%" -T "DATE=%year%" -T "TRACKNUMBER=%tracknr%" -T "GENRE=%genre%" -T "COMMENT=%comment%" %hascover%–picture="%coverfile%"%hascover% %source% -o %dest%


TOC of the extracted CD

Track | Start | Length | Start sector | End sector
––––––––––––––––––––––––––––-
1 | 0:00.00 | 11:36.15 | 0 | 52214
2 | 11:36.15 | 4:35.22 | 52215 | 72861
3 | 16:11.37 | 9:56.38 | 72862 | 117599
4 | 26:08.00 | 13:08.14 | 117600 | 176713
5 | 39:16.14 | 4:27.55 | 176714 | 196793
6 | 43:43.69 | 22:44.55 | 196794 | 299148


Track 1

Filename F:\Music\olaf_alien\Samsara Blues Experiment - Long Distance Trip (2010, World In Sound)\01 - Singata Mystic Queen.wav

Pre-gap length 0:00:02.00

Peak level 98.9 %
Extraction speed 5.2 X
Track quality 99.9 %
Test CRC 42CFBB8A
Copy CRC 42CFBB8A
Accurately ripped (confidence 20) [242E3705] (AR v2)
Copy OK

Track 2

Filename F:\Music\olaf_alien\Samsara Blues Experiment - Long Distance Trip (2010, World In Sound)\02 - Army Of Ignorance.wav

Peak level 98.8 %
Extraction speed 6.0 X
Track quality 100.0 %
Test CRC 4ED490E4
Copy CRC 4ED490E4
Accurately ripped (confidence 20) [97227A34] (AR v2)
Copy OK

Track 3

Filename F:\Music\olaf_alien\Samsara Blues Experiment - Long Distance Trip (2010, World In Sound)\03 - For The Lost Souls.wav

Peak level 98.9 %
Extraction speed 7.0 X
Track quality 100.0 %
Test CRC EE4F7F1A
Copy CRC EE4F7F1A
Accurately ripped (confidence 20) [9621F990] (AR v2)
Copy OK

Track 4

Filename F:\Music\olaf_alien\Samsara Blues Experiment - Long Distance Trip (2010, World In Sound)\04 - Center Of The Sun.wav

Peak level 98.8 %
Extraction speed 7.5 X
Track quality 99.9 %
Test CRC DDEEF43C
Copy CRC DDEEF43C
Accurately ripped (confidence 20) [5A942D03] (AR v2)
Copy OK

Track 5

Filename F:\Music\olaf_alien\Samsara Blues Experiment - Long Distance Trip (2010, World In Sound)\05 - Wheel Of Life.wav

Peak level 98.8 %
Extraction speed 7.8 X
Track quality 100.0 %
Test CRC D490AA13
Copy CRC D490AA13
Accurately ripped (confidence 20) [6436C1A1] (AR v2)
Copy OK

Track 6

Filename F:\Music\olaf_alien\Samsara Blues Experiment - Long Distance Trip (2010, World In Sound)\06 - Double Freedom.wav

Peak level 98.8 %
Extraction speed 9.3 X
Track quality 100.0 %
Test CRC 5EE69C56
Copy CRC 5EE69C56
Accurately ripped (confidence 19) [36A82EC9] (AR v2)
Copy OK


All tracks accurately ripped

No errors occurred

End of status report

–– CUETools DB Plugin V2.1.4

[CTDB TOCID: feIfDKR7QlvbMlxHBx4Og5MQb9I-] found
Submit result: feIfDKR7QlvbMlxHBx4Og5MQb9I- has been confirmed
Track | CTDB Status
1 | (39/39) Accurately ripped
2 | (38/39) Accurately ripped
3 | (39/39) Accurately ripped
4 | (39/39) Accurately ripped
5 | (39/39) Accurately ripped
6 | (39/39) Accurately ripped


==== Log checksum F75276426BA3CAD29397C18EC94CAD3684C937DC04E09AABB44FF909FD2250B9 ====

[CUETools log; Date: 05.05.2021 19:56:14; Version: 2.1.4]
[CTDB TOCID: feIfDKR7QlvbMlxHBx4Og5MQb9I-] found.
Track | CTDB Status
1 | (84/85) Accurately ripped
2 | (84/85) Accurately ripped
3 | (84/85) Accurately ripped
4 | (85/85) Accurately ripped
5 | (84/85) Accurately ripped
6 | (84/85) Accurately ripped
[AccurateRip ID: 000df786-004b8ef2-5a0f9406] found.
Track [ CRC | V2 ] Status
01 [a0e91804|242e3705] (07+31/38) Accurately ripped
02 [3e20b8a7|97227a34] (07+31/38) Accurately ripped
03 [8c3bdec4|9621f990] (07+31/38) Accurately ripped
04 [866b7364|5a942d03] (07+31/38) Accurately ripped
05 [b4f914fd|6436c1a1] (07+31/38) Accurately ripped
06 [5035db28|36a82ec9] (07+30/37) Accurately ripped

Track Peak [ CRC32 ] [W/O NULL] [ LOG ]
– 98,9 [6635713A] [0ADFD1EC]
01 98,9 [42CFBB8A] [CA8EB81E] CRC32
02 98,8 [4ED490E4] [9E4686B7] CRC32
03 98,9 [EE4F7F1A] [FDF18B59] CRC32
04 98,8 [DDEEF43C] [5DD37EAA] CRC32
05 98,8 [D490AA13] [AB2BE362] CRC32
06 98,8 [5EE69C56] [0DA1B9C4] CRC32

Samsara Blues Experiment - 4 Studio Albums (2010-2017) (Re-up)

Samsara Blues Experiment - Revelation & Mystery (2011)
EAC Rip | FLAC (tracks+.cue+log) - 330 MB | MP3 CBR 320 kbps (LAME 3.93) - 111 MB | Covers - 72 MB
Genre: Psychedelic/Space Rock, Stoner Rock | RAR 3% Rec. | Label: World In Sound (WIS-3012)

Tracklist:
01. Flipside Apocalypse
02. Hangin' on the Wire
03. Into the Black
04. Thirsty Moon
05. Outside Insight Blues
06. Zwei Schatten im Schatten
07. Revelation & Mystery

Total time: 47:04

Exact Audio Copy V1.0 beta 3 from 29. August 2011

EAC extraction logfile from 12. May 2017, 0:59

Samsara Blues Experiment / Revelation & Mystery

Used drive : _NEC DVD_RW ND-3540A Adapter: 1 ID: 0

Read mode : Secure
Utilize accurate stream : Yes
Defeat audio cache : Yes
Make use of C2 pointers : No

Read offset correction : 48
Overread into Lead-In and Lead-Out : No
Fill up missing offset samples with silence : Yes
Delete leading and trailing silent blocks : No
Null samples used in CRC calculations : Yes
Used interface : Native Win32 interface for Win NT & 2000
Gap handling : Appended to previous track

Used output format : User Defined Encoder
Selected bitrate : 1024 kBit/s
Quality : High
Add ID3 tag : Yes
Command line compressor : C:\Program Files (x86)\Exact Audio Copy\FLAC\FLAC.EXE
Additional command line options : -6 -V -T "ARTIST=%artist%" -T "TITLE=%title%" -T "ALBUM=%albumtitle%" -T "DATE=%year%" -T "TRACKNUMBER=%tracknr%" -T "GENRE=%genre%" -T "COMMENT=%comment%" %hascover%–picture="%coverfile%"%hascover% %source% -o %dest%


TOC of the extracted CD

Track | Start | Length | Start sector | End sector
––––––––––––––––––––––––––––-
1 | 0:00.00 | 6:11.08 | 0 | 27832
2 | 6:11.08 | 5:30.25 | 27833 | 52607
3 | 11:41.33 | 6:50.65 | 52608 | 83422
4 | 18:32.23 | 5:39.52 | 83423 | 108899
5 | 24:12.00 | 8:16.15 | 108900 | 146114
6 | 32:28.15 | 2:18.20 | 146115 | 156484
7 | 34:46.35 | 12:18.22 | 156485 | 211856


Track 1

Filename F:\Music\olaf_alien\Samsara Blues Experiment - Revelation & Mystery (2011, World In Sound)\01 - Flipside Apocalypse.wav

Pre-gap length 0:00:02.00

Peak level 98.5 %
Extraction speed 4.6 X
Track quality 100.0 %
Test CRC E458FF8C
Copy CRC E458FF8C
Accurately ripped (confidence 6) [7E056114] (AR v2)
Copy OK

Track 2

Filename F:\Music\olaf_alien\Samsara Blues Experiment - Revelation & Mystery (2011, World In Sound)\02 - Hangin´ on the Wire.wav

Peak level 100.0 %
Extraction speed 4.5 X
Track quality 99.9 %
Test CRC 2BC79895
Copy CRC 2BC79895
Accurately ripped (confidence 6) [94E4A0CF] (AR v2)
Copy OK

Track 3

Filename F:\Music\olaf_alien\Samsara Blues Experiment - Revelation & Mystery (2011, World In Sound)\03 - Into the Black.wav

Peak level 99.3 %
Extraction speed 5.9 X
Track quality 100.0 %
Test CRC 264E2E5F
Copy CRC 264E2E5F
Accurately ripped (confidence 6) [B24C09B1] (AR v2)
Copy OK

Track 4

Filename F:\Music\olaf_alien\Samsara Blues Experiment - Revelation & Mystery (2011, World In Sound)\04 - Thirsty Moon.wav

Peak level 97.9 %
Extraction speed 6.3 X
Track quality 100.0 %
Test CRC 7AD53CBB
Copy CRC 7AD53CBB
Accurately ripped (confidence 6) [7267E3FD] (AR v2)
Copy OK

Track 5

Filename F:\Music\olaf_alien\Samsara Blues Experiment - Revelation & Mystery (2011, World In Sound)\05 - Outside Insight Blues.wav

Peak level 97.7 %
Extraction speed 7.1 X
Track quality 100.0 %
Test CRC 3997D2D4
Copy CRC 3997D2D4
Accurately ripped (confidence 6) [FF42039A] (AR v2)
Copy OK

Track 6

Filename F:\Music\olaf_alien\Samsara Blues Experiment - Revelation & Mystery (2011, World In Sound)\06 - Zwei Schatten im Schatten.wav

Peak level 97.3 %
Extraction speed 6.3 X
Track quality 100.0 %
Test CRC 5DAEAB06
Copy CRC 5DAEAB06
Accurately ripped (confidence 6) [44F950FC] (AR v2)
Copy OK

Track 7

Filename F:\Music\olaf_alien\Samsara Blues Experiment - Revelation & Mystery (2011, World In Sound)\07 - Revelation & Mystery.wav

Peak level 99.9 %
Extraction speed 8.0 X
Track quality 100.0 %
Test CRC B7F754D8
Copy CRC B7F754D8
Accurately ripped (confidence 6) [5DACC3B4] (AR v2)
Copy OK


All tracks accurately ripped

No errors occurred

End of status report

–– CUETools DB Plugin V2.1.4

[CTDB TOCID: vzRH6nV5OGeivOUn3jApwwJbpXk-] found
Submit result: vzRH6nV5OGeivOUn3jApwwJbpXk- has been confirmed
Track | CTDB Status
1 | (14/14) Accurately ripped
2 | (14/14) Accurately ripped
3 | (14/14) Accurately ripped
4 | (14/14) Accurately ripped
5 | (14/14) Accurately ripped
6 | (14/14) Accurately ripped
7 | (14/14) Accurately ripped


==== Log checksum F34F3B88090C9AB69AF456674F2DB1A389B176397C70D4772D568E4B9583B334 ====

[CUETools log; Date: 05.05.2021 22:42:15; Version: 2.1.4]
[CTDB TOCID: vzRH6nV5OGeivOUn3jApwwJbpXk-] found.
Track | CTDB Status
1 | (31/31) Accurately ripped
2 | (31/31) Accurately ripped
3 | (31/31) Accurately ripped
4 | (31/31) Accurately ripped
5 | (31/31) Accurately ripped
6 | (31/31) Accurately ripped
7 | (31/31) Accurately ripped
[AccurateRip ID: 000c0315-00489c60-4f0b0807] found.
Track [ CRC | V2 ] Status
01 [356b0c0c|7e056114] (02+11/13) Accurately ripped
02 [6c3306ae|94e4a0cf] (02+11/13) Accurately ripped
03 [8710c805|b24c09b1] (02+11/13) Accurately ripped
04 [8eda4ff7|7267e3fd] (02+11/13) Accurately ripped
05 [d15a3970|ff42039a] (02+11/13) Accurately ripped
06 [8f575cf4|44f950fc] (02+11/13) Accurately ripped
07 [3534d375|5dacc3b4] (02+11/13) Accurately ripped

Track Peak [ CRC32 ] [W/O NULL] [ LOG ]
– 100,0 [A48C996F] [04EC8C2B]
01 98,5 [E458FF8C] [6310F62F] CRC32
02 100,0 [2BC79895] [7644DD09] CRC32
03 99,3 [264E2E5F] [8CD917BF] CRC32
04 97,9 [7AD53CBB] [A49F3421] CRC32
05 97,7 [3997D2D4] [2B371AFA] CRC32
06 97,3 [5DAEAB06] [61B1CE51] CRC32
07 99,9 [B7F754D8] [54C66CEA] CRC32

Samsara Blues Experiment - 4 Studio Albums (2010-2017) (Re-up)

Samsara Blues Experiment - Waiting for the Flood (2013)
EAC Rip | FLAC (tracks+.cue+log) - 311 MB | MP3 CBR 320 kbps (LAME 3.93) - 114 MB | Covers - 57 MB
Genre: Psychedelic/Space Rock, Stoner Rock | RAR 3% Rec. | Label: Electric Magic Records (EMCD06)

Tracklist:
01. Shringara
02. Waiting For The Flood
03. Don't Belong
04. Brahmin's Lament

Total time: 48:35

Exact Audio Copy V1.0 beta 3 from 29. August 2011

EAC extraction logfile from 12. May 2017, 8:45

Samsara Blues Experiment / Waiting for the Flood

Used drive : _NEC DVD_RW ND-3540A Adapter: 1 ID: 0

Read mode : Secure
Utilize accurate stream : Yes
Defeat audio cache : Yes
Make use of C2 pointers : No

Read offset correction : 48
Overread into Lead-In and Lead-Out : No
Fill up missing offset samples with silence : Yes
Delete leading and trailing silent blocks : No
Null samples used in CRC calculations : Yes
Used interface : Native Win32 interface for Win NT & 2000
Gap handling : Appended to previous track

Used output format : User Defined Encoder
Selected bitrate : 1024 kBit/s
Quality : High
Add ID3 tag : Yes
Command line compressor : C:\Program Files (x86)\Exact Audio Copy\FLAC\FLAC.EXE
Additional command line options : -6 -V -T "ARTIST=%artist%" -T "TITLE=%title%" -T "ALBUM=%albumtitle%" -T "DATE=%year%" -T "TRACKNUMBER=%tracknr%" -T "GENRE=%genre%" -T "COMMENT=%comment%" %hascover%–picture="%coverfile%"%hascover% %source% -o %dest%


TOC of the extracted CD

Track | Start | Length | Start sector | End sector
––––––––––––––––––––––––––––-
1 | 0:00.00 | 13:32.17 | 0 | 60916
2 | 13:32.17 | 10:37.63 | 60917 | 108754
3 | 24:10.05 | 11:57.56 | 108755 | 162585
4 | 36:07.61 | 12:24.48 | 162586 | 218433


Track 1

Filename F:\Music\olaf_alien\Samsara Blues Experiment - Waiting For The Flood (2013, Electric Magic)\01 - Shringara.wav

Pre-gap length 0:00:02.00

Peak level 96.2 %
Extraction speed 5.5 X
Track quality 100.0 %
Test CRC 2B645071
Copy CRC 2B645071
Accurately ripped (confidence 6) [8BB9F9BD] (AR v2)
Copy OK

Track 2

Filename F:\Music\olaf_alien\Samsara Blues Experiment - Waiting For The Flood (2013, Electric Magic)\02 - Waiting for the Flood.wav

Peak level 96.1 %
Extraction speed 6.7 X
Track quality 100.0 %
Test CRC 6B9128F4
Copy CRC 6B9128F4
Accurately ripped (confidence 7) [84904A52] (AR v2)
Copy OK

Track 3

Filename F:\Music\olaf_alien\Samsara Blues Experiment - Waiting For The Flood (2013, Electric Magic)\03 - Don't Belong.wav

Peak level 100.0 %
Extraction speed 7.1 X
Track quality 99.9 %
Test CRC 8D38FB89
Copy CRC 8D38FB89
Accurately ripped (confidence 7) [29F1B2BE] (AR v2)
Copy OK

Track 4

Filename F:\Music\olaf_alien\Samsara Blues Experiment - Waiting For The Flood (2013, Electric Magic)\04 - Brahmin's Lament.wav

Peak level 95.8 %
Extraction speed 7.8 X
Track quality 99.9 %
Test CRC 5A334D47
Copy CRC 5A334D47
Accurately ripped (confidence 7) [EFA26EB8] (AR v2)
Copy OK


All tracks accurately ripped

No errors occurred

End of status report

–– CUETools DB Plugin V2.1.4

[CTDB TOCID: ctVK9KijbsSgXeQoOJm.hhLsrpc-] found
Submit result: ctVK9KijbsSgXeQoOJm.hhLsrpc- has been confirmed
Track | CTDB Status
1 | (17/17) Accurately ripped
2 | (17/17) Accurately ripped
3 | (17/17) Accurately ripped
4 | (17/17) Accurately ripped


==== Log checksum 0AEA72E0C9D79398FF3A594E7C58DF899DA33E07881764FB2B049F69B5A89BD4 ====

[CUETools log; Date: 05.05.2021 22:42:47; Version: 2.1.4]
[CTDB TOCID: ctVK9KijbsSgXeQoOJm.hhLsrpc-] found.
Track | CTDB Status
1 | (45/45) Accurately ripped
2 | (45/45) Accurately ripped
3 | (45/45) Accurately ripped
4 | (45/45) Accurately ripped
[AccurateRip ID: 00086724-00216d16-2d0b6004] found.
Track [ CRC | V2 ] Status
01 [a430f2f1|8bb9f9bd] (00+11/11) Accurately ripped
02 [31e70629|84904a52] (00+12/12) Accurately ripped
03 [5760c3ad|29f1b2be] (00+12/12) Accurately ripped
04 [20c4002e|efa26eb8] (00+12/12) Accurately ripped

Track Peak [ CRC32 ] [W/O NULL] [ LOG ]
– 100,0 [1E081340] [6428F12E]
01 96,2 [2B645071] [1188D7EA] CRC32
02 96,1 [6B9128F4] [00C6F4BE] CRC32
03 100,0 [8D38FB89] [61CE0D86] CRC32
04 95,8 [5A334D47] [92B74881] CRC32

Samsara Blues Experiment - 4 Studio Albums (2010-2017) (Re-up)

Samsara Blues Experiment - One With The Universe (2017)
EAC Rip | FLAC (tracks+.cue+log) - 330 MB | MP3 CBR 320 kbps (LAME 3.93) - 111 MB | Covers - 60 MB
Genre: Psychedelic/Space Rock, Stoner Rock | RAR 3% Rec. | Label: Electric Magic Records (EMCD07)

Tracklist:
01. Vipassana
02. Sad Guru Returns
03. Glorious Daze
04. One with the Universe
05. Eastern Sun & Western Moon

Total time: 47:21

Exact Audio Copy V1.0 beta 3 from 29. August 2011

EAC extraction logfile from 12. May 2017, 0:38

Samsara Blues Experiment / One with the Universe

Used drive : _NEC DVD_RW ND-3540A Adapter: 1 ID: 0

Read mode : Secure
Utilize accurate stream : Yes
Defeat audio cache : Yes
Make use of C2 pointers : No

Read offset correction : 48
Overread into Lead-In and Lead-Out : No
Fill up missing offset samples with silence : Yes
Delete leading and trailing silent blocks : No
Null samples used in CRC calculations : Yes
Used interface : Native Win32 interface for Win NT & 2000
Gap handling : Appended to previous track

Used output format : User Defined Encoder
Selected bitrate : 1024 kBit/s
Quality : High
Add ID3 tag : Yes
Command line compressor : C:\Program Files (x86)\Exact Audio Copy\FLAC\FLAC.EXE
Additional command line options : -6 -V -T "ARTIST=%artist%" -T "TITLE=%title%" -T "ALBUM=%albumtitle%" -T "DATE=%year%" -T "TRACKNUMBER=%tracknr%" -T "GENRE=%genre%" -T "COMMENT=%comment%" %hascover%–picture="%coverfile%"%hascover% %source% -o %dest%


TOC of the extracted CD

Track | Start | Length | Start sector | End sector
––––––––––––––––––––––––––––-
1 | 0:00.00 | 10:43.32 | 0 | 48256
2 | 10:43.32 | 7:55.23 | 48257 | 83904
3 | 18:38.55 | 6:02.21 | 83905 | 111075
4 | 24:41.01 | 15:01.61 | 111076 | 178711
5 | 39:42.62 | 7:38.26 | 178712 | 213087


Track 1

Filename F:\Music\olaf_alien\Samsara Blues Experiment - One with the Universe (2017, Electric Magic)\01 - Vipassana.wav

Pre-gap length 0:00:02.00

Peak level 99.4 %
Extraction speed 4.7 X
Track quality 99.9 %
Test CRC 5D3CB428
Copy CRC 5D3CB428
Track not present in AccurateRip database
Copy OK

Track 2

Filename F:\Music\olaf_alien\Samsara Blues Experiment - One with the Universe (2017, Electric Magic)\02 - Sad Guru Returns.wav

Peak level 99.4 %
Extraction speed 6.0 X
Track quality 100.0 %
Test CRC B288166F
Copy CRC B288166F
Track not present in AccurateRip database
Copy OK

Track 3

Filename F:\Music\olaf_alien\Samsara Blues Experiment - One with the Universe (2017, Electric Magic)\03 - Glorious Daze.wav

Peak level 99.3 %
Extraction speed 6.5 X
Track quality 100.0 %
Test CRC 26289AAD
Copy CRC 26289AAD
Track not present in AccurateRip database
Copy OK

Track 4

Filename F:\Music\olaf_alien\Samsara Blues Experiment - One with the Universe (2017, Electric Magic)\04 - One with the Universe.wav

Peak level 99.4 %
Extraction speed 7.7 X
Track quality 100.0 %
Test CRC 4CCAD67B
Copy CRC 4CCAD67B
Track not present in AccurateRip database
Copy OK

Track 5

Filename F:\Music\olaf_alien\Samsara Blues Experiment - One with the Universe (2017, Electric Magic)\05 - Eastern Sun & Western Moon.wav

Peak level 99.4 %
Extraction speed 8.1 X
Track quality 100.0 %
Test CRC FE9F6AD1
Copy CRC FE9F6AD1
Track not present in AccurateRip database
Copy OK


None of the tracks are present in the AccurateRip database

No errors occurred

End of status report

–– CUETools DB Plugin V2.1.4

[CTDB TOCID: Mxpnjzcln7IiRUO3XW42VjMKL3A-] found
Submit result: Mxpnjzcln7IiRUO3XW42VjMKL3A- has been confirmed
Track | CTDB Status
1 | (1/1) Accurately ripped
2 | (1/1) Accurately ripped
3 | (1/1) Accurately ripped
4 | (1/1) Accurately ripped
5 | (1/1) Accurately ripped


==== Log checksum 566766CDF15FF1A10F00C96CF71122721981E4DF66357C0DABF684A3A72FF602 ====

[CUETools log; Date: 05.05.2021 22:41:56; Version: 2.1.4]
[CTDB TOCID: Mxpnjzcln7IiRUO3XW42VjMKL3A-] found.
Track | CTDB Status
1 | (48/48) Accurately ripped
2 | (48/48) Accurately ripped
3 | (48/48) Accurately ripped
4 | (48/48) Accurately ripped
5 | (48/48) Accurately ripped
[AccurateRip ID: 0009b09e-002d3c8e-360b1905] found.
Track [ CRC | V2 ] Status
01 [1120d310|737cc219] (00+12/12) Accurately ripped
02 [005179ff|abe350f4] (00+12/12) Accurately ripped
03 [c827fce7|27e1dc65] (00+12/12) Accurately ripped
04 [43a99e0a|93ae8e70] (00+12/12) Accurately ripped
05 [025f20c1|23248442] (00+12/12) Accurately ripped

Track Peak [ CRC32 ] [W/O NULL] [ LOG ]
– 99,4 [681E2B2D] [27369166]
01 99,4 [5D3CB428] [4F414EB3] CRC32
02 99,4 [B288166F] [70528660] CRC32
03 99,3 [26289AAD] [7449AB98] CRC32
04 99,4 [4CCAD67B] [78B8FAEF] CRC32
05 99,4 [FE9F6AD1] [EE7D6E92] CRC32

Thanks to Olaf_alien