Tags
Language
Tags
January 2023
Su Mo Tu We Th Fr Sa
1 2 3 4 5 6 7
8 9 10 11 12 13 14
15 16 17 18 19 20 21
22 23 24 25 26 27 28
29 30 31 1 2 3 4

Sandra - Close To Seven (1992) [Japan, 1st Press]

Posted By: BlondStyle
Sandra - Close To Seven (1992) [Japan, 1st Press]

Sandra - Close To Seven (1992) [Japan, 1st Press]
Pop/Rock, Electronic, Dance-Pop | EAC Rip | FLAC, Img+CUE+LOG+Scans (JPEG) | 44:01 | 305,87 Mb
Label: Virgin Japan Ltd. (Japan) | Cat.# VJCP-28107 | Released: 1992-04-17 (1992-02-02)
Sandra - Close To Seven (1992) [Japan, 1st Press]

"Close to Seven" is the 5th studio album by German singer Sandra, released in 1992. The album's title symbolized the upcoming seventh anniversary of Sandra's career. It was produced almost completely by Michael Cretu and continued a development towards a more meditative, less dance-oriented musical style, echoing material that Sandra and Michael recorded together for the Enigma project. The male vocals were sung by Andy Jonas, also known as Andy "Angel" Hart. "Close to Seven" was a commercial success and remains Sandra's second highest-charting album in Germany. "Don't Be Aggressive" served as the first single in January 1992 and became a significant hit in Europe. "I Need Love" was then released as the second and final regular single in April 1992, however, it failed to chart. "Steady Me" was released in June 1992 as a promotional single in Germany only while "Seal It Forever" was a promotional single in Brazil.
~Wikipedia

Sandra - Close To Seven (1992) [Japan, 1st Press]




Release of the album: 1992, February, 2 [LP Virgin, Cat.# 212 576, LPVIR 13, Germany]
Release of this CD: 1992, April, 17 [CD Virgin Japan Ltd. (Japan), Cat.# VJCP-28107 / EAN: 4988037014831]
℗&© 1992 Virgin Schallplatten GmbH.
℗ 1992 Virgin Japan Ltd.
Made in Japan by Virgin Japan Ltd.

Credits:

Arranged By, Engineer, Keyboards, Producer – Michael Cretu
Cover [Cover-art] – Lmp
Guitar – Tom Leonhard
Illustration [Front] – HP Uertz
Lyrics By – David Fairstein (tracks: 4), Klaus Hirschburger (tracks: 1, 3, 6 to 10), Michael Cretu (tracks: 1 to 7, 9, 10), Peter Cornelius (tracks: 2, 6)
Music By – Michael Cretu
Photography By – Jim Rakete
Vocals [Male] – Andy "Angel" Hard


Tracklist:

01. Don't Be Aggressive (04:48)
(Klaus Hirschburger, Michael Cretu)
02. Mirrored In Your Eyes (03:29)
(Michael Cretu, Peter Cornelius)
03. I Need Love (03:26)
(Klaus Hirschburger, Michael Cretu)
04. No Taboo (03:53)
(David Fairstein, Michael Cretu)
05. When The Rain Doesn't Come (04:46)
(Michael Cretu, Sandra Cretu)
06. Steady Me (03:59)
(Klaus Hirschburger, Michael Cretu, Peter Cornelius)
07. Shadows (03:53)
(Klaus Hirschburger, Michael Cretu)
08. Seal It Forever (04:53)
(Klaus Hirschburger, Michael Cretu)
09. Love Turns To Pain (05:02)
(Klaus Hirschburger, Michael Cretu)
10. Your Way To India (05:52)
(Klaus Hirschburger, Michael Cretu)

Exact Audio Copy V0.99 prebeta 5 from 4. May 2009

Отчёт EAC об извлечении, выполненном 17. апреля 2010, 15:38

Sandra / Close To Seven

Дисковод: MATSHITABD-MLT UJ-210S Adapter: 0 ID: 0

Режим чтения : Достоверность
Использование точного потока : Да
Отключение кэша аудио : Да
Использование указателей C2 : Нет

Коррекция смещения при чтении : 102
Способность читать области Lead-in и Lead-out : Нет
Заполнение пропущенных сэмплов тишиной : Да
Удаление блоков с тишиной в начале и конце : Нет
При вычислениях CRC использовались нулевые сэмплы : Да
Интерфейс : Встроенный Win32-интерфейс для Win NT/2000

Выходной формат : Внутренние WAV-операции
Формат сэмплов : 44.100 Гц; 16 бит; стерео


TOC извлечённого CD

Трек | Старт | Длительность | Начальный сектор | Конечный сектор
––––––––––––––––––––––––––––––––––-
1 | 0:00.37 | 4:47.73 | 37 | 21634
2 | 4:48.35 | 3:28.62 | 21635 | 37296
3 | 8:17.22 | 3:26.18 | 37297 | 52764
4 | 11:43.40 | 3:53.22 | 52765 | 70261
5 | 15:36.62 | 4:46.10 | 70262 | 91721
6 | 20:22.72 | 3:59.05 | 91722 | 109651
7 | 24:22.02 | 3:52.40 | 109652 | 127091
8 | 28:14.42 | 4:52.70 | 127092 | 149061
9 | 33:07.37 | 5:01.38 | 149062 | 171674
10 | 38:09.00 | 5:52.10 | 171675 | 198084


Характеристики диапазона извлечения и сообщения об ошибках

Выбранный диапазон

Имя файла J:\temp\Sandra - Close To Seven.wav

Пиковый уровень 99.0 %
Качество диапазона 100.0 %
CRC теста 4C7CC81E
CRC копии 4C7CC81E
Копирование… OK

Ошибок не произошло


AccurateRip: сводка

Трек 1 точное извлечение (доверие 1) [504805C5]
Трек 2 точное извлечение (доверие 1) [BF7C66BF]
Трек 3 точное извлечение (доверие 1) [E5DB3B72]
Трек 4 точное извлечение (доверие 1) [1D6FE874]
Трек 5 точное извлечение (доверие 1) [9F9BD05A]
Трек 6 точное извлечение (доверие 1) [4DCF817A]
Трек 7 точное извлечение (доверие 1) [44230EFB]
Трек 8 точное извлечение (доверие 1) [9DA4A5E9]
Трек 9 точное извлечение (доверие 1) [23E76821]
Трек 10 точное извлечение (доверие 1) [60CE255D]

Все треки извлечены точно

Конец отчёта

––––––––––––––––––––––––––––––––––––––––
Analyzed: Sandra / Close To Seven
––––––––––––––––––––––––––––––––––––––––

DR Peak RMS Duration Track
––––––––––––––––––––––––––––––––––––––––
DR11 -0.08 dB -13.72 dB 4:48 01-Don't Be Aggressive
DR12 -0.09 dB -14.17 dB 3:29 02-Mirrored In Your Eyes
DR10 -0.08 dB -12.53 dB 3:26 03-I Need Love
DR11 -0.09 dB -14.37 dB 3:53 04-No Taboo
DR13 -0.09 dB -15.99 dB 4:46 05-When The Rain Doesn't Come
DR15 -0.09 dB -16.55 dB 3:59 06-Steady Me
DR13 -0.09 dB -15.56 dB 3:53 07-Shadows
DR12 -0.09 dB -14.32 dB 4:53 08-Seal It Forever
DR12 -0.08 dB -14.73 dB 5:02 09-Love Turns To Pain
DR11 -0.09 dB -14.91 dB 5:52 10-Your Way To India
––––––––––––––––––––––––––––––––––––––––

Number of tracks: 10
Official DR value: DR12

Samplerate: 44100 Hz
Channels: 2
Bits per sample: 16
Bitrate: 913 kbps
Codec: FLAC
================================================================================

Thanks to ewgensubaru

See also:
Sandra - The Long Play (1985) [1988, Japan, 1st press]

♫~Welcome To My Blog~♫

password: BlondStyle