Tags
Language
Tags

Santana - Santana III (1971) [MFSL Remastered 2016] Audio CD Layer

Posted By: Designol
Santana - Santana III (1971) [MFSL Remastered 2016] Audio CD Layer

Santana - Santana III (1971) [MFSL Remastered 2016]
EAC | FLAC | Tracks (Cue&Log) ~ 286 Mb | Mp3 (CBR320) ~ 109 Mb | Scans included
Label: Mobile Fidelity Sound Lab/Columbia | # UDSACD 2158 | Time: 00:41:25
Classic Rock, Psychedelic Rock, Latin Rock, Jazz-Rock, Blues Rock

Santana is the third studio album by Santana. The band's second self-titled album, it is often referred to as III to distinguish it from the band's 1969 debut album. The album was also known as Man with an Outstretched Hand. It was the third and last album by the Woodstock-era lineup, and it was also considered by many to be the band's peak commercially and musically, as subsequent releases aimed towards more experimental jazz and Latin music.

Santana III is an album that undeservingly stands in the shadows behind the towering legend that is the band's second album, Abraxas. This was also the album that brought guitarist Neal Schon – who was 17 years old – into the original core lineup of Santana. Percussionist Thomas "Coke" Escovedo was brought in to replace (temporarily) José Chepitó Areas, who had suffered a brain aneurysm, yet who recovered quickly and rejoined the band. The rest were Carlos, organist Gregg Rolie, drummer Michael Schrieve, bassist David Brown, and conguero Michael Carabello. "Batuka" is the powerful first evidence of something being very different. The band was rawer, darker, and more powerful with twin leads and Schon's harder, edgier rock & roll sound paired with Carlos' blend of ecstatic high notes and soulful fills. It cooks – funky, mean, and tough. "Batuka" immediately transforms itself into "No One to Depend On," by Escovedo, Carabello, and Rolie. The middle section is highlighted by frantic handclaps, call-and-response lines between Schon and Rolie, and Carlos joining the fray until the entire track explodes into a frenzied finale. And what's most remarkable is that the set just keeps on cooking, from the subtle slow burn of "Taboo" to the percussive jam workout that is "Toussaint l'Overture," a live staple in the band's set list recorded here for the first time (and featuring some cooking Rolie organ work at its beginning). "Everybody's Everything" is here, as is "Guajira" and "Jungle Strut" – tunes that are still part of Santana's live show. With acoustic guitars, gorgeous hand percussion, and Santana's fragile lead vocal, "Everything's Coming Our Way" is the only "feel good" track here, but it's a fitting way to begin winding the album down with its Schon and Santana guitar breaks. The album ends with a completely transformed reading of Tito Puente's "Para los Rumberos," complete with horns and frantic, almost insanely fast hand drumming and cowbell playing. It's an album that has aged extremely well due to its spare production (by Carlos and the band) and its live sound. This is essential Santana, a record that deserves to be reconsidered in light of its lasting abundance and vision.

Review by Thom Jurek, Allmusic.com

Santana - Santana III (1971) [MFSL Remastered 2016] Audio CD Layer



Tracklist:

01. Batuka (3:35)
02. No One to Depend On (5:31)
03. Taboo (5:35)
04. Toussaint l'Overture (5:59)
05. Everybody's Everything (3:33)
06. Guajira (5:45)
07. Jungle Strut (5:22)
08. Everything's Coming Our Way (3:16)
09. Para los Rumberos (2:48)


Exact Audio Copy V1.3 from 2. September 2016

EAC extraction logfile from 17. July 2017, 1:21

Santana / Santana III (2016 MFSL)

Used drive : PLEXTOR CD-R PREMIUM Adapter: 1 ID: 1

Read mode : Secure
Utilize accurate stream : Yes
Defeat audio cache : Yes
Make use of C2 pointers : No

Read offset correction : 30
Overread into Lead-In and Lead-Out : No
Fill up missing offset samples with silence : Yes
Delete leading and trailing silent blocks : No
Null samples used in CRC calculations : Yes
Used interface : Native Win32 interface for Win NT & 2000
Gap handling : Appended to previous track

Used output format : User Defined Encoder
Selected bitrate : 768 kBit/s
Quality : High
Add ID3 tag : No
Command line compressor : C:\Program Files (x86)\Exact Audio Copy\FLAC\FLAC.EXE
Additional command line options : -6 -e -p -V -T "ARTIST=%artist%" -T "TITLE=%title%" -T "ALBUM=%albumtitle%" -T "DATE=%year%" -T "TRACKNUMBER=%tracknr%" -T "GENRE=%genre%" -T "PERFORMER=%albuminterpret%" -T "COMPOSER=%composer%" %haslyrics%–tag-from-file=LYRICS="%lyricsfile%"%haslyrics% -T "ALBUMARTIST=%albumartist%" -T "DISCNUMBER=%cdnumber%" -T "TOTALDISCS=%totalcds%" -T "TOTALTRACKS=%numtracks%" -T "COMMENT=%comment%" %source% -o %dest%


TOC of the extracted CD

Track | Start | Length | Start sector | End sector
––––––––––––––––––––––––––––-
1 | 0:00.00 | 3:35.04 | 0 | 16128
2 | 3:35.04 | 5:31.25 | 16129 | 40978
3 | 9:06.29 | 5:35.30 | 40979 | 66133
4 | 14:41.59 | 5:59.27 | 66134 | 93085
5 | 20:41.11 | 3:32.59 | 93086 | 109044
6 | 24:13.70 | 5:45.14 | 109045 | 134933
7 | 29:59.09 | 5:22.35 | 134934 | 159118
8 | 35:21.44 | 3:15.41 | 159119 | 173784
9 | 38:37.10 | 2:47.73 | 173785 | 186382


Track 1

Filename C:\tmp\00_RIPS\01 - Batuka.wav

Pre-gap length 0:00:02.00

Peak level 92.0 %
Extraction speed 8.7 X
Track quality 100.0 %
Test CRC BAA9EF8E
Copy CRC BAA9EF8E
Accurately ripped (confidence 17) [F571F305] (AR v2)
Copy OK

Track 2

Filename C:\tmp\00_RIPS\02 - No One To Depend On.wav

Peak level 93.8 %
Extraction speed 8.8 X
Track quality 99.9 %
Test CRC 0C03A500
Copy CRC 0C03A500
Accurately ripped (confidence 17) [C2170671] (AR v2)
Copy OK

Track 3

Filename C:\tmp\00_RIPS\03 - Taboo.wav

Peak level 81.9 %
Extraction speed 10.9 X
Track quality 100.0 %
Test CRC 01E7ACEC
Copy CRC 01E7ACEC
Accurately ripped (confidence 17) [75D134BA] (AR v2)
Copy OK

Track 4

Filename C:\tmp\00_RIPS\04 - Toussaint L'Overture.wav

Pre-gap length 0:00:01.01

Peak level 93.4 %
Extraction speed 11.8 X
Track quality 100.0 %
Test CRC 74C36247
Copy CRC 74C36247
Accurately ripped (confidence 17) [9EC2A767] (AR v2)
Copy OK

Track 5

Filename C:\tmp\00_RIPS\05 - Everybody's Everything.wav

Pre-gap length 0:00:04.77

Peak level 85.2 %
Extraction speed 10.1 X
Track quality 99.9 %
Test CRC 0D40DE14
Copy CRC 0D40DE14
Accurately ripped (confidence 17) [C52F1BA2] (AR v2)
Copy OK

Track 6

Filename C:\tmp\00_RIPS\06 - Guajira.wav

Pre-gap length 0:00:02.76

Peak level 80.2 %
Extraction speed 13.1 X
Track quality 100.0 %
Test CRC 214CDB6F
Copy CRC 214CDB6F
Accurately ripped (confidence 17) [FC853585] (AR v2)
Copy OK

Track 7

Filename C:\tmp\00_RIPS\07 - Jungle Strut.wav

Pre-gap length 0:00:02.40

Peak level 69.2 %
Extraction speed 13.8 X
Track quality 100.0 %
Test CRC A57F2914
Copy CRC A57F2914
Accurately ripped (confidence 17) [FD2C0939] (AR v2)
Copy OK

Track 8

Filename C:\tmp\00_RIPS\08 - Everything's Coming Our Way.wav

Pre-gap length 0:00:02.54

Peak level 80.3 %
Extraction speed 11.1 X
Track quality 99.9 %
Test CRC 0B694620
Copy CRC 0B694620
Accurately ripped (confidence 17) [94D56E1B] (AR v2)
Copy OK

Track 9

Filename C:\tmp\00_RIPS\09 - Para Los Rumberos.wav

Peak level 90.0 %
Extraction speed 8.9 X
Track quality 99.9 %
Test CRC A9B711B2
Copy CRC A9B711B2
Accurately ripped (confidence 17) [E2DCFF49] (AR v2)
Copy OK


All tracks accurately ripped

No errors occurred

End of status report

–– CUETools DB Plugin V2.1.6

[CTDB TOCID: CnFLiz6o57FoaSf4hTmmNUG4dBk-] found
Submit result: CnFLiz6o57FoaSf4hTmmNUG4dBk- has been confirmed
Track | CTDB Status
1 | (20/20) Accurately ripped
2 | (20/20) Accurately ripped
3 | (20/20) Accurately ripped
4 | (20/20) Accurately ripped
5 | (20/20) Accurately ripped
6 | (20/20) Accurately ripped
7 | (20/20) Accurately ripped
8 | (20/20) Accurately ripped
9 | (20/20) Accurately ripped


==== Log checksum AC3B5C52E7530A0AFE9E42151575209CBECC0D5ED398076CFC7F44D24103183E ====

foobar2000 1.2 / Dynamic Range Meter 1.1.1
log date: 2017-07-21 16:21:43

––––––––––––––––––––––––––––––––––––––––
Analyzed: Santana / Santana III
––––––––––––––––––––––––––––––––––––––––

DR Peak RMS Duration Track
––––––––––––––––––––––––––––––––––––––––
DR10 -0.72 dB -13.12 dB 3:35 01-Batuka
DR10 -0.55 dB -13.40 dB 5:31 02-No One to Depend On
DR11 -1.73 dB -14.45 dB 5:35 03-Taboo
DR10 -0.59 dB -13.18 dB 5:59 04-Toussaint l'Overture
DR9 -1.38 dB -13.01 dB 3:33 05-Everybody's Everything
DR11 -1.91 dB -15.55 dB 5:45 06-Guajira
DR10 -3.19 dB -15.24 dB 5:22 07-Jungle Strut
DR11 -1.90 dB -15.01 dB 3:16 08-Everything's Coming Our Way
DR11 -0.91 dB -13.33 dB 2:48 09-Para los Rumberos
––––––––––––––––––––––––––––––––––––––––

Number of tracks: 9
Official DR value: DR10

Samplerate: 44100 Hz
Channels: 2
Bits per sample: 16
Bitrate: 981 kbps
Codec: FLAC
================================================================================

Santana - Santana III (1971) [MFSL Remastered 2016] Audio CD Layer

Santana - Santana III (1971) [MFSL Remastered 2016] Audio CD Layer