Tags
Language
Tags

Santiago Lara - Flamenco Tribute to Pat Metheny (2016) {Warner Spain}

Posted By: tiburon
Santiago Lara - Flamenco Tribute to Pat Metheny (2016) {Warner Spain}

Santiago Lara - Flamenco Tribute to Pat Metheny (2016) {Warner Spain}
EAC 1.0b3 | FLAC tracks level 8 | Cue+Log+M3U | Full Scans 600dpi | 355MB + 5% Recovery
MP3 CBR 320 Kbps | 98MB + 5% Recovery
Genre: Jazz, Flamenco, Fusion

Uno de los nombres destacados de la nueva generación de guitarristas flamencos, Santiago Lara, jerezano de 32 años, tiene ya prestigiosos premios como el de la Bienal de Sevilla y el 2º Premio Nacional de Arte Flamenco de Córdoba (2013). Productor, compositor y director musical, Santiago ha participado en las grabaciones del maestro Manolo Sanlúcar, así como en sus giras con orquesta. También es responsable de la música de la bailaora Mercedes Ruiz, a quien acompaña en sus giras mundiales. Como productor, además de sus primeros dos álbumes, Santiago ha realizado tres discos para cantaores de la nueva generación como son José Lara, Londro y David Lagos. Desde la vibrante versión de 'Minuano', que abre el álbum con la participación de Jorge Pardo o la vertiginosa 'James' con Antonio Serrano, emociona redescubrir un repertorio que ya abarca casi 40 años con un respeto y una creatividad que hacen honor al título. Y para tributo el que Estrella Morente protagoniza al reinterpretar 'Find me in your dreams' el tema que el gran Enrique Morente compuso mano a mano con Pat Metheny y que tan bien representa la huella que Metheny ha dejado en el flamenco de hoy, que ya es casi de mañana.
Track List
01. Minuano
02. Find Me In Your Dreams
03. James
04. Question And Answer
05. Antonia
06. The Search
07. Letter From Home
08. The Heat of the Day

musicians
Santiago Lara - guitars
Jorge Pardo - flute
Pablo Martin - double-bass
Michael Olivera - drums
Jesus Lavilla - piano
Estrella Morente - vocals
Guillermo McGill - drums
Antonio Serrano - harmonica
A. Coronel - drums
Diego Del Morao - guitars


Exact Audio Copy V1.0 beta 3 from 29. August 2011

EAC extraction logfile from 12. March 2016, 22:33

Santiago Lara / Flamenco Tribute to Pat Metheny

Used drive : PLEXTOR DVDR PX-L890SA Adapter: 5 ID: 1

Read mode : Secure
Utilize accurate stream : Yes
Defeat audio cache : Yes
Make use of C2 pointers : No

Read offset correction : 6
Overread into Lead-In and Lead-Out : No
Fill up missing offset samples with silence : Yes
Delete leading and trailing silent blocks : No
Null samples used in CRC calculations : Yes
Used interface : Native Win32 interface for Win NT & 2000
Gap handling : Appended to previous track

Used output format : User Defined Encoder
Selected bitrate : 128 kBit/s
Quality : High
Add ID3 tag : No
Command line compressor : C:\Program Files (x86)\Exact Audio Copy\FLAC\FLAC.EXE
Additional command line options : -8 -V -T "ARTIST=%artist%" -T "TITLE=%title%" -T "ALBUM=%albumtitle%" -T "DATE=%year%" -T "TRACKNUMBER=%tracknr%" -T "TOTALTRACKS=%numtracks%" -T "GENRE=%genre%" -T "ALBUMARTIST=%albumartist%" -T "ALBUM ARTIST=%albumartist%" -T "COMMENT=EAC Secure Mode, Test & Copy, AccurateRip, FLAC -8" %source%


TOC of the extracted CD

Track | Start | Length | Start sector | End sector
––––––––––––––––––––––––––––-
1 | 0:00.00 | 6:49.12 | 0 | 30686
2 | 6:49.12 | 5:51.48 | 30687 | 57059
3 | 12:40.60 | 5:48.63 | 57060 | 83222
4 | 18:29.48 | 6:01.32 | 83223 | 110329
5 | 24:31.05 | 5:42.04 | 110330 | 135983
6 | 30:13.09 | 4:06.69 | 135984 | 154502
7 | 34:20.03 | 2:25.04 | 154503 | 165381
8 | 36:45.07 | 5:49.40 | 165382 | 191596


Track 1

Filename E:\01 - Minuano.wav

Pre-gap length 0:00:02.00

Peak level 98.5 %
Extraction speed 3.7 X
Track quality 100.0 %
Test CRC A21C2214
Copy CRC A21C2214
Track not present in AccurateRip database
Copy OK

Track 2

Filename E:\02 - Find In Your Dreams.wav

Pre-gap length 0:00:02.03

Peak level 100.0 %
Extraction speed 4.3 X
Track quality 100.0 %
Test CRC ACF34FB6
Copy CRC ACF34FB6
Track not present in AccurateRip database
Copy OK

Track 3

Filename E:\03 - James.wav

Pre-gap length 0:00:00.41

Peak level 98.5 %
Extraction speed 4.8 X
Track quality 100.0 %
Test CRC C1CDEF43
Copy CRC C1CDEF43
Track not present in AccurateRip database
Copy OK

Track 4

Filename E:\04 - Question And Answer.wav

Pre-gap length 0:00:01.44

Peak level 98.7 %
Extraction speed 5.2 X
Track quality 100.0 %
Test CRC 0150BF80
Copy CRC 0150BF80
Track not present in AccurateRip database
Copy OK

Track 5

Filename E:\05 - Antonia.wav

Pre-gap length 0:00:03.00

Peak level 99.2 %
Extraction speed 5.6 X
Track quality 100.0 %
Test CRC 25767160
Copy CRC 25767160
Track not present in AccurateRip database
Copy OK

Track 6

Filename E:\06 - The Search.wav

Pre-gap length 0:00:01.66

Peak level 98.5 %
Extraction speed 5.6 X
Track quality 100.0 %
Test CRC 78EE53EA
Copy CRC 78EE53EA
Track not present in AccurateRip database
Copy OK

Track 7

Filename E:\07 - Letter From Home.wav

Pre-gap length 0:00:02.64

Peak level 98.9 %
Extraction speed 3.8 X
Track quality 99.9 %
Test CRC D2ECC100
Copy CRC D2ECC100
Track not present in AccurateRip database
Copy OK

Track 8

Filename E:\08 - The Heat Of The Day.wav

Pre-gap length 0:00:02.63

Peak level 98.7 %
Extraction speed 6.3 X
Track quality 100.0 %
Test CRC 921BF7B8
Copy CRC 921BF7B8
Track not present in AccurateRip database
Copy OK


None of the tracks are present in the AccurateRip database

No errors occurred

End of status report

==== Log checksum 5117EA1435E880AB55E48EB490D9B61D0A758903C3C6750B6763D4258E3AE69A ====


––––––––––––––––––––––––––––––––––––––––
Analyzed: Santiago Lara / Flamenco Tribute to Pat Metheny
––––––––––––––––––––––––––––––––––––––––

DR Peak RMS Duration Track
––––––––––––––––––––––––––––––––––––––––
DR8 -0.13 dB -9.83 dB 6:49 01-Minuano
DR10 0.00 dB -13.51 dB 5:52 02-Find In Your Dreams
DR9 -0.13 dB -11.13 dB 5:49 03-James
DR9 -0.11 dB -12.05 dB 6:01 04-Question And Answer
DR10 -0.07 dB -13.74 dB 5:42 05-Antonia
DR8 -0.12 dB -10.67 dB 4:07 06-The Search
DR10 -0.09 dB -13.27 dB 2:25 07-Letter From Home
DR8 -0.11 dB -10.18 dB 5:50 08-The Heat Of The Day
––––––––––––––––––––––––––––––––––––––––

Number of tracks: 8
Official DR value: DR9

Samplerate: 44100 Hz
Channels: 2
Bits per sample: 16
Bitrate: 843 kbps
Codec: FLAC
================================================================================

Santiago Lara - Flamenco Tribute to Pat Metheny (2016) {Warner Spain}
Santiago Lara - Flamenco Tribute to Pat Metheny (2016) {Warner Spain}
Santiago Lara - Flamenco Tribute to Pat Metheny (2016) {Warner Spain}


Thanks to the original ripper