Tags
Language
Tags
March 2023
Su Mo Tu We Th Fr Sa
26 27 28 1 2 3 4
5 6 7 8 9 10 11
12 13 14 15 16 17 18
19 20 21 22 23 24 25
26 27 28 29 30 31 1

Saxon - Solid Book Of Rock (2017) [11CD + 3DVD Box Set]

Posted By: v3122
Saxon - Solid Book Of Rock (2017) [11CD + 3DVD Box Set]

Saxon - Solid Book Of Rock (2017)
EAC | Flac(Image) + Cue + Log
Edsel Records, SAXONBOX03 | ~ 4367 Mb | Scans(png) -> 1.17 Gb
3xDVD5: NTSC 4:3 (720x480) VBR
AC3 & DTS 6ch / AC3 & LPCM 2ch -> 9.07 Gb
Heavy Metal / Hard Rock

Limited 14 disc (13 CDs + NTSC/Region 0 DVD) Includes all nine studio albums from 1991 to 2009 with eight bonus tracks and two bonus CDs - "Classics Re-Recorded" originally issued with the initial pressings of Killing Ground, and Lionheart - Rough Studio Mix originally issued on the 2006 limited edition. Also includes three bonus DVDs - the limited edition DVDs originally released with Lionheart, The Inner Sanctum and Into The Labyrinth. Beautifully housed in a 24 page 12" x 12" book with all the lyrics and credits, plus photos with a fabulous brand new cover painting by Paul R. Gregory.

~ amazon
Saxon - Solid Book Of Rock (2017) [11CD + 3DVD Box Set]

Saxon - Solid Book Of Rock (2017):

Saxon - Solid Book Of Rock (2017) [11CD + 3DVD Box Set]

Tracklist CD01 - 1991 Solid Ball Of Rock:

01 Solid Ball Of Rock
02 Altar Of The Gods
03 Requiem (We Will Remember)
04 Lights In the Sky
05 I Just Can't Get Enough
06 Baptism Of Fire
07 Ain't Gonna Take It
08 I'm On Fire
09 Overture In B Minor / Refugee
10 Bavarian Beaver
11 Crash Dive

Bonus Tracks:
12 Requiem (We Will Remember) (Single Version)
13 Reeperbahn Stomp

Exact Audio Copy V1.3 from 2. September 2016

EAC extraction logfile from 1. September 2017, 16:48

Saxon / Solid Ball Of Rock

Used drive : PLEXTOR BD-R PX-B950SA Adapter: 1 ID: 1

Read mode : Secure
Utilize accurate stream : Yes
Defeat audio cache : Yes
Make use of C2 pointers : No

Read offset correction : 6
Overread into Lead-In and Lead-Out : No
Fill up missing offset samples with silence : Yes
Delete leading and trailing silent blocks : No
Null samples used in CRC calculations : Yes
Used interface : Native Win32 interface for Win NT & 2000

Used output format : Internal WAV Routines
Sample format : 44.100 Hz; 16 Bit; Stereo


TOC of the extracted CD

Track | Start | Length | Start sector | End sector
––––––––––––––––––––––––––––-
1 | 0:00.00 | 4:39.41 | 0 | 20965
2 | 4:39.41 | 3:41.74 | 20966 | 37614
3 | 8:21.40 | 5:18.15 | 37615 | 61479
4 | 13:39.55 | 4:07.07 | 61480 | 80011
5 | 17:46.62 | 4:38.30 | 80012 | 100891
6 | 22:25.17 | 3:12.53 | 100892 | 115344
7 | 25:37.70 | 4:52.07 | 115345 | 137251
8 | 30:30.02 | 4:23.38 | 137252 | 157014
9 | 34:53.40 | 5:37.54 | 157015 | 182343
10 | 40:31.19 | 1:14.64 | 182344 | 187957
11 | 41:46.08 | 3:10.60 | 187958 | 202267
12 | 44:56.68 | 4:43.37 | 202268 | 223529
13 | 49:40.30 | 3:27.27 | 223530 | 239081


Range status and errors

Selected range

Filename C:\Users\Alex\Desktop\ALLexxess\Saxon\2017 Solid Book Of Rock (14-Disc Box Set Edsel Records)\1991 Solid Ball Of Rock\Saxon - Solid Ball Of Rock.wav

Peak level 98.7 %
Extraction speed 7.1 X
Range quality 100.0 %
Test CRC 573645EF
Copy CRC 573645EF
Copy OK

No errors occurred


AccurateRip summary

Track 1 not present in database
Track 2 not present in database
Track 3 not present in database
Track 4 not present in database
Track 5 not present in database
Track 6 not present in database
Track 7 not present in database
Track 8 not present in database
Track 9 not present in database
Track 10 not present in database
Track 11 not present in database
Track 12 not present in database
Track 13 not present in database

None of the tracks are present in the AccurateRip database

End of status report

–– CUETools DB Plugin V2.1.6

[CTDB TOCID: EAzm8sNs0Te5g.Mp5pJKCrZKVRg-] found
Submit result: EAzm8sNs0Te5g.Mp5pJKCrZKVRg- has been confirmed
Track | CTDB Status
1 | (1/1) Accurately ripped
2 | (1/1) Accurately ripped
3 | (1/1) Accurately ripped
4 | (1/1) Accurately ripped
5 | (1/1) Accurately ripped
6 | (1/1) Accurately ripped
7 | (1/1) Accurately ripped
8 | (1/1) Accurately ripped
9 | (1/1) Accurately ripped
10 | (1/1) Accurately ripped
11 | (1/1) Accurately ripped
12 | (1/1) Accurately ripped
13 | (1/1) Accurately ripped


==== Log checksum 9396638ADC266057B80F5472999EC704BA9F452BB3EA34F3C69E9CBA0C9E8030 ====


Saxon - Solid Book Of Rock (2017) [11CD + 3DVD Box Set]

Tracklist CD02 - 1992 Forever Free:

01 Forever Free
02 Hole In The Sky
03 Just Wanna Make Love To You
04 Get Down And Dirty
05 Iron Wheels
06 One Step Away
07 Can't Stop Rockin'
08 Nighthunter
09 Grind
10 Cloud Nine

Bonus Tracks:
11 Princess Of The Night (Live)
12 Forever Free (Live)

Exact Audio Copy V1.3 from 2. September 2016

EAC extraction logfile from 1. September 2017, 16:18

Saxon / Forever Free

Used drive : PLEXTOR BD-R PX-B950SA Adapter: 1 ID: 1

Read mode : Secure
Utilize accurate stream : Yes
Defeat audio cache : Yes
Make use of C2 pointers : No

Read offset correction : 6
Overread into Lead-In and Lead-Out : No
Fill up missing offset samples with silence : Yes
Delete leading and trailing silent blocks : No
Null samples used in CRC calculations : Yes
Used interface : Native Win32 interface for Win NT & 2000

Used output format : Internal WAV Routines
Sample format : 44.100 Hz; 16 Bit; Stereo


TOC of the extracted CD

Track | Start | Length | Start sector | End sector
––––––––––––––––––––––––––––-
1 | 0:00.00 | 5:00.17 | 0 | 22516
2 | 5:00.17 | 4:44.47 | 22517 | 43863
3 | 9:44.64 | 3:57.09 | 43864 | 61647
4 | 13:41.73 | 5:08.12 | 61648 | 84759
5 | 18:50.10 | 4:15.14 | 84760 | 103898
6 | 23:05.24 | 4:59.37 | 103899 | 126360
7 | 28:04.61 | 4:06.10 | 126361 | 144820
8 | 32:10.71 | 3:25.03 | 144821 | 160198
9 | 35:35.74 | 4:26.03 | 160199 | 180151
10 | 40:02.02 | 4:37.21 | 180152 | 200947
11 | 44:39.23 | 5:15.43 | 200948 | 224615
12 | 49:54.66 | 4:47.69 | 224616 | 246209


Range status and errors

Selected range

Filename C:\Users\Alex\Desktop\ALLexxess\Saxon\2017 Solid Book Of Rock (14-Disc Box Set Edsel Records)\1992 Forever Free\Saxon - Forever Free.wav

Peak level 100.0 %
Extraction speed 7.1 X
Range quality 99.9 %
Test CRC B18C6B71
Copy CRC B18C6B71
Copy OK

No errors occurred


AccurateRip summary

Track 1 not present in database
Track 2 not present in database
Track 3 not present in database
Track 4 not present in database
Track 5 not present in database
Track 6 not present in database
Track 7 not present in database
Track 8 not present in database
Track 9 not present in database
Track 10 not present in database
Track 11 not present in database
Track 12 not present in database

None of the tracks are present in the AccurateRip database

End of status report

–– CUETools DB Plugin V2.1.6

[CTDB TOCID: cXhCQZmO_SC60O3iPH1nihQWUy0-] found
Submit result: cXhCQZmO_SC60O3iPH1nihQWUy0- has been confirmed
Track | CTDB Status
1 | (1/1) Accurately ripped
2 | (1/1) Accurately ripped
3 | (1/1) Accurately ripped
4 | (1/1) Accurately ripped
5 | (1/1) Accurately ripped
6 | (1/1) Accurately ripped
7 | (1/1) Accurately ripped
8 | (1/1) Accurately ripped
9 | (1/1) Accurately ripped
10 | (1/1) Accurately ripped
11 | (1/1) Accurately ripped
12 | (1/1) Accurately ripped


==== Log checksum 5489E3A6E9448E0FC3DE7BE224BAE5CAD498FB366FB2AC4681844852C41625AC ====


Saxon - Solid Book Of Rock (2017) [11CD + 3DVD Box Set]

Tracklist CD03 - 1995 Dogs Of War:

01 Dogs Of War
02 Burning Wheels
03 Don't Worry
04 Big Twin Rolling (Coming Home)
05 Hold On
06 The Great White Buffalo
07 Demolition Alley
08 Walking Through Tokyo
09 Give It All Away
10 Yesterday's Gone
Bonus Tracks
11 The Great White Buffalo (Live)
12 Denim And Leather (Live)

Exact Audio Copy V1.3 from 2. September 2016

EAC extraction logfile from 1. September 2017, 15:46

Saxon / Dogs Of War

Used drive : PLEXTOR BD-R PX-B950SA Adapter: 1 ID: 1

Read mode : Secure
Utilize accurate stream : Yes
Defeat audio cache : Yes
Make use of C2 pointers : No

Read offset correction : 6
Overread into Lead-In and Lead-Out : No
Fill up missing offset samples with silence : Yes
Delete leading and trailing silent blocks : No
Null samples used in CRC calculations : Yes
Used interface : Native Win32 interface for Win NT & 2000

Used output format : Internal WAV Routines
Sample format : 44.100 Hz; 16 Bit; Stereo


TOC of the extracted CD

Track | Start | Length | Start sector | End sector
––––––––––––––––––––––––––––-
1 | 0:00.00 | 4:33.68 | 0 | 20542
2 | 4:33.68 | 4:11.01 | 20543 | 39368
3 | 8:44.69 | 5:17.24 | 39369 | 63167
4 | 14:02.18 | 5:23.34 | 63168 | 87426
5 | 19:25.52 | 4:31.49 | 87427 | 107800
6 | 23:57.26 | 5:52.26 | 107801 | 134226
7 | 29:49.52 | 6:09.49 | 134227 | 161950
8 | 35:59.26 | 5:52.06 | 161951 | 188356
9 | 41:51.32 | 4:02.20 | 188357 | 206526
10 | 45:53.52 | 3:47.26 | 206527 | 223577
11 | 49:41.03 | 6:16.68 | 223578 | 251845
12 | 55:57.71 | 6:11.51 | 251846 | 279721


Range status and errors

Selected range

Filename C:\Users\Alex\Desktop\ALLexxess\Saxon\2017 Solid Book Of Rock (14-Disc Box Set Edsel Records)\1995 Dogs Of War\Saxon - Dogs Of War.wav

Peak level 95.2 %
Extraction speed 7.4 X
Range quality 100.0 %
Test CRC AE74856A
Copy CRC AE74856A
Copy OK

No errors occurred


AccurateRip summary

Track 1 not present in database
Track 2 not present in database
Track 3 not present in database
Track 4 not present in database
Track 5 not present in database
Track 6 not present in database
Track 7 not present in database
Track 8 not present in database
Track 9 not present in database
Track 10 not present in database
Track 11 not present in database
Track 12 not present in database

None of the tracks are present in the AccurateRip database

End of status report

–– CUETools DB Plugin V2.1.6

[CTDB TOCID: Gaw7d2TJdwiHLPT7IySKfsIsbbc-] found
Submit result: Gaw7d2TJdwiHLPT7IySKfsIsbbc- has been uploaded
Track | CTDB Status
1 | (1/1) Accurately ripped
2 | (1/1) Accurately ripped
3 | (1/1) Accurately ripped
4 | (1/1) Accurately ripped
5 | (1/1) Accurately ripped
6 | (1/1) Accurately ripped
7 | (1/1) Accurately ripped
8 | (1/1) Accurately ripped
9 | (1/1) Accurately ripped
10 | (1/1) Accurately ripped
11 | (1/1) Accurately ripped
12 | (1/1) Differs in 47 samples @05:04:17,05:08:64-05:08:65
If you are sure that your rip contains errors, you can use CUETools to repair it.


==== Log checksum D02A48848D27C72230D47DA80D28655AC4B1BF2027B4FA3A2C40461D06BF77EF ====


Saxon - Solid Book Of Rock (2017) [11CD + 3DVD Box Set]

Tracklist CD04 - 1997 Unleash The Beast:

01 Gothic Dreams
02 Unleash The Beast
03 Terminal Velocity
04 Circle Of Light
05 The Thin Red Line
06 Ministry Of Fools
07 The Preacher
08 Bloodletter
09 Cut Out The Disease
10 Absent Friends
11 All Hell Breaking Loose

Bonus Tracks:
12 Crusader (Live)
13 Solid Ball Of Rock (Live)

Exact Audio Copy V1.3 from 2. September 2016

EAC extraction logfile from 1. September 2017, 15:05

Saxon / Unleash The Beast

Used drive : PLEXTOR BD-R PX-B950SA Adapter: 1 ID: 1

Read mode : Secure
Utilize accurate stream : Yes
Defeat audio cache : Yes
Make use of C2 pointers : No

Read offset correction : 6
Overread into Lead-In and Lead-Out : No
Fill up missing offset samples with silence : Yes
Delete leading and trailing silent blocks : No
Null samples used in CRC calculations : Yes
Used interface : Native Win32 interface for Win NT & 2000

Used output format : Internal WAV Routines
Sample format : 44.100 Hz; 16 Bit; Stereo


TOC of the extracted CD

Track | Start | Length | Start sector | End sector
––––––––––––––––––––––––––––-
1 | 0:00.00 | 1:33.32 | 0 | 7006
2 | 1:33.32 | 5:18.03 | 7007 | 30859
3 | 6:51.35 | 4:45.65 | 30860 | 52299
4 | 11:37.25 | 5:28.10 | 52300 | 76909
5 | 17:05.35 | 6:21.47 | 76910 | 105531
6 | 23:27.07 | 4:31.28 | 105532 | 125884
7 | 27:58.35 | 4:57.37 | 125885 | 148196
8 | 32:55.72 | 5:33.05 | 148197 | 173176
9 | 38:29.02 | 5:25.40 | 173177 | 197591
10 | 43:54.42 | 4:56.65 | 197592 | 219856
11 | 48:51.32 | 4:33.10 | 219857 | 240341
12 | 53:24.42 | 6:01.39 | 240342 | 267455
13 | 59:26.06 | 4:41.27 | 267456 | 288557


Range status and errors

Selected range

Filename C:\Users\Alex\Desktop\ALLexxess\Saxon\2017 Solid Book Of Rock (14-Disc Box Set Edsel Records)\1997 Unleash The Beast\Saxon - Unleash The Beast.wav

Peak level 94.4 %
Extraction speed 7.5 X
Range quality 100.0 %
Test CRC E4F37C99
Copy CRC E4F37C99
Copy OK

No errors occurred


AccurateRip summary

Track 1 not present in database
Track 2 not present in database
Track 3 not present in database
Track 4 not present in database
Track 5 not present in database
Track 6 not present in database
Track 7 not present in database
Track 8 not present in database
Track 9 not present in database
Track 10 not present in database
Track 11 not present in database
Track 12 not present in database
Track 13 not present in database

None of the tracks are present in the AccurateRip database

End of status report

–– CUETools DB Plugin V2.1.6

[CTDB TOCID: .40g9o9PXXZUbMGWj1ID.IoAbm8-] found
Submit result: .40g9o9PXXZUbMGWj1ID.IoAbm8- has been confirmed
Track | CTDB Status
1 | (1/1) Accurately ripped
2 | (1/1) Accurately ripped
3 | (1/1) Accurately ripped
4 | (1/1) Accurately ripped
5 | (1/1) Accurately ripped
6 | (1/1) Accurately ripped
7 | (1/1) Accurately ripped
8 | (1/1) Accurately ripped
9 | (1/1) Accurately ripped
10 | (1/1) Accurately ripped
11 | (1/1) Accurately ripped
12 | (1/1) Accurately ripped
13 | (1/1) Accurately ripped


==== Log checksum 08E96830BA4E2C5212281801A58F4B6C77F015F218902824337B525877BFB98E ====


Saxon - Solid Book Of Rock (2017) [11CD + 3DVD Box Set]

Tracklist CD05 - 1999 Metalhead:

01 Intro
02 Metalhead
03 Are We Travellers In Time
04 Conquistador
05 What Goes Around
06 Song Of Evil
07 All Guns Blazing
08 Prisoner
09 Piss Off
10 Watching You
11 Sea Of Life

12 Crusader (Live)
13 Solid Ball Of Rock (Live)

Exact Audio Copy V1.3 from 2. September 2016

EAC extraction logfile from 1. September 2017, 14:16

Saxon / Metalhead

Used drive : PLEXTOR BD-R PX-B950SA Adapter: 1 ID: 1

Read mode : Secure
Utilize accurate stream : Yes
Defeat audio cache : Yes
Make use of C2 pointers : No

Read offset correction : 6
Overread into Lead-In and Lead-Out : No
Fill up missing offset samples with silence : Yes
Delete leading and trailing silent blocks : No
Null samples used in CRC calculations : Yes
Used interface : Native Win32 interface for Win NT & 2000

Used output format : Internal WAV Routines
Sample format : 44.100 Hz; 16 Bit; Stereo


TOC of the extracted CD

Track | Start | Length | Start sector | End sector
––––––––––––––––––––––––––––-
1 | 0:00.00 | 1:25.08 | 0 | 6382
2 | 1:25.08 | 4:51.60 | 6383 | 28267
3 | 6:16.68 | 5:17.40 | 28268 | 52082
4 | 11:34.33 | 4:42.54 | 52083 | 73286
5 | 16:17.12 | 4:24.03 | 73287 | 93089
6 | 20:41.15 | 4:12.23 | 93090 | 112012
7 | 24:53.38 | 3:53.25 | 112013 | 129512
8 | 28:46.63 | 4:12.61 | 129513 | 148473
9 | 32:59.49 | 4:04.67 | 148474 | 166840
10 | 37:04.41 | 5:18.40 | 166841 | 190730
11 | 42:23.06 | 8:11.26 | 190731 | 227581


Range status and errors

Selected range

Filename C:\Users\Alex\Desktop\ALLexxess\Saxon\2017 Solid Book Of Rock (14-Disc Box Set Edsel Records)\1999 Metalhead\Saxon - Metalhead.wav

Peak level 97.7 %
Extraction speed 7.0 X
Range quality 100.0 %
Test CRC 83FFF184
Copy CRC 83FFF184
Copy OK

No errors occurred


AccurateRip summary

Track 1 not present in database
Track 2 not present in database
Track 3 not present in database
Track 4 not present in database
Track 5 not present in database
Track 6 not present in database
Track 7 not present in database
Track 8 not present in database
Track 9 not present in database
Track 10 not present in database
Track 11 not present in database

None of the tracks are present in the AccurateRip database

End of status report

–– CUETools DB Plugin V2.1.6

[CTDB TOCID: zilk304sU63hsvrEPMNmpthsP9w-] found
Submit result: zilk304sU63hsvrEPMNmpthsP9w- has been confirmed
Track | CTDB Status
1 | (1/1) Accurately ripped
2 | (1/1) Accurately ripped
3 | (1/1) Accurately ripped
4 | (1/1) Accurately ripped
5 | (1/1) Accurately ripped
6 | (1/1) Accurately ripped
7 | (1/1) Accurately ripped
8 | (1/1) Accurately ripped
9 | (1/1) Accurately ripped
10 | (1/1) Accurately ripped
11 | (1/1) Accurately ripped


==== Log checksum F4B19FD31B3A38A6BD41EC7AAB44D07851733D769A5D38537323A2451FEA6D3C ====


Saxon - Solid Book Of Rock (2017) [11CD + 3DVD Box Set]

Tracklist CD06 - 2001 Killing Ground:

01 Intro
02 Killing Ground
03 Court Of The Crimson King
04 Coming Home
05 Until Hell Freezes Over
06 Dragon's Lair
07 You Don't Know What You've Got
08 Deeds Of Glory
09 Running For The Border
10 Shadows On The Wall
11 Rock Is Our Life

Exact Audio Copy V1.3 from 2. September 2016

EAC extraction logfile from 1. September 2017, 11:12

Saxon / Killing Ground

Used drive : PLEXTOR BD-R PX-B950SA Adapter: 1 ID: 1

Read mode : Secure
Utilize accurate stream : Yes
Defeat audio cache : Yes
Make use of C2 pointers : No

Read offset correction : 6
Overread into Lead-In and Lead-Out : No
Fill up missing offset samples with silence : Yes
Delete leading and trailing silent blocks : No
Null samples used in CRC calculations : Yes
Used interface : Native Win32 interface for Win NT & 2000

Used output format : Internal WAV Routines
Sample format : 44.100 Hz; 16 Bit; Stereo


TOC of the extracted CD

Track | Start | Length | Start sector | End sector
––––––––––––––––––––––––––––-
1 | 0:00.00 | 1:36.48 | 0 | 7247
2 | 1:36.48 | 5:46.53 | 7248 | 33250
3 | 7:23.26 | 6:02.22 | 33251 | 60422
4 | 13:25.48 | 3:40.20 | 60423 | 76942
5 | 17:05.68 | 4:44.61 | 76943 | 98303
6 | 21:50.54 | 3:40.48 | 98304 | 114851
7 | 25:31.27 | 5:01.12 | 114852 | 137438
8 | 30:32.39 | 4:36.41 | 137439 | 158179
9 | 35:09.05 | 4:26.67 | 158180 | 178196
10 | 39:35.72 | 6:17.30 | 178197 | 206501
11 | 45:53.27 | 3:55.55 | 206502 | 224181


Range status and errors

Selected range

Filename C:\Users\Alex\Desktop\ALLexxess\Saxon\2017 Solid Book Of Rock (14-Disc Box Set Edsel Records)\2001 Killing Ground\Saxon - Killing Ground.wav

Peak level 94.4 %
Extraction speed 7.0 X
Range quality 100.0 %
Test CRC 24226313
Copy CRC 24226313
Copy OK

No errors occurred


AccurateRip summary

Track 1 not present in database
Track 2 not present in database
Track 3 not present in database
Track 4 not present in database
Track 5 not present in database
Track 6 not present in database
Track 7 not present in database
Track 8 not present in database
Track 9 not present in database
Track 10 not present in database
Track 11 not present in database

None of the tracks are present in the AccurateRip database

End of status report

–– CUETools DB Plugin V2.1.6

[CTDB TOCID: tJJG8DRzG7Lepn1qxPv2U641TQY-] found
Submit result: already submitted
Track | CTDB Status
1 | (2/2) Accurately ripped
2 | (2/2) Accurately ripped
3 | (2/2) Accurately ripped
4 | (2/2) Accurately ripped
5 | (2/2) Accurately ripped
6 | (2/2) Accurately ripped
7 | (2/2) Accurately ripped
8 | (2/2) Accurately ripped
9 | (2/2) Accurately ripped
10 | (2/2) Accurately ripped
11 | (2/2) Accurately ripped


==== Log checksum A02891EBCF1EDF65D7F4AB82D3CE97002DEEB9560598B9742A9D385918429CCD ====


Saxon - Solid Book Of Rock (2017) [11CD + 3DVD Box Set]

Tracklist CD07 - 2001 Classics Re-Recorded:

01 Princess Of The Night
02 Crusader
03 Wheels Of Steel
04 Motorcycle Man
05 Strong Arm Of The Law
06 Denim And Leather
07 Dallas 1PM
08 And The Bands Played On

Exact Audio Copy V1.3 from 2. September 2016

EAC extraction logfile from 1. September 2017, 10:38

Saxon / Classics Re-Recorded

Used drive : PLEXTOR BD-R PX-B950SA Adapter: 1 ID: 1

Read mode : Secure
Utilize accurate stream : Yes
Defeat audio cache : Yes
Make use of C2 pointers : No

Read offset correction : 6
Overread into Lead-In and Lead-Out : No
Fill up missing offset samples with silence : Yes
Delete leading and trailing silent blocks : No
Null samples used in CRC calculations : Yes
Used interface : Native Win32 interface for Win NT & 2000

Used output format : Internal WAV Routines
Sample format : 44.100 Hz; 16 Bit; Stereo


TOC of the extracted CD

Track | Start | Length | Start sector | End sector
––––––––––––––––––––––––––––-
1 | 0:00.00 | 4:11.18 | 0 | 18842
2 | 4:11.18 | 6:39.61 | 18843 | 48828
3 | 10:51.04 | 5:53.43 | 48829 | 75346
4 | 16:44.47 | 3:46.60 | 75347 | 92356
5 | 20:31.32 | 4:26.26 | 92357 | 112332
6 | 24:57.58 | 5:21.29 | 112333 | 136436
7 | 30:19.12 | 6:17.44 | 136437 | 164755
8 | 36:36.56 | 2:52.54 | 164756 | 177709


Range status and errors

Selected range

Filename C:\Users\Alex\Desktop\ALLexxess\Saxon\2017 Solid Book Of Rock (14-Disc Box Set Edsel Records)\2001 Classics Re-Recorded\Saxon - Classics Re-Recorded.wav

Peak level 94.4 %
Extraction speed 6.4 X
Range quality 99.9 %
Test CRC 99856E0B
Copy CRC 99856E0B
Copy OK

No errors occurred


AccurateRip summary

Track 1 not present in database
Track 2 not present in database
Track 3 not present in database
Track 4 not present in database
Track 5 not present in database
Track 6 not present in database
Track 7 not present in database
Track 8 not present in database

None of the tracks are present in the AccurateRip database

End of status report

–– CUETools DB Plugin V2.1.6

[CTDB TOCID: laeTk101.a6HEGUnpjY2VUglk7I-] found
Submit result: already submitted
Track | CTDB Status
1 | (2/2) Accurately ripped
2 | (2/2) Accurately ripped
3 | (2/2) Accurately ripped
4 | (2/2) Accurately ripped
5 | (2/2) Accurately ripped
6 | (2/2) Accurately ripped
7 | (2/2) Accurately ripped
8 | (2/2) Accurately ripped


==== Log checksum E3FBC1BDA0A384AD7C629052085C2C5DAB04E36D29637EB332A05EC4B272EE9D ====


Saxon - Solid Book Of Rock (2017) [11CD + 3DVD Box Set]

Tracklist CD08 - 2004 Lionheart:

01 Witchfinder General
02 Man And Machine
03 The Return
04 Lionheart
05 Beyond The Grave
06 Justice
07 To Live By The Sword
08 Jack Tars
09 English Man O'War
10 Searching For Atlantis
11 Flying On The Edge

Exact Audio Copy V1.3 from 2. September 2016

EAC extraction logfile from 1. September 2017, 5:13

Saxon / Lionheart

Used drive : PLEXTOR BD-R PX-B950SA Adapter: 1 ID: 1

Read mode : Secure
Utilize accurate stream : Yes
Defeat audio cache : Yes
Make use of C2 pointers : No

Read offset correction : 6
Overread into Lead-In and Lead-Out : No
Fill up missing offset samples with silence : Yes
Delete leading and trailing silent blocks : No
Null samples used in CRC calculations : Yes
Used interface : Native Win32 interface for Win NT & 2000

Used output format : Internal WAV Routines
Sample format : 44.100 Hz; 16 Bit; Stereo


TOC of the extracted CD

Track | Start | Length | Start sector | End sector
––––––––––––––––––––––––––––-
1 | 0:00.00 | 4:49.05 | 0 | 21679
2 | 4:49.05 | 3:28.54 | 21680 | 37333
3 | 8:17.59 | 1:18.12 | 37334 | 43195
4 | 9:35.71 | 6:04.28 | 43196 | 70523
5 | 15:40.24 | 4:55.47 | 70524 | 92695
6 | 20:35.71 | 4:26.64 | 92696 | 112709
7 | 25:02.60 | 4:10.42 | 112710 | 131501
8 | 29:13.27 | 0:57.13 | 131502 | 135789
9 | 30:10.40 | 4:08.05 | 135790 | 154394
10 | 34:18.45 | 5:54.25 | 154395 | 180969
11 | 40:12.70 | 4:54.70 | 180970 | 203089


Range status and errors

Selected range

Filename C:\Users\Alex\Desktop\ALLexxess\Saxon\2017 Solid Book Of Rock (14-Disc Box Set Edsel Records)\2004 Lionheart\Saxon - Lionheart.wav

Peak level 94.5 %
Extraction speed 6.8 X
Range quality 100.0 %
Test CRC 9BAB04F7
Copy CRC 9BAB04F7
Copy OK

No errors occurred


AccurateRip summary

Track 1 not present in database
Track 2 not present in database
Track 3 not present in database
Track 4 not present in database
Track 5 not present in database
Track 6 not present in database
Track 7 not present in database
Track 8 not present in database
Track 9 not present in database
Track 10 not present in database
Track 11 not present in database

None of the tracks are present in the AccurateRip database

End of status report

–– CUETools DB Plugin V2.1.6

[CTDB TOCID: cVBYhwBmugPaIHLFQvoH.6KIDOY-] found
Submit result: already submitted
Track | CTDB Status
1 | (2/2) Accurately ripped
2 | (2/2) Accurately ripped
3 | (2/2) Accurately ripped
4 | (2/2) Accurately ripped
5 | (2/2) Accurately ripped
6 | (2/2) Accurately ripped
7 | (2/2) Accurately ripped
8 | (2/2) Accurately ripped
9 | (2/2) Accurately ripped
10 | (2/2) Accurately ripped
11 | (2/2) Accurately ripped


==== Log checksum AB2169B85138D226AFA198C1D7E470AF8164A15DC4E83F58C81DFB83DFF7D29A ====


Saxon - Solid Book Of Rock (2017) [11CD + 3DVD Box Set]

Tracklist CD09 - 2004 Lionheart (Studio Audio - Rough Mix):

01 Witchfinder General
02 Man And Machine
03 The Return
04 Lionheart
05 Beyond The Grave
06 Justice
07 To Live By The Sword
08 Jack Tars
09 English Man O'War
10 Searching For Atlantis
11 Flying On The Edge
12 Beyond The Grave (Single Version)

Exact Audio Copy V1.3 from 2. September 2016

EAC extraction logfile from 1. September 2017, 4:37

Saxon / Lionheart (Studio Audio - Rough Mix)

Used drive : PLEXTOR BD-R PX-B950SA Adapter: 1 ID: 1

Read mode : Secure
Utilize accurate stream : Yes
Defeat audio cache : Yes
Make use of C2 pointers : No

Read offset correction : 6
Overread into Lead-In and Lead-Out : No
Fill up missing offset samples with silence : Yes
Delete leading and trailing silent blocks : No
Null samples used in CRC calculations : Yes
Used interface : Native Win32 interface for Win NT & 2000

Used output format : Internal WAV Routines
Sample format : 44.100 Hz; 16 Bit; Stereo


TOC of the extracted CD

Track | Start | Length | Start sector | End sector
––––––––––––––––––––––––––––-
1 | 0:00.00 | 4:46.30 | 0 | 21479
2 | 4:46.30 | 3:28.42 | 21480 | 37121
3 | 8:14.72 | 1:17.69 | 37122 | 42965
4 | 9:32.66 | 6:50.30 | 42966 | 73745
5 | 16:23.21 | 4:54.24 | 73746 | 95819
6 | 21:17.45 | 4:23.72 | 95820 | 115616
7 | 25:41.42 | 4:11.00 | 115617 | 134441
8 | 29:52.42 | 0:57.57 | 134442 | 138773
9 | 30:50.24 | 4:03.69 | 138774 | 157067
10 | 34:54.18 | 5:56.31 | 157068 | 183798
11 | 40:50.49 | 4:53.68 | 183799 | 205841
12 | 45:44.42 | 3:45.05 | 205842 | 222721


Range status and errors

Selected range

Filename C:\Users\Alex\Desktop\ALLexxess\Saxon\2017 Solid Book Of Rock (14-Disc Box Set Edsel Records)\2004 Lionheart (Studio Audio - Rough Mix)\Saxon - Lionheart (Studio Audio - Rough Mix).wav

Peak level 94.4 %
Extraction speed 7.0 X
Range quality 100.0 %
Test CRC 56FBB5F6
Copy CRC 56FBB5F6
Copy OK

No errors occurred


AccurateRip summary

Track 1 not present in database
Track 2 not present in database
Track 3 not present in database
Track 4 not present in database
Track 5 not present in database
Track 6 not present in database
Track 7 not present in database
Track 8 not present in database
Track 9 not present in database
Track 10 not present in database
Track 11 not present in database
Track 12 not present in database

None of the tracks are present in the AccurateRip database

End of status report

–– CUETools DB Plugin V2.1.6

[CTDB TOCID: io9vZ3QClmXQ3uIYjsuwxWoGVX8-] found
Submit result: already submitted
Track | CTDB Status
1 | (2/2) Accurately ripped
2 | (2/2) Accurately ripped
3 | (2/2) Accurately ripped
4 | (2/2) Accurately ripped
5 | (2/2) Accurately ripped
6 | (2/2) Accurately ripped
7 | (2/2) Accurately ripped
8 | (2/2) Accurately ripped
9 | (2/2) Accurately ripped
10 | (2/2) Accurately ripped
11 | (2/2) Accurately ripped
12 | (2/2) Accurately ripped


==== Log checksum B99CD18A6DA52811FA18339585DD9D2FAD8ACD703E16975AA93EB88EFAD81A15 ====


Saxon - Solid Book Of Rock (2017) [11CD + 3DVD Box Set]

Tracklist CD10 - 2007 The Inner Sanctum:

01 State Of Grace
02 Need For Speed
03 Let Me Feel Your Power
04 Red Star Falling
05 I've Got To Rock (To Stay Alive)
06 If I Was You
07 Going Nowhere Fast
08 Ashes To Ashes
09 Empire Rising (Instrumental)
10 Attila The Hun

Exact Audio Copy V1.3 from 2. September 2016

EAC extraction logfile from 31. August 2017, 20:36

Saxon / The Inner Sanctum

Used drive : PLEXTOR BD-R PX-B950SA Adapter: 1 ID: 1

Read mode : Secure
Utilize accurate stream : Yes
Defeat audio cache : Yes
Make use of C2 pointers : No

Read offset correction : 6
Overread into Lead-In and Lead-Out : No
Fill up missing offset samples with silence : Yes
Delete leading and trailing silent blocks : No
Null samples used in CRC calculations : Yes
Used interface : Native Win32 interface for Win NT & 2000

Used output format : Internal WAV Routines
Sample format : 44.100 Hz; 16 Bit; Stereo


TOC of the extracted CD

Track | Start | Length | Start sector | End sector
––––––––––––––––––––––––––––-
1 | 0:00.00 | 5:37.44 | 0 | 25318
2 | 5:37.44 | 3:08.57 | 25319 | 39475
3 | 8:46.26 | 3:29.58 | 39476 | 55208
4 | 12:16.09 | 6:15.71 | 55209 | 83404
5 | 18:32.05 | 4:40.57 | 83405 | 104461
6 | 23:12.62 | 3:27.33 | 104462 | 120019
7 | 26:40.20 | 4:15.04 | 120020 | 139148
8 | 30:55.24 | 4:52.05 | 139149 | 161053
9 | 35:47.29 | 0:40.72 | 161054 | 164125
10 | 36:28.26 | 8:09.29 | 164126 | 200829


Range status and errors

Selected range

Filename C:\Users\Alex\Desktop\ALLexxess\Saxon\2017 Solid Book Of Rock (14-Disc Box Set Edsel Records)\2007 The Inner Sanctum\Saxon - The Inner Sanctum.wav

Peak level 100.0 %
Extraction speed 6.8 X
Range quality 100.0 %
Test CRC 4528B0AD
Copy CRC 4528B0AD
Copy OK

No errors occurred


AccurateRip summary

Track 1 not present in database
Track 2 not present in database
Track 3 not present in database
Track 4 not present in database
Track 5 not present in database
Track 6 not present in database
Track 7 not present in database
Track 8 not present in database
Track 9 not present in database
Track 10 not present in database

None of the tracks are present in the AccurateRip database

End of status report

–– CUETools DB Plugin V2.1.6

[CTDB TOCID: eCO6GbTyQYa.DxPiuRb.wzA6FY4-] found
Submit result: already submitted
Track | CTDB Status
1 | (2/2) Accurately ripped
2 | (2/2) Accurately ripped
3 | (2/2) Accurately ripped
4 | (2/2) Accurately ripped
5 | (2/2) Accurately ripped
6 | (2/2) Accurately ripped
7 | (2/2) Accurately ripped
8 | (2/2) Accurately ripped
9 | (2/2) Accurately ripped
10 | (2/2) Accurately ripped


==== Log checksum 077217ADE5BA322E3E4C3B1025E419D32BDA3955363ACE75ADDB4E4407542817 ====


Saxon - Solid Book Of Rock (2017) [11CD + 3DVD Box Set]

Tracklist CD11 - 2009 Into The Labyrinth:

01 Battalions Of Steel
02 Live To Rock
03 Demon Sweeney Todd
04 The Letter
05 Valley Of The Kings
06 Slow Lane Blues
07 Crime Of Passion
08 Premonition In D Minor
09 Voice
10 Protect Yourselves
11 Hellcat
12 Come Rock Of Ages (The Circle Is Complete)
13 Coming Home (Bottleneck Version)

Exact Audio Copy V1.3 from 2. September 2016

EAC extraction logfile from 31. August 2017, 17:34

Saxon / Into The Labyrinth

Used drive : PLEXTOR BD-R PX-B950SA Adapter: 1 ID: 1

Read mode : Secure
Utilize accurate stream : Yes
Defeat audio cache : Yes
Make use of C2 pointers : No

Read offset correction : 6
Overread into Lead-In and Lead-Out : No
Fill up missing offset samples with silence : Yes
Delete leading and trailing silent blocks : No
Null samples used in CRC calculations : Yes
Used interface : Native Win32 interface for Win NT & 2000

Used output format : Internal WAV Routines
Sample format : 44.100 Hz; 16 Bit; Stereo


TOC of the extracted CD

Track | Start | Length | Start sector | End sector
––––––––––––––––––––––––––––-
1 | 0:00.00 | 6:35.04 | 0 | 29628
2 | 6:35.04 | 5:30.16 | 29629 | 54394
3 | 12:05.20 | 3:53.33 | 54395 | 71902
4 | 15:58.53 | 0:42.32 | 71903 | 75084
5 | 16:41.10 | 5:04.43 | 75085 | 97927
6 | 21:45.53 | 4:08.56 | 97928 | 116583
7 | 25:54.34 | 4:05.30 | 116584 | 134988
8 | 29:59.64 | 0:40.55 | 134989 | 138043
9 | 30:40.44 | 4:35.42 | 138044 | 158710
10 | 35:16.11 | 3:56.53 | 158711 | 176463
11 | 39:12.64 | 3:56.01 | 176464 | 194164
12 | 43:08.65 | 3:54.34 | 194165 | 211748
13 | 47:03.24 | 3:12.05 | 211749 | 226153


Range status and errors

Selected range

Filename C:\Users\Alex\Desktop\ALLexxess\Saxon\2017 Solid Book Of Rock (14-Disc Box Set Edsel Records)\2009 Into The Labyrinth\Saxon - Into The Labyrinth.wav

Peak level 100.0 %
Extraction speed 7.0 X
Range quality 100.0 %
Test CRC C74A2455
Copy CRC C74A2455
Copy OK

No errors occurred


AccurateRip summary

Track 1 cannot be verified as accurate (confidence 49) [A892F758], AccurateRip returned [2735F9D3] (AR v2)
Track 2 cannot be verified as accurate (confidence 49) [BDB053BF], AccurateRip returned [F2EF38C7] (AR v2)
Track 3 cannot be verified as accurate (confidence 48) [B78BE406], AccurateRip returned [E8CB6C18] (AR v2)
Track 4 cannot be verified as accurate (confidence 49) [3839B3E5], AccurateRip returned [29D70744] (AR v2)
Track 5 cannot be verified as accurate (confidence 49) [672DB9F6], AccurateRip returned [EA698A68] (AR v2)
Track 6 cannot be verified as accurate (confidence 48) [8C5B420A], AccurateRip returned [36F755FD] (AR v2)
Track 7 cannot be verified as accurate (confidence 47) [57E6FD76], AccurateRip returned [04B5D0AD] (AR v2)
Track 8 cannot be verified as accurate (confidence 49) [1051E06F], AccurateRip returned [238ED5CF] (AR v2)
Track 9 cannot be verified as accurate (confidence 48) [A16D0F17], AccurateRip returned [C9729B1F] (AR v2)
Track 10 cannot be verified as accurate (confidence 47) [7AD79BC7], AccurateRip returned [58554928] (AR v2)
Track 11 cannot be verified as accurate (confidence 48) [027CD1B5], AccurateRip returned [938BC5BA] (AR v2)
Track 12 cannot be verified as accurate (confidence 48) [02FC592E], AccurateRip returned [1108A318] (AR v2)
Track 13 cannot be verified as accurate (confidence 49) [9085263A], AccurateRip returned [CBBFB30B] (AR v2)

No tracks could be verified as accurate
You may have a different pressing from the one(s) in the database

End of status report

–– CUETools DB Plugin V2.1.6

[CTDB TOCID: kY.JDYsviiD3WU6u7vh_PW8fVo0-] found
Submit result: already submitted
Track | CTDB Status
1 | ( 2/97) Accurately ripped
2 | ( 2/97) Accurately ripped
3 | ( 2/97) Accurately ripped
4 | ( 2/97) Accurately ripped
5 | ( 2/97) Accurately ripped
6 | ( 2/97) Accurately ripped
7 | ( 2/97) Accurately ripped
8 | ( 2/97) Accurately ripped
9 | ( 2/97) Accurately ripped
10 | ( 2/97) Accurately ripped
11 | ( 2/97) Accurately ripped
12 | ( 2/97) Accurately ripped
13 | ( 2/97) Accurately ripped


==== Log checksum BCDA7BBEF561AC57085E18A7B91DC3B9462E237FC8D2C7640A1701192CD6831C ====


Saxon - Solid Book Of Rock (2017) [11CD + 3DVD Box Set]

Tracklist DVD1 - 2006 Lionheart (A Night Out With The Boys):

01 Lionheart / In The Studio
02 Lionheart / Live
03 Beyond The Grave / Promo Video
04 5.1 96k High End Sound Mix Of The Entire Album (11 Tracks) *

Title: DVD1. 2006 Lionheart
Size: 3.05 Gb ( 3 201 406,00 KBytes ) - DVD-5
Enabled regions: 1, 2, 3, 4, 5, 6, 7, 8

VTS_01 :
Play Length: 00:00:00
Video: NTSC 4:3 (720x480) VBR

VTS_02 :
Play Length: 00:03:32+00:07:40+00:03:46+00:01:01
Video: NTSC 4:3 (720x480) VBR
Audio:
English (LinearPCM, 2 ch)

VTS_03 :
Play Length: 00:45:00
Video: NTSC 4:3 (720x480) VBR
Audio:
English (DTS, 6 ch)
English (LinearPCM, 2 ch)
Subtitles:
English


Saxon - Solid Book Of Rock (2017) [11CD + 3DVD Box Set]

Saxon - Solid Book Of Rock (2017) [11CD + 3DVD Box Set]

Saxon - Solid Book Of Rock (2017) [11CD + 3DVD Box Set]

Saxon - Solid Book Of Rock (2017) [11CD + 3DVD Box Set]

Tracklist DVD2 - 2007 The Inner Sanctum:

01 To Hell And Back Again
02 A Night Out With Boys - The Idea
03 A Night Out With Boys - Not Really
04 See The Light Shining
05 A Night Out With Boys - How It Started
06 Redline
07 Suzie Hold On
08 Stand Up And Be Counted
09 Frozen Rainbow
10 Never Surrender

Title: DVD2. 2007 The Inner Sanctum
Size: 1.97 Gb ( 2 061 846,00 KBytes ) - DVD-5
Enabled regions: 1, 2, 3, 4, 5, 6, 7, 8

VTS_01 :
Play Length: 00:00:00
Video: NTSC 4:3 (720x480) VBR

VTS_02 :
Play Length: 00:41:23
Video: NTSC 4:3 (720x480) VBR
Audio:
English (Dolby AC3, 2 ch)
English (Dolby AC3, 6 ch)
Subtitles:
Deutsch


Saxon - Solid Book Of Rock (2017) [11CD + 3DVD Box Set]

Saxon - Solid Book Of Rock (2017) [11CD + 3DVD Box Set]

Saxon - Solid Book Of Rock (2017) [11CD + 3DVD Box Set]

Saxon - Solid Book Of Rock (2017) [11CD + 3DVD Box Set]

Tracklist DVD3 - 2009 Into The Labyrinth:

01 'Perceval' - Spanish Art Film, Directed by Pablo Aragues Millan / In Latin with Subtitles
(Biff plays King Arthur)
02 'Let There Be Light' - Documentary about the Live Staging and Lighting / In German with Subtitles
03 Audio Interview with Biff Byford - Biff Talks about the Songs on 'Into The Labyrinth'

Title: DVD3. 2009 Into The Labyrinth
Size: 3.59 Gb ( 3 759 508,00 KBytes ) - DVD-5
Enabled regions: 1, 2, 3, 4, 5, 6, 7, 8

VTS_01 :
Play Length: 00:00:00
Video: NTSC 4:3 (720x480) VBR

VTS_02 :
Play Length: 00:20:09+00:00:00
Video: NTSC 4:3 (720x480) VBR
Audio:
English (LinearPCM, 2 ch)

VTS_03 :
Play Length: 00:36:47
Video: NTSC 4:3 (720x480) VBR
Audio:
Deutsch (LinearPCM, 2 ch)
Subtitles:
English


Saxon - Solid Book Of Rock (2017) [11CD + 3DVD Box Set]

Saxon - Solid Book Of Rock (2017) [11CD + 3DVD Box Set]

Saxon - Solid Book Of Rock (2017) [11CD + 3DVD Box Set]

All thanks go to ALLexxess

Saxon in my Blog

Download Saxon - Solid Book Of Rock (2017)):