Tags
Language
Tags

Scorpions - Box Of Scorpions (2004)

Posted By: v3122
Scorpions - Box Of Scorpions (2004)

Scorpions - Box Of Scorpions (2004)
EAC | Flac(Image) + Cue + Log & MP3 CBR 320Kbps
3CD | Hip-O Records, 314 583 448-2 | ~ 1676 or 563 Mb | Scans
Hard Rock

The average listener with only a passing interest in heavy metal might be surprised that the Scorpions had been recording since 1972 – they actually formed in 1965 – as their success in the United States didn't really begin until the release of 1982's Blackout. Hip-O's Box of Scorpions is the first U.S.-released box set from the veteran German rockers to sample from their entire 30-year career. Disc one pays keen attention to their progressive rock tendencies in the '70s with guitarist Uli Jon Roth. It opens with "I'm Going Mad," the leadoff cut from their debut 1972 album, Lonesome Crow, a meandering, psychedelic wish list of a record that begs for comparisons to Deep Purple and Black Sabbath, and proceeds through to 1978's Taken by Force – the 96k/24-bit digital remastering does wonders for these early tracks, especially on the rhythm section. Disc two is the one that delivers the goods, as it contains pretty much every hit the band ever had – the '80s were good to the Scorpions, spawning career solidifying smashes like "No One Like You," "Rock You Like a Hurricane," and the most powerful "power ballad" ever, "Still Loving You." The third disc collects material from the '90s and beyond, including the gentle whistling of Klaus Meine on the German reunification anthem "Winds of Change" and an unintentionally hilarious orchestral Berlin Philharmonic version of "Rock You Like a Hurricane." The accompanying booklet is a fairly standard "box set" collection of glossy photos, essays, and time lines, but the inclusion of a song-by-song commentary by Meine and guitarists Rudolf Schenker and Matthias Jabs adds a nice personal touch, making Box of Scorpions really just a box of memories.

by James Christopher Monger, AMG
Scorpions - Box Of Scorpions (2004)


Scorpions - Box Of Scorpions (2004):

Scorpions - Box Of Scorpions (2004)

Tracklist CD1:

01. I'm Goin' Mad (4:51)
02. Speedy's Coming (3:33)
03. Fly To The Rainbow (9:36)
04. In Trance (4:43)
05. Pictured Life (3:23)
06. Virgin Killer (3:42)
07. Catch Your Train (3:34)
08. Steamrock Fever (3:37)
09. We'll Burn The Sky (6:26)
10. He's A Woman - She's A Man (3:14)
11. Backstage Queen (Live) (3:38)
12. Top Of The Bill (Live) (6:47)
13. Dark Lady (Live) (3:40)
14. Robot Man (Live) (5:38)
15. Loving You Sunday Morning (5:36)
16. Holiday (6:31)

Exact Audio Copy V0.99 prebeta 4 from 23. January 2008

EAC extraction logfile from 31. March 2009, 11:07

Scorpions / Box Of Scorpions (CD1)

Used drive : PIONEER DVD-RW DVR-216D Adapter: 2 ID: 1

Read mode : Secure
Utilize accurate stream : Yes
Defeat audio cache : Yes
Make use of C2 pointers : No

Read offset correction : 96
Overread into Lead-In and Lead-Out : No
Fill up missing offset samples with silence : Yes
Delete leading and trailing silent blocks : No
Null samples used in CRC calculations : Yes
Used interface : Installed external ASPI interface

Used output format : Internal WAV Routines
Sample format : 44.100 Hz; 16 Bit; Stereo


TOC of the extracted CD

Track | Start | Length | Start sector | End sector
––––––––––––––––––––––––––––-
1 | 0:00.00 | 4:51.20 | 0 | 21844
2 | 4:51.20 | 3:33.18 | 21845 | 37837
3 | 8:24.38 | 9:35.55 | 37838 | 81017
4 | 18:00.18 | 4:42.56 | 81018 | 102223
5 | 22:42.74 | 3:23.01 | 102224 | 117449
6 | 26:06.00 | 3:42.12 | 117450 | 134111
7 | 29:48.12 | 3:34.11 | 134112 | 150172
8 | 33:22.23 | 3:36.72 | 150173 | 166444
9 | 36:59.20 | 6:26.23 | 166445 | 195417
10 | 43:25.43 | 3:13.55 | 195418 | 209947
11 | 46:39.23 | 3:38.18 | 209948 | 226315
12 | 50:17.41 | 6:46.43 | 226316 | 256808
13 | 57:04.09 | 3:39.69 | 256809 | 273302
14 | 60:44.03 | 5:38.12 | 273303 | 298664
15 | 66:22.15 | 5:36.28 | 298665 | 323892
16 | 71:58.43 | 6:30.51 | 323893 | 353193


Range status and errors

Selected range

Filename D:\EAC\Scorpions - Box Of Scorpions (CD1).wav

Peak level 97.7 %
Range quality 100.0 %
Copy CRC 9A8BF841
Copy OK

No errors occurred

End of status report

foobar2000 1.2.9 / Dynamic Range Meter 1.1.1
log date: 2015-07-02 18:36:43

––––––––––––––––––––––––––––––––––––––––
Analyzed: Scorpions / Box Of Scorpions (CD1)
––––––––––––––––––––––––––––––––––––––––

DR Peak RMS Duration Track
––––––––––––––––––––––––––––––––––––––––
DR8 -0.20 dB -9.80 dB 4:51 01-I'm Going Mad
DR9 -0.20 dB -9.79 dB 3:33 02-Speedy's Coming
DR8 -0.20 dB -11.74 dB 9:36 03-Fly To The Rainbow
DR8 -0.20 dB -11.36 dB 4:43 04-In Trance
DR8 -0.31 dB -9.29 dB 3:23 05-Pictured Life
DR8 -0.20 dB -9.51 dB 3:42 06-Virgin Killer
DR8 -0.20 dB -8.44 dB 3:34 07-Catch Your Train
DR7 -2.13 dB -10.15 dB 3:37 08-Steamrock Fever
DR7 -0.20 dB -10.43 dB 6:26 09-We'll Burn The Sky
DR7 -0.20 dB -8.11 dB 3:14 10-He's A Woman, She's A Man
DR9 -0.20 dB -9.55 dB 3:38 11-Backstage Queen
DR8 -0.20 dB -9.93 dB 6:47 12-Top Of The Bill
DR8 -0.20 dB -9.41 dB 3:40 13-Dark Lady
DR9 -0.20 dB -10.54 dB 5:38 14-Robot Man
DR10 -0.20 dB -10.61 dB 5:36 15-Loving You Sunday Morning
DR12 -0.20 dB -17.35 dB 6:31 16-Holiday
––––––––––––––––––––––––––––––––––––––––

Number of tracks: 16
Official DR value: DR8

Samplerate: 44100 Hz
Channels: 2
Bits per sample: 16
Bitrate: 923 kbps
Codec: FLAC

[CUETools log; Date: 02.07.2015 18:20:16; Version: 2.1.4]
[CTDB TOCID: xfSvdD0goL0ovJ_.rvbuErsGOtk-] disk not present in database.
[AccurateRip ID: 002cfe2b-02184906-d0126510] disk not present in database.

Track Peak [ CRC32 ] [W/O NULL] [ LOG ]
– 97,7 [9A8BF841] [3CD89AD9] CRC32
01 97,7 [A6F2D40D] [82F71BC0]
02 97,7 [853F7A77] [01D320BB]
03 97,7 [C5980D2C] [D7E103B6]
04 97,7 [5E6815B8] [239ECEE1]
05 96,4 [0E3E6F0C] [35F11513]
06 97,6 [544852BA] [C0504272]
07 97,7 [AA946F6A] [6276F340]
08 78,2 [3677F2C3] [84E5746C]
09 97,7 [7E480D66] [E328DF0D]
10 97,7 [28024684] [A0B424D9]
11 97,7 [A125F077] [9F355EBB]
12 97,7 [F2A7065E] [ECD24FF2]
13 97,7 [EB0AE427] [37F1C6A9]
14 97,7 [77BE5C6E] [F89470E5]
15 97,7 [2167264D] [13F13ABE]
16 97,7 [7FD13EBE] [A0CF7AEF]

Scorpions - Box Of Scorpions (2004)

Tracklist CD2:

01. Coast To Coast (4:38)
02. Lovedrive (4:48)
03. Make It Real (3:49)
04. Don't Make No Promises (Your Body Can't Keep) (2:57)
05. Twentieth Century Man (3:00)
06. The Zoo (5:29)
07. Blackout (3:47)
08. Can't Live Without You (3:45)
09. No One Like You (3:57)
10. Dynamite (4:12)
11. Bad Boys Running Wild (3:54)
12. Rock You Like A Hurricane (4:12)
13. Coming Home (4:58)
14. Big City Nights (4:08)
15. Still Loving You (6:27)
16. Another Piece Of Meat (3:39)
17. Don't Stop At The Top (4:03)
18. Rhythm Of Love (3:48)
19. I Can't Explain (3:21)

Exact Audio Copy V0.99 prebeta 4 from 23. January 2008

EAC extraction logfile from 31. March 2009, 12:29

Scorpions / Box Of Scorpions (CD2)

Used drive : PIONEER DVD-RW DVR-216D Adapter: 2 ID: 1

Read mode : Secure
Utilize accurate stream : Yes
Defeat audio cache : Yes
Make use of C2 pointers : No

Read offset correction : 96
Overread into Lead-In and Lead-Out : No
Fill up missing offset samples with silence : Yes
Delete leading and trailing silent blocks : No
Null samples used in CRC calculations : Yes
Used interface : Installed external ASPI interface

Used output format : Internal WAV Routines
Sample format : 44.100 Hz; 16 Bit; Stereo


TOC of the extracted CD

Track | Start | Length | Start sector | End sector
––––––––––––––––––––––––––––-
1 | 0:00.00 | 4:38.08 | 0 | 20857
2 | 4:38.08 | 4:47.59 | 20858 | 42441
3 | 9:25.67 | 3:49.22 | 42442 | 59638
4 | 13:15.14 | 2:56.40 | 59639 | 72878
5 | 16:11.54 | 3:00.36 | 72879 | 86414
6 | 19:12.15 | 5:28.51 | 86415 | 111065
7 | 24:40.66 | 3:47.37 | 111066 | 128127
8 | 28:28.28 | 3:45.22 | 128128 | 145024
9 | 32:13.50 | 3:56.53 | 145025 | 162777
10 | 36:10.28 | 4:12.07 | 162778 | 181684
11 | 40:22.35 | 3:54.28 | 181685 | 199262
12 | 44:16.63 | 4:11.70 | 199263 | 218157
13 | 48:28.58 | 4:58.19 | 218158 | 240526
14 | 53:27.02 | 4:08.29 | 240527 | 259155
15 | 57:35.31 | 6:26.56 | 259156 | 288161
16 | 64:02.12 | 3:39.09 | 288162 | 304595
17 | 67:41.21 | 4:03.29 | 304596 | 322849
18 | 71:44.50 | 3:48.03 | 322850 | 339952
19 | 75:32.53 | 3:21.25 | 339953 | 355052


Range status and errors

Selected range

Filename D:\EAC\Scorpions - Box Of Scorpions (CD2).wav

Peak level 97.7 %
Range quality 100.0 %
Copy CRC 6DEF0267
Copy OK

No errors occurred

End of status report

foobar2000 1.2.9 / Dynamic Range Meter 1.1.1
log date: 2015-07-02 19:24:04

––––––––––––––––––––––––––––––––––––––––
Analyzed: Scorpions / Box Of Scorpions (CD2)
––––––––––––––––––––––––––––––––––––––––

DR Peak RMS Duration Track
––––––––––––––––––––––––––––––––––––––––
DR10 -0.20 dB -11.41 dB 4:38 01-Coast To Coast
DR8 -0.20 dB -9.55 dB 4:48 02-Lovedrive
DR9 -0.20 dB -10.65 dB 3:49 03-Make It Real
DR9 -0.20 dB -10.99 dB 2:57 04-Don't Make No Promises
DR9 -0.20 dB -9.91 dB 3:00 05-Twentieth Century Man
DR8 -0.20 dB -10.29 dB 5:29 06-The Zoo
DR11 -0.20 dB -11.88 dB 3:47 07-Blackout
DR10 -0.20 dB -10.83 dB 3:45 08-Can't Live Without You
DR11 -0.20 dB -12.19 dB 3:57 09-No One Like You
DR8 -0.20 dB -9.58 dB 4:12 10-Dynamite
DR10 -0.20 dB -10.61 dB 3:54 11-Bad Boys Running Wild
DR10 -0.20 dB -11.32 dB 4:12 12-Rock You Like A Hurricane
DR8 -0.20 dB -11.67 dB 4:58 13-Coming Home
DR10 -0.20 dB -11.16 dB 4:08 14-Big City Nights
DR8 -0.20 dB -11.23 dB 6:27 15-Still Loving You
DR8 -0.20 dB -9.70 dB 3:39 16-Another Piece Of Meat
DR8 -0.20 dB -9.60 dB 4:03 17-Don't Stop At The Top
DR10 -0.20 dB -12.10 dB 3:48 18-Rhythm Of Love
DR10 -0.20 dB -10.91 dB 3:21 19-I Can't Explain
––––––––––––––––––––––––––––––––––––––––

Number of tracks: 19
Official DR value: DR9

Samplerate: 44100 Hz
Channels: 2
Bits per sample: 16
Bitrate: 960 kbps
Codec: FLAC

[CUETools log; Date: 26.02.2015 0:03:50; Version: 2.1.4]
[CTDB TOCID: PZFzNBwtuVLcOzOMFz.3ItmVhR8-] found.
Track | CTDB Status
1 | (7/8) Accurately ripped
2 | (7/8) Accurately ripped
3 | (7/8) Accurately ripped
4 | (7/8) Accurately ripped
5 | (7/8) Accurately ripped
6 | (7/8) Accurately ripped
7 | (7/8) Accurately ripped
8 | (7/8) Accurately ripped
9 | (7/8) Differs in 9216 samples @00:05:34-00:05:41
10 | (7/8) Accurately ripped
11 | (7/8) Accurately ripped
12 | (7/8) Accurately ripped
13 | (7/8) Accurately ripped
14 | (7/8) Accurately ripped
15 | (7/8) Accurately ripped
16 | (7/8) Accurately ripped
17 | (7/8) Accurately ripped
18 | (7/8) Accurately ripped
19 | (7/8) Accurately ripped
[AccurateRip ID: 0035fec9-02f5da45-15127e13] found.
Track [ CRC | V2 ] Status
01 [46e7e672|4880fe7e] (00+00/28) No match
02 [88a3a9b9|191d8e19] (00+00/28) No match
03 [ca5235b9|fb51e53f] (00+00/27) No match
04 [a00d9144|c699c827] (00+00/28) No match
05 [6d6f125b|3ec40fb7] (00+00/28) No match
06 [2782a24c|8547b4bf] (00+00/28) No match
07 [27f5106b|ddf94ac9] (00+00/28) No match
08 [9831b0f4|4a353852] (00+00/28) No match
09 [30eb75b5|50d65283] (00+00/28) No match
10 [ce31eb6e|b74bcf46] (00+00/27) No match
11 [0c1fd202|3d5ae95f] (00+00/28) No match
12 [821e2754|cd0aa371] (00+00/28) No match
13 [059c5b01|315abd99] (00+00/28) No match
14 [9955e094|b17fb253] (00+00/28) No match
15 [94576aa1|95cebf26] (00+00/28) No match
16 [e24538f9|bc42f9ee] (00+00/27) No match
17 [8c103e6e|33922cf2] (00+00/28) No match
18 [72037c62|40fee5ec] (00+00/28) No match
19 [78315da1|0e00d3e4] (00+00/27) No match
Offsetted by -520:
01 [e5ac68da] (23/28) Accurately ripped
02 [7b0f7b35] (23/28) Accurately ripped
03 [0dc3f075] (22/27) Accurately ripped
04 [4ad7ef02] (23/28) Accurately ripped
05 [beebf27a] (23/28) Accurately ripped
06 [13fcb59f] (23/28) Accurately ripped
07 [1cefc475] (23/28) Accurately ripped
08 [e779159f] (23/28) Accurately ripped
09 [90e8e365] (00/28) No match (V2 was not tested)
10 [b40a5a01] (22/27) Accurately ripped
11 [a19e8012] (23/28) Accurately ripped
12 [9682c9ba] (23/28) Accurately ripped
13 [6ecc9cc4] (23/28) Accurately ripped
14 [25def61c] (23/28) Accurately ripped
15 [708ca999] (23/28) Accurately ripped
16 [1a95635f] (22/27) Accurately ripped
17 [83756d08] (23/28) Accurately ripped
18 [32206ffb] (23/28) Accurately ripped
19 [a15406ef] (22/27) Accurately ripped

Track Peak [ CRC32 ] [W/O NULL] [ LOG ]
– 97,7 [6DEF0267] [2311AAE4] CRC32
01 97,7 [C251F839] [10ABAAF7]
02 97,7 [909A75AA] [648B381A]
03 97,7 [E64889F7] [5E01ACA7]
04 97,7 [C9B2EF19] [39FAB567]
05 97,7 [87A07651] [582A7AFE]
06 97,7 [93A69A95] [47458A39]
07 97,7 [284976E6] [C330AD71]
08 97,7 [42724ED9] [12245C97]
09 97,7 [6CE06E97] [08E4BD78]
10 97,7 [BB4CB408] [66D32BC6]
11 97,7 [61A95485] [5DE43B20]
12 97,7 [71FED6E7] [D63D70B2]
13 97,7 [43B0623D] [23789729]
14 97,7 [9DCAE6C7] [4817D1E1]
15 97,7 [52459E85] [0CFC62CE]
16 97,7 [D39674E1] [10DA7374]
17 97,7 [FB84C398] [30795584]
18 97,7 [7D3ADFC8] [34F850EF]
19 97,7 [1C95734C] [223D5D42]

Scorpions - Box Of Scorpions (2004)

Tracklist CD3:

01. Tease Me, Please Me (4:43)
02. Believe In Love (5:23)
03. Don't Believe Her (4:54)
04. Wind Of Change (5:11)
05. Send Me An Angel (4:32)
06. Hit Between The Eyes (4:32)
07. Alien Nation (5:44)
08. Under The Same Sun (4:52)
09. Woman (5:55)
10. Over The Top (4:24)
11. Life Goes Around (3:41)
12. You And I (6:13)
13. Mysterious (5:28)
14. Hurricane 2000 (6:02)
15. Cause I Love You (3:45)
16. Bad For Good (4:04)

Exact Audio Copy V0.99 prebeta 4 from 23. January 2008

EAC extraction logfile from 31. March 2009, 14:24

Scorpions / Box Of Scorpions (CD3)

Used drive : PIONEER DVD-RW DVR-216D Adapter: 2 ID: 1

Read mode : Secure
Utilize accurate stream : Yes
Defeat audio cache : Yes
Make use of C2 pointers : No

Read offset correction : 96
Overread into Lead-In and Lead-Out : No
Fill up missing offset samples with silence : Yes
Delete leading and trailing silent blocks : No
Null samples used in CRC calculations : Yes
Used interface : Installed external ASPI interface

Used output format : Internal WAV Routines
Sample format : 44.100 Hz; 16 Bit; Stereo


TOC of the extracted CD

Track | Start | Length | Start sector | End sector
––––––––––––––––––––––––––––-
1 | 0:00.00 | 4:43.11 | 0 | 21235
2 | 4:43.11 | 5:23.19 | 21236 | 45479
3 | 10:06.30 | 4:54.19 | 45480 | 67548
4 | 15:00.49 | 5:11.32 | 67549 | 90905
5 | 20:12.06 | 4:32.15 | 90906 | 111320
6 | 24:44.21 | 4:32.08 | 111321 | 131728
7 | 29:16.29 | 5:43.40 | 131729 | 157493
8 | 34:59.69 | 4:52.14 | 157494 | 179407
9 | 39:52.08 | 5:55.23 | 179408 | 206055
10 | 45:47.31 | 4:24.16 | 206056 | 225871
11 | 50:11.47 | 3:41.28 | 225872 | 242474
12 | 53:53.00 | 6:13.37 | 242475 | 270486
13 | 60:06.37 | 5:28.25 | 270487 | 295111
14 | 65:34.62 | 6:01.73 | 295112 | 322259
15 | 71:36.60 | 3:44.62 | 322260 | 339121
16 | 75:21.47 | 4:04.21 | 339122 | 357442


Range status and errors

Selected range

Filename D:\EAC\Scorpions - Box Of Scorpions (CD3).wav

Peak level 97.7 %
Range quality 100.0 %
Copy CRC A448F992
Copy OK

No errors occurred

End of status report

foobar2000 1.2.9 / Dynamic Range Meter 1.1.1
log date: 2015-07-02 19:24:26

––––––––––––––––––––––––––––––––––––––––
Analyzed: Scorpions / Box Of Scorpions (CD3)
––––––––––––––––––––––––––––––––––––––––

DR Peak RMS Duration Track
––––––––––––––––––––––––––––––––––––––––
DR8 -0.20 dB -9.58 dB 4:43 01-Tease Me, Please Me
DR8 -0.20 dB -9.87 dB 5:23 02-Believe In Love
DR9 -0.20 dB -10.30 dB 4:54 03-Don't Believe Her
DR10 -0.20 dB -12.48 dB 5:11 04-Wind Of Change
DR9 -0.20 dB -11.27 dB 4:32 05-Send Me An Angel
DR10 -0.20 dB -11.01 dB 4:32 06-Hit Between The Eyes
DR7 -0.20 dB -8.79 dB 5:44 07-Alien Nation
DR7 -0.20 dB -9.23 dB 4:52 08-Under The Same Sun
DR8 -0.20 dB -10.67 dB 5:55 09-Woman
DR10 -0.20 dB -11.02 dB 4:24 10-Over The Top
DR11 -0.20 dB -11.76 dB 3:41 11-Life Goes Around
DR8 -0.34 dB -10.16 dB 6:13 12-You & I
DR7 -0.20 dB -9.30 dB 5:28 13-Mysterious
DR6 -0.49 dB -8.87 dB 6:02 14-Hurricane 2000
DR8 -0.20 dB -9.55 dB 3:45 15-Cause I Love You
DR8 -0.20 dB -9.79 dB 4:04 16-Bad For Good
––––––––––––––––––––––––––––––––––––––––

Number of tracks: 16
Official DR value: DR8

Samplerate: 44100 Hz
Channels: 2
Bits per sample: 16
Bitrate: 991 kbps
Codec: FLAC

[CUETools log; Date: 26.02.2015 0:04:25; Version: 2.1.4]
[CTDB TOCID: w2xfczQNtTRoBf6KmD5GfRwtGa4-] found.
Track | CTDB Status
1 | (8/8) Accurately ripped
2 | (8/8) Accurately ripped
3 | (8/8) Accurately ripped
4 | (8/8) Accurately ripped
5 | (8/8) Accurately ripped
6 | (8/8) Accurately ripped
7 | (8/8) Accurately ripped
8 | (8/8) Accurately ripped
9 | (8/8) Accurately ripped
10 | (3/8) Accurately ripped, or (5/8) differs in 12 samples @03:01:15
11 | (8/8) Accurately ripped
12 | (8/8) Accurately ripped
13 | (3/8) Accurately ripped, or (5/8) differs in 12 samples @04:53:22
14 | (8/8) Accurately ripped
15 | (8/8) Accurately ripped
16 | (8/8) Accurately ripped
[AccurateRip ID: 002ec08e-0231a302-e5129d10] found.
Track [ CRC | V2 ] Status
01 [6bcf312d|7ef4868a] (00+00/27) No match
02 [e3ead60e|499afcc4] (00+00/27) No match
03 [e7a64ce3|5a715439] (00+00/27) No match
04 [8853296a|d1416aa5] (00+00/26) No match
05 [0e38acd6|8e813bdb] (00+00/27) No match
06 [74eedfa1|99bc24a7] (00+00/28) No match
07 [ae32716f|5e2ae798] (00+00/28) No match
08 [f2985d1b|bf7b9e76] (00+00/27) No match
09 [77f51896|9fbe214a] (00+00/28) No match
10 [47a5c740|ecb9f3be] (00+00/28) No match
11 [683fdd30|ac84139e] (00+00/28) No match
12 [baba97a1|eae2f4a3] (00+00/28) No match
13 [f0e99ab0|c2c3997f] (00+00/28) No match
14 [0f25ed19|45a87e2c] (00+00/28) No match
15 [383fe975|2c5bfc79] (00+00/28) No match
16 [38bcb825|ced6e213] (00+00/27) No match
Offsetted by -1166:
01 [b0a86000] (09/27) Accurately ripped
02 [ec07a644] (09/27) Accurately ripped
03 [25007d0f] (09/27) Accurately ripped
04 [f765be68] (09/26) Accurately ripped
05 [2c3f7235] (09/27) Accurately ripped
06 [8b6eb82d] (09/28) Accurately ripped
07 [e3168197] (09/28) Accurately ripped
08 [d923ab44] (09/27) Accurately ripped
09 [d299f6e4] (09/28) Accurately ripped
10 [6da7c0cc] (00/28) No match (V2 was not tested)
11 [36d17633] (09/28) Accurately ripped
12 [8e5fe339] (09/28) Accurately ripped
13 [61490da2] (00/28) No match (V2 was not tested)
14 [c6203cbf] (09/28) Accurately ripped
15 [3315bb2d] (09/28) Accurately ripped
16 [3f17b543] (08/27) Accurately ripped
Offsetted by -520:
01 [a2a500f6] (13/27) Accurately ripped
02 [e4b55524] (13/27) Accurately ripped
03 [68296267] (13/27) Accurately ripped
04 [8269ac02] (12/26) Accurately ripped
05 [663883e0] (13/27) Accurately ripped
06 [8bcedd73] (14/28) Accurately ripped
07 [9e9fed79] (14/28) Accurately ripped
08 [ed81c895] (13/27) Accurately ripped
09 [24f1a91a] (14/28) Accurately ripped
10 [f9255f72] (00/28) No match (V2 was not tested)
11 [9e16c075] (14/28) Accurately ripped
12 [1a86fe5e] (14/28) Accurately ripped
13 [5cc714ec] (00/28) No match (V2 was not tested)
14 [aa3fbee8] (14/28) Accurately ripped
15 [1a69c70f] (14/28) Accurately ripped
16 [3e47f075] (14/27) Accurately ripped

Track Peak [ CRC32 ] [W/O NULL] [ LOG ]
– 97,7 [A448F992] [BCC95B57] CRC32
01 97,7 [26BF9E9F] [88F45408]
02 97,7 [5008CB78] [E82B17ED]
03 97,7 [D55E9756] [762C47ED]
04 97,7 [B0F377FC] [71EB9762]
05 97,7 [46901AD2] [F0482540]
06 97,7 [7B3E4840] [D33DFE10]
07 97,7 [0E27E85E] [E2037BF8]
08 97,7 [451D549F] [6A79E349]
09 97,7 [04E0ECFE] [E0BFD53A]
10 97,7 [F2E70115] [74FB9DCE]
11 97,7 [939CB396] [F014DEED]
12 96,1 [D0301F54] [3D876126]
13 97,7 [155B6E32] [E3235E88]
14 94,5 [F82BC784] [A1D22E58]
15 97,7 [47A46E4E] [E29D2A86]
16 97,7 [922E1168] [4013F628]

Scorpions - Box Of Scorpions (2004)

All thanks go to the original releaser

Scorpions in my Blog

Download Scorpions - Box Of Scorpions (2004):