Tags
Language
Tags

Shakira - Shakira (2014) [Japanese Edition] Re-Up

Posted By: Designol
Shakira - Shakira (2014) [Japanese Edition] Re-Up

Shakira - Shakira (2014) [Japanese Edition]
EAC | FLAC | Image (Cue&Log) ~ 384 Mb | Mp3 (CBR320) ~ 127 Mb | Scans ~ 139 Mb
Pop, Dance Pop, Latin Pop | Label: RCA/Sony Music | # SICP 4098 | Time: 00:55:18

Like many eponymous albums, Shakira's self-titled 2014 set marks a new beginning: a new album for a new label after she got a new job. The new job was as a co-host on the hit American televised musical contest The Voice, the new label was RCA, and the new album was her first full-fledged pop album since She Wolf, the rather brilliant, hard electronic dance record that stiffed in 2009. She bounced back in 2010 with Sale el Sol, but that album wasn't made with the U.S. market in mind, something that certainly can't be said of Shakira. Opening up with a duet with Rihanna, and later finding space for her Voice co-host Blake Shelton, Shakira is determined to appeal to all audiences here: don't like the relentless dance of "Dare (La La La)"? Stick around for the reggae collaboration with Magic! on "Cut Me Deep," or maybe the appealing faux-folk of "23" or the full-bore adult-pop assault of "The One Thing," which may be the best cut here. Unlike Oral Fixation, which spilled over with so much ambition it couldn't be contained on a single disc, this is concentrated: every track has its purpose; none has excess. That doesn't necessarily mean that every cut is cohesive but Shakira is the rare pop star who can pull an album together through sheer force of personality. Whatever the setting, she not only sounds comfortable, she sounds powerful, and that goes a long way toward making Shakira a nice state-of-the-art pop album for America and the rest of the world.

Review by Stephen Thomas Erlewine, Allmusic.com

Shakira - Shakira (2014) [Japanese Edition] Re-Up



Tracklist:

01. Can't Remember To Forget You [feat. Rihanna] (03:26)
02. Empire (03:59)
03. You Don`t Care About Me (03:41)
04. Dare (La La La) (03:06)
05. Cut Me Deep [feat. Magic!] (03:15)
06. 23 (03:59)
07. The One Thing (03:12)
08. Medicine [feat. Blake Shelton] (03:18)
09. Spotlight (03:23)
10. Broken Record (03:14)
11. Nunca Me Acuerdo De Olvidarte (03:26)
12. Loca Por Ti (03:41)
13. La La La Feat.carlinhos Brown (Brazil 2014) (03:17)
14. Chasing Shadows (03:31)
15. That Way (03:09)
16. Can't Remember To Forget You (Tokyo Ska Paradise Orchestra Remix) [feat. Rihanna] (03:34)


Exact Audio Copy V1.0 beta 3 from 29. August 2011

Отчёт EAC об извлечении, выполненном 2. октября 2014, 20:40

Shakira / Shakira (Japan)

Дисковод: TSSTcorpCDDVDW TS-L632H Adapter: 1 ID: 0

Режим чтения : Достоверность
Использование точного потока : Да
Отключение кэша аудио : Да
Использование указателей C2 : Нет

Коррекция смещения при чтении : 6
Способность читать области Lead-in и Lead-out : Нет
Заполнение пропущенных сэмплов тишиной : Да
Удаление блоков с тишиной в начале и конце : Нет
При вычислениях CRC использовались нулевые сэмплы : Да
Интерфейс : Встроенный Win32-интерфейс для Win NT/2000

Выходной формат : Пользовательский кодировщик
Выбранный битрейт : 128 kBit/s
Качество : Высокий
Добавление ID3-тега : Нет
Утилита сжатия : C:\Program Files\Exact Audio Copy\Flac\flac.exe
Дополнительные параметры : -V -8 -T "Date=%year%" -T "Genre=%genre%" %source%


TOC извлечённого CD

Трек | Старт | Длительность | Начальный сектор | Конечный сектор
––––––––––––––––––––––––––––––––––-
1 | 0:00.00 | 3:26.65 | 0 | 15514
2 | 3:26.65 | 3:59.25 | 15515 | 33464
3 | 7:26.15 | 3:41.40 | 33465 | 50079
4 | 11:07.55 | 3:06.38 | 50080 | 64067
5 | 14:14.18 | 3:15.60 | 64068 | 78752
6 | 17:30.03 | 3:59.59 | 78753 | 96736
7 | 21:29.62 | 3:12.01 | 96737 | 111137
8 | 24:41.63 | 3:18.08 | 111138 | 125995
9 | 27:59.71 | 3:23.20 | 125996 | 141240
10 | 31:23.16 | 3:14.33 | 141241 | 155823
11 | 34:37.49 | 3:26.42 | 155824 | 171315
12 | 38:04.16 | 3:41.51 | 171316 | 187941
13 | 41:45.67 | 3:17.37 | 187942 | 202753
14 | 45:03.29 | 3:31.30 | 202754 | 218608
15 | 48:34.59 | 3:09.09 | 218609 | 232792
16 | 51:43.68 | 3:34.29 | 232793 | 248871


Характеристики диапазона извлечения и сообщения об ошибках

Выбранный диапазон

Имя файла C:\My Rips\Shakira - Shakira (Japan)\Shakira - Shakira (Japan).wav

Пиковый уровень 100.0 %
Скорость извлечения 4.1 X
Качество диапазона 100.0 %
CRC теста 42C8A300
CRC копии 42C8A300
Копирование… OK

Ошибок не произошло


AccurateRip: сводка

Трек 1 отсутствует в базе данных
Трек 2 отсутствует в базе данных
Трек 3 отсутствует в базе данных
Трек 4 отсутствует в базе данных
Трек 5 отсутствует в базе данных
Трек 6 отсутствует в базе данных
Трек 7 отсутствует в базе данных
Трек 8 отсутствует в базе данных
Трек 9 отсутствует в базе данных
Трек 10 отсутствует в базе данных
Трек 11 отсутствует в базе данных
Трек 12 отсутствует в базе данных
Трек 13 отсутствует в базе данных
Трек 14 отсутствует в базе данных
Трек 15 отсутствует в базе данных
Трек 16 отсутствует в базе данных

Ни одного трека нет в базе AccurateRip

Конец отчёта

==== Контрольная сумма отчёта 892D8FCC3FE9EAE223334C14CED08C0C7B91D037B9D004D75ED5530959DF132B ====

foobar2000 1.2 / Dynamic Range Meter 1.1.1
log date: 2015-02-05 00:40:48

––––––––––––––––––––––––––––––––––––––––
Analyzed: Shakira / Shakira (Japan)
––––––––––––––––––––––––––––––––––––––––

DR Peak RMS Duration Track
––––––––––––––––––––––––––––––––––––––––
DR4 -0.35 dB -6.87 dB 3:27 01-Can't Remember To Forget You [feat. Rihanna]
DR5 0.00 dB -7.76 dB 3:59 02-Empire
DR6 -0.22 dB -7.96 dB 3:42 03-You Don`t Care About Me
DR6 0.00 dB -7.55 dB 3:07 04-Dare (La La La)
DR5 -0.18 dB -6.98 dB 3:16 05-Cut Me Deep [feat. Magic!]
DR6 0.00 dB -8.88 dB 4:00 06-23
DR6 -0.08 dB -7.83 dB 3:12 07-The One Thing
DR5 0.00 dB -6.73 dB 3:18 08-Medicine [feat. Blake Shelton]
DR6 -0.06 dB -7.21 dB 3:23 09-Spotlight
DR5 0.00 dB -7.63 dB 3:14 10-Broken Record
DR4 -0.20 dB -6.70 dB 3:27 11-Nunca Me Acuerdo De Olvidarte
DR5 0.00 dB -6.46 dB 3:42 12-Loca Por Ti
DR6 0.00 dB -7.30 dB 3:17 13-La La La Feat.carlinhos Brown (Brazil 2014)
DR6 0.00 dB -8.40 dB 3:31 14-Chasing Shadows
DR10 0.00 dB -12.59 dB 3:09 15-That Way
DR5 -0.30 dB -6.55 dB 3:34 16-Can't Remember To Forget You (Tokyo Ska Paradise Orchestra Remix) [feat. Riha…
––––––––––––––––––––––––––––––––––––––––

Number of tracks: 16
Official DR value: DR6

Samplerate: 44100 Hz
Channels: 2
Bits per sample: 16
Bitrate: 969 kbps
Codec: FLAC
================================================================================

Shakira - Shakira (2014) [Japanese Edition] Re-Up

Shakira - Shakira (2014) [Japanese Edition] Re-Up

All thanks to original releaser - serg-82

More interesting music in My Blog