Tags
Language
Tags
February 2024
Su Mo Tu We Th Fr Sa
28 29 30 31 1 2 3
4 5 6 7 8 9 10
11 12 13 14 15 16 17
18 19 20 21 22 23 24
25 26 27 28 29 1 2
Attention❗ To save your time, in order to download anything on this site, you must be registered 👉 HERE. If you do not have a registration yet, it is better to do it right away. ✌

( • )( • ) ( ͡⚆ ͜ʖ ͡⚆ ) (‿ˠ‿)
SpicyMags.xyz

Shinedown - Threat To Survival (2015) {Japan 1st Press}

Posted By: popsakov
Shinedown - Threat To Survival (2015) {Japan 1st Press}

Shinedown - Threat To Survival (2015) {Japan 1st Press}
EAC Rip | FLAC (Img) + Cue + Log ~ 354 Mb | MP3 CBR320 ~ 116 Mb
Full Scans ~ 74 Mb | 00:47:57 | RAR 5% Recovery
Post-Grunge, Hard Rock, Alternative Rock | Atlantic #WPCR-16860

Multi-platinum band Shinedown unveils first new album in three years. This will be the 5th studio album for Shinedown, produced by the bands own Eric Bass. LP5 includes the #1 rock radio smash; “Cut The Cord”. Album is set to arrive everywhere September 18th.

The fifth studio long-player from the Jacksonville, Florida-based hard rock unit, Threat to Survival is also Shinedown's most pop-oriented set of songs to date. Front-loaded with two of its hardest-hitting (and classic-sounding) cuts in "Asking for It" and the hefty first single "Cut the Cord," both of which are as hook-laden as they are bruising, Threat to Survival begins to detour from the post-grunge highway with "State of My Head," a slick amalgam of electro-pop and vintage alt-rock with a catchy as hell though extremely well-worn chorus. Meticulously crafted radio fodder like "How Did You Love," "Thick as Thieves," and the Killers-lite "Misfits" follow suit, further distancing the group from its nu-metal origins, but the band hasn't completely lost its knack for crafting punishing blasts of groove-laden and distortion-heavy modern rock. The roaring "Oblivion" sees vocalist Brent Smith doing his best Layne Staley impression while the band lets loose a firestorm of heavily compressed decibels behind him, and late album highlight "Black Cadillac," which somehow manages to both brutalize and swing, seems destined to become a fan favorite. If anything, Threat to Survival proves that Shinedown still have plenty of gas left in the tank, and while the occasional foray into the shallower end of the mainstream may divide some listeners, there's enough here to keep longtime followers satiated (and probably a little curious/nervous as to what the future holds) until the next ride.

~ James Christopher Monger, All Music

***************

Shinedown - Threat To Survival (2015) {Japan 1st Press}

Track List:

01. Asking For It [03:31]
02. Cut The Cord [03:43]
03. State Of My Head [03:26]
04. Outcast [03:26]
05. How Did You Love [03:08]
06. It All Adds Up [03:52]
07. Oblivion [03:58]
08. Dangerous [03:52]
09. Thick As Thieves [03:55]
10. Black Cadillac [03:28]
11. Misfits [04:06]
Bonus Tracks
12. Never Gonna Let Go [04:07]
13. Reject [03:31]

Exact Audio Copy V1.0 beta 6 from 9. April 2015

Отчёт EAC об извлечении, выполненном 5. октября 2015, 21:22

Shinedown / Threat To Survival

Дисковод: SlimtypeDVD A DS8A9SH Adapter: 1 ID: 0

Режим чтения : Достоверность
Использование точного потока : Да
Отключение кэша аудио : Да
Использование указателей C2 : Нет

Коррекция смещения при чтении : 6
Способность читать области Lead-in и Lead-out : Нет
Заполнение пропущенных сэмплов тишиной : Да
Удаление блоков с тишиной в начале и конце : Нет
При вычислениях CRC использовались нулевые сэмплы : Да
Интерфейс : Встроенный Win32-интерфейс для Win NT/2000

Выходной формат : Пользовательский кодировщик
Выбранный битрейт : 128 kBit/s
Качество : Высокий
Добавление ID3-тега : Нет
Утилита сжатия : D:\Programm Files\FLAC\FLAC.EXE
Дополнительные параметры : -V -8 -T "Date=%year%" -T "Genre=%genre%" %source%


TOC извлечённого CD

Трек | Старт | Длительность | Начальный сектор | Конечный сектор
––––––––––––––––––––––––––––––––––-
1 | 0:00.00 | 3:30.53 | 0 | 15802
2 | 3:30.53 | 3:42.09 | 15803 | 32461
3 | 7:12.62 | 3:25.49 | 32462 | 47885
4 | 10:38.36 | 3:25.46 | 47886 | 63306
5 | 14:04.07 | 3:07.47 | 63307 | 77378
6 | 17:11.54 | 3:51.21 | 77379 | 94724
7 | 21:03.00 | 3:57.49 | 94725 | 112548
8 | 25:00.49 | 3:51.53 | 112549 | 129926
9 | 28:52.27 | 3:54.11 | 129927 | 147487
10 | 32:46.38 | 3:27.72 | 147488 | 163084
11 | 36:14.35 | 4:05.46 | 163085 | 181505
12 | 40:20.06 | 4:06.32 | 181506 | 199987
13 | 44:26.38 | 3:30.19 | 199988 | 215756


Характеристики диапазона извлечения и сообщения об ошибках

Выбранный диапазон

Имя файла D:\My Rips\Audio\Shinedown - Threat To Survival\Shinedown - Threat To Survival.wav

Пиковый уровень 100.0 %
Скорость извлечения 4.2 X
Качество диапазона 99.9 %
CRC теста 95CFF482
CRC копии 95CFF482
Копирование… OK

Ошибок не произошло


AccurateRip: сводка

Трек 1 отсутствует в базе данных
Трек 2 отсутствует в базе данных
Трек 3 отсутствует в базе данных
Трек 4 отсутствует в базе данных
Трек 5 отсутствует в базе данных
Трек 6 отсутствует в базе данных
Трек 7 отсутствует в базе данных
Трек 8 отсутствует в базе данных
Трек 9 отсутствует в базе данных
Трек 10 отсутствует в базе данных
Трек 11 отсутствует в базе данных
Трек 12 отсутствует в базе данных
Трек 13 отсутствует в базе данных

Ни одного трека нет в базе AccurateRip

Конец отчёта

==== Контрольная сумма отчёта 32A86C123B642AC4808805E9AC544834C91EBF3F725C0D8D3B4452C6C0463E02 ====

Shinedown - Threat To Survival (2015) {Japan 1st Press}


All thanks go to serg-82

>>> My Blog <<<

DOWNLOAD: