Tags
Language
Tags

Shriekback - Oil And Gold (1985)

Posted By: Designol
Shriekback - Oil And Gold (1985)

Shriekback - Oil And Gold (1985)
EAC | FLAC | Image (Cue&Log) ~ 245 Mb | Mp3 (CBR320) ~ 111 Mb | Scans included
Label: Island Records | # 422-842 882-2 | Time: 00:44:15
New Wave, Dance-Rock, Post-Punk, Alternative Pop/Rock

Oil and Gold is surprising for several reasons. For one, the departure of singer/guitarist Carl Marsh midway through produced no noticeable dip in the record's quality. For another, live drums appear for the first time on a Shriekback album, thanks to Martyn Barker, a longtime associate who was added to the band at the tail end of the Jam Science sessions. Most surprising, though, is how much this album rocks out, particularly on the songs featuring ex-Damned guitarist Lu Edmonds. It even yielded an out of left field hit single in "Nemesis," which not only uses the word "parthenogenesis," but rhymes it successfully, and does so in the chorus. In truth, Oil and Gold is six-tenths of a great album. It leads off with the rip-roaring one-two-three punch of "Malaria," "Everything That Rises Must Converge," and "Fish Below the Ice," all featuring Marsh on vocals. These are followed by "This Big Hush" and "Faded Flowers," two tremendously beautiful slow numbers sung by Barry Andrews, who took over for Marsh as lead vocalist. The B side (vinylly speaking) begins nicely with "Nemesis" and quickly falls apart, with the nadir being the clunkers "Health and Knowledge and Wealth and Power" (sung by Marsh) and "Hammerheads" (sung by Andrews). Still, Oil and Gold's highlights make it a rewarding listen.

Review by Bill Cassel, Allmusic.com

Shriekback - Oil And Gold (1985)



Tracklist:

01. Malaria (4:29)
02. Everything That Rises Must Converge (4:04)
03. Fish Below The Ice (4:24)
04. This Big Hush (6:11)
05. Faded Flowers (3:44)
06. Nemesis (3:43)
07. Only Thing That Shines (4:23)
08. Health And Knowledge And Wealth And Power (4:45)
09. Hammerheads (4:17)
10. Coelocanth (4:14)


Exact Audio Copy V0.99 prebeta 3 from 28. July 2007

Отчёт EAC об извлечении, выполненном 8. августа 2008, 16:48

Shriekback / Oil And Gold

Дисковод: _NEC DVD_RW ND-4571A Adapter: 1 ID: 1

Режим чтения : Достоверность
Использование точного потока : Да
Отключение кэша аудио : Да
Использование указателей C2 : Нет

Коррекция смещения при чтении : 48
Способность читать области Lead-in и Lead-out : Нет
Заполнение пропущенных сэмплов тишиной : Да
Удаление блоков с тишиной в начале и конце : Нет
При вычислениях CRC использовались нулевые сэмплы : Нет
Интерфейс : Установленный внешний ASPI-интерфейс

Выходной формат : Внутренние WAV-операции
Формат сэмплов : 44.100 Гц; 16 бит; стерео


TOC извлечённого CD

Трек | Старт | Длительность | Начальный сектор | Конечный сектор
––––––––––––––––––––––––––––––––––-
1 | 0:00.32 | 4:29.13 | 32 | 20219
2 | 4:29.45 | 4:03.67 | 20220 | 38511
3 | 8:33.37 | 4:24.23 | 38512 | 58334
4 | 12:57.60 | 6:11.10 | 58335 | 86169
5 | 19:08.70 | 3:44.37 | 86170 | 103006
6 | 22:53.32 | 3:43.10 | 103007 | 119741
7 | 26:36.42 | 4:23.35 | 119742 | 139501
8 | 31:00.02 | 4:44.60 | 139502 | 160861
9 | 35:44.62 | 4:17.08 | 160862 | 180144
10 | 40:01.70 | 4:13.50 | 180145 | 199169


Характеристики диапазона извлечения и сообщения об ошибках

Выбранный диапазон

Имя файла C:\Documents and Settings\Администратор\Мои документы\Моя музыка\Shriekback - Oil And Gold\Shriekback - Oil And Gold.wav

Пиковый уровень 98.3 %
Качество диапазона 100.0 %
CRC копии C595BECF
Копирование… OK

Ошибок не произошло


AccurateRip: сводка

Трек 1 точное извлечение (доверие 5) [8C2DA705]
Трек 2 точное извлечение (доверие 5) [2FD4CA71]
Трек 3 точное извлечение (доверие 5) [93DC1409]
Трек 4 точное извлечение (доверие 5) [9E1DEA9D]
Трек 5 точное извлечение (доверие 5) [F1FB94C7]
Трек 6 точное извлечение (доверие 5) [E700412A]
Трек 7 точное извлечение (доверие 5) [BC95D5B2]
Трек 8 точное извлечение (доверие 5) [D706E5D4]
Трек 9 точное извлечение (доверие 5) [2F10A629]
Трек 10 точное извлечение (доверие 5) [213CE62C]

Все треки извлечены точно

Конец отчёта

[CUETools log; Date: 21.11.2018 0:18:22; Version: 2.1.4]
Pregap length 00:00:32.
[CTDB TOCID: QuukouJBGWXzcbnwkVcHtL3xRxQ-] found.
Track | CTDB Status
1 | (32/33) Accurately ripped
2 | (32/33) Accurately ripped
3 | (32/33) Accurately ripped
4 | (33/33) Accurately ripped
5 | (33/33) Accurately ripped
6 | (33/33) Accurately ripped
7 | (33/33) Accurately ripped
8 | (33/33) Accurately ripped
9 | (33/33) Accurately ripped
10 | (32/33) Accurately ripped
[AccurateRip ID: 0010df21-0086c610-830a5f0a] found.
Track [ CRC | V2 ] Status
01 [8c2da705|b6faeeb6] (10+06/75) Accurately ripped
02 [2fd4ca71|5d97f65b] (10+06/76) Accurately ripped
03 [93dc1409|7bd3b5b2] (10+06/75) Accurately ripped
04 [9e1dea9d|062c06a8] (10+06/76) Accurately ripped
05 [f1fb94c7|082b64fa] (10+06/75) Accurately ripped
06 [e700412a|ca5df949] (10+06/76) Accurately ripped
07 [bc95d5b2|79d0a688] (10+06/75) Accurately ripped
08 [d706e5d4|bf25ca00] (10+06/74) Accurately ripped
09 [2f10a629|f768fcce] (10+06/74) Accurately ripped
10 [213ce62c|793060a2] (10+06/74) Accurately ripped
Offsetted by -2440:
01 [396bb6b9] (10/75) Accurately ripped
02 [64c69031] (10/76) Accurately ripped
03 [2fe93c01] (09/75) Accurately ripped
04 [a4b9a74f] (09/76) Accurately ripped
05 [30024019] (09/75) Accurately ripped
06 [a9e5102e] (08/76) Accurately ripped
07 [567d4d2b] (09/75) Accurately ripped
08 [7e34574c] (09/74) Accurately ripped
09 [9f8013e8] (09/74) Accurately ripped
10 [5da9cbd7] (09/74) Accurately ripped
Offsetted by -1378:
01 [f818db0b] (15/75) Accurately ripped
02 [0b91410f] (16/76) Accurately ripped
03 [11e6b326] (16/75) Accurately ripped
04 [fff08c2a] (17/76) Accurately ripped
05 [fb24084d] (16/75) Accurately ripped
06 [9a3333a0] (17/76) Accurately ripped
07 [50bf974f] (16/75) Accurately ripped
08 [8d8e6d93] (16/74) Accurately ripped
09 [790bec19] (16/74) Accurately ripped
10 [af4f4281] (15/74) Accurately ripped
Offsetted by -1120:
01 [8231a036] (02/75) Accurately ripped
02 [ab5e03b9] (02/76) Accurately ripped
03 [c883f0ca] (02/75) Accurately ripped
04 [b928e5ce] (02/76) Accurately ripped
05 [3f4c131e] (02/75) Accurately ripped
06 [eb542560] (02/76) Accurately ripped
07 [276d2f4c] (02/75) Accurately ripped
08 [a5d2fda8] (02/74) Accurately ripped
09 [afe0efbb] (02/74) Accurately ripped
10 [9a386381] (02/74) Accurately ripped
Offsetted by -86:
01 [4d60181c] (04/75) Accurately ripped
02 [dfb71a27] (04/76) Accurately ripped
03 [8a09f927] (04/75) Accurately ripped
04 [1bdb0e84] (04/76) Accurately ripped
05 [9f3fd451] (04/75) Accurately ripped
06 [45325b84] (04/76) Accurately ripped
07 [4f91edb3] (04/75) Accurately ripped
08 [6c60972c] (04/74) Accurately ripped
09 [523e6f54] (04/74) Accurately ripped
10 [e132d905] (04/74) Accurately ripped

Track Peak [ CRC32 ] [W/O NULL] [ LOG ]
– 98,3 [05DC5F34] [C595BECF] W/O NULL
01 81,1 [388250A4] [C459BEFE]
02 90,1 [DB9BB76F] [06CBF0BB]
03 98,3 [65461D04] [6FD32139]
04 61,4 [AEFB834A] [A1268CBB]
05 45,7 [9289E903] [F05E8B9C]
06 93,9 [E6914E96] [7F698AF1]
07 58,1 [BBD69892] [30209D25]
08 87,7 [84349887] [085E51FD]
09 88,5 [325544AA] [FF2AD735]
10 47,1 [0E10BCE5] [BA54E6E4]

foobar2000 1.2 / Dynamic Range Meter 1.1.1
log date: 2018-11-21 00:41:51

––––––––––––––––––––––––––––––––––––––––
Analyzed: Shriekback / Oil And Gold
––––––––––––––––––––––––––––––––––––––––

DR Peak RMS Duration Track
––––––––––––––––––––––––––––––––––––––––
DR13 -1.81 dB -15.73 dB 4:29 01-Malaria
DR12 -0.90 dB -15.26 dB 4:04 02-Everything That Rises Must Converge
DR13 -0.14 dB -15.64 dB 4:24 03-Fish Below The Ice
DR12 -4.23 dB -19.53 dB 6:11 04-This Big Hush
DR13 -6.79 dB -23.50 dB 3:44 05-Faded Flowers
DR12 -0.54 dB -14.64 dB 3:43 06-Nemesis
DR12 -4.71 dB -19.79 dB 4:23 07-Only Thing That Shines
DR13 -1.13 dB -16.15 dB 4:45 08-Health And Knowledge And Wealth And Power
DR14 -1.06 dB -17.67 dB 4:17 09-Hammerheads
DR12 -6.54 dB -21.59 dB 4:14 10-Coelocanth
––––––––––––––––––––––––––––––––––––––––

Number of tracks: 10
Official DR value: DR12

Samplerate: 44100 Hz
Channels: 2
Bits per sample: 16
Bitrate: 744 kbps
Codec: FLAC
================================================================================

Shriekback - Oil And Gold (1985)

Shriekback - Oil And Gold (1985)