Tags
Language
Tags

Skydog: The Duane Allman Retrospective (2013) [7CD Box Set]

Posted By: v3122
Skydog: The Duane Allman Retrospective (2013) [7CD Box Set]

Skydog: The Duane Allman Retrospective (2013)
EAC | Flac(Image) + Cue + Log & MP3 CBR 320Kbps
~ 3596 or 1572 Mb | Box Art(png) -> 838 Mb
7CD | Rounder Records/Rhino Records/Universal Music, 11661-9137-2
Blues / Blues Rock / Southern Rock / Jazz / Soul

It's difficult to call a guitarist who routinely shows up in the upper reaches of "100 Greatest Guitarists Ever" lists underappreciated, and yet the first impression the towering seven-disc box set Skydog: The Duane Allman Retrospective makes is that Duane Allman does not receive his proper due. Sure, the Allman Brothers Band are one of the staples of classic rock, a band that carved out the blues-drenched sound of Southern rock while also establishing a template for jam bands to come, and Duane's contributions were crucial in making Layla & Other Assorted Love Songs Eric Clapton's finest moment, and that would be enough for a substantial legacy even if Allman hadn't died in a tragic motorcycle accident at the age of 24, but that was only part of the story. The rest is told on Skydog, a box set that has its origins on a collection Bill Levenson began in the early '90s, just after he compiled the four-disc Allman Brothers Band box, Dreams, in 1989, which didn't see fruition until 2013, after years of work by the renowned rock & roll archivist and Galadrielle Allman, Duane's daughter. Both had their reasons for delivering a testament to everything Duane Allman achieved in his short life, and that dedication pays off wildly on Skydog, as great a box set as has ever been released.

Much of the greatness in Skydog lies in its thoroughness, how it treats Allman's work outside of the Allman Brothers Band not as a digression but rather a focus. The Allman Brothers Band account for just 21 of the 129 songs here, not popping up until toward the end of disc three, by which time Duane has been heard playing gangly R&B guitar in his teenage R&B band the Escorts, expertly mimicking the Yardbirds in the Allman Joys, marrying psychedelia and blues in the Hour Glass, essaying an early version of "Melissa" in the 31st of February, and, especially, making himself heard on sessions for Clarence Carter, Wilson Pickett, Laura Lee, King Curtis, and Arthur Conley recorded down in Muscle Shoals, Alabama (sessions with Aretha Franklin were cut up in New York). He'd also traded solos with Otis Rush and blazed a trail on Boz Scaggs' eponymous 1969 LP, sessions that emphasized how his guitar was getting increasingly gutsy and gritty, characteristics that could be heard on the Allman Brothers Band's 1969 debut. Positioned as it is here, the first Allmans album is not the start of something, but rather a pivotal point in a long journey that continued to unfold long afterward. On-stage, the Allmans improvised with imaginative ferocity, and the back half of Skydog showcases a restless, fearless musician, one who was eager to tangle with his idol Eric Clapton in Derek & the Dominos, rush on-stage with the Grateful Dead, guest with Delaney & Bonnie, and sit in with jazz flautist Herbie Mann. By the end of the set, Duane Allman seems to have had his hand in every kind of music being made in America at the turn of the '60s, and the depth and scope of his achievement is staggering, especially when you consider that so much of this was recorded in a mere four years. While the records released by the Allman Brothers Band do hint at this range, Skydog tells a story unheard on any other Allman-related albums, including the excellent 1989 box Dreams. This is an epic narrative illustrating how soul, blues, country, psychedelia, jazz, and garage rock melded into modern rock & roll and, in turn, this is a biography of a musician who was instrumental in that evolution, a guitarist whose name is well-known but whose work is still not thoroughly appreciated. Skydog rights that wrong in glorious fashion.

by Stephen Thomas Erlewine


Skydog: The Duane Allman Retrospective (2013) [7CD Box Set]

Duane Allman Biography

Duane Allman went from musical unknown to one of rock's most revered guitar virtuosos, only to die a legend, all in about 24 months. He barely had time to establish his legacy, much less his name – two finished studio albums with his band, a live album, and lots of shows with them (some of which, off radio, are starting to surface on bootlegs), and session work in which he played behind other artists, along with songs off of a busted solo album project. The bulk of his reputation and legacy rests, understandably, with the Allman Brothers Band, but there were enough outside projects to justify a pair of anthology collections. Either one is the place to start musically, with the first set also containing a wonderful extended essay on his life and career, but serious fans will obviously want the entire albums from which a lot of those tracks, even the session work, were pulled.

by Bruce Eder
Skydog: The Duane Allman Retrospective (2013):

Skydog: The Duane Allman Retrospective (2013) [7CD Box Set]

Tracklist CD1 (1965-1968):

01. The Escorts: Turn On Your Love Light 02:33
02. The Escorts: No Name Instrumental 03:13
03. The Escorts: What'd I Say 04:04
04. The Allman Joys: Spoonful 02:27
05. The Allman Joys: Gotta Get Away 02:38
06. The Allman Joys: Shapes Of Things 02:47
07. The Allman Joys: Crossroads 03:32
08. The Allman Joys: Mister, You're A Better Man Than I 04:45
09. The Allman Joys: Lost Woman 05:23
10. The Hour Glass: Cast Off All My Fears 03:31
11. The Hour Glass: I’ve Been Trying 02:39
12. The Hour Glass: Nothing But Tears 02:29
13. The Hour Glass: Power Of Love 02:51
14. The Hour Glass: Down In Texas 03:08
15. The Hour Glass: Norwegian Wood (This Bird Has Flown) 03:01
16. The Hour Glass: B.B. King Medley: 07:07
a) Sweet Little Angel
b) It’s My Own Fault
c) How Blue Can You Get?
17. The Hour Glass: Been Gone Too Long 03:03
18. The Hour Glass: Ain’t No Good To Cry 03:08
19. 31st Of February: Morning Dew 03:46
20. 31st Of February: Melissa 03:12
21. The Bleus: Milk Aand Honey 02:34
22. The Bleus: Leavin' Lisa 02:43
23. The Bleus: Julianna's Gone 02:59

Exact Audio Copy V1.0 beta 3 from 29. August 2011

EAC extraction logfile from 24. March 2013, 21:01

Duane Allman / Skydog: The Duane Allman Retrospective 1

Used drive : PLEXTOR BD-R PX-B950SA Adapter: 6 ID: 0

Read mode : Secure
Utilize accurate stream : Yes
Defeat audio cache : Yes
Make use of C2 pointers : No

Read offset correction : 6
Overread into Lead-In and Lead-Out : No
Fill up missing offset samples with silence : Yes
Delete leading and trailing silent blocks : No
Null samples used in CRC calculations : Yes
Used interface : Native Win32 interface for Win NT & 2000

Used output format : Internal WAV Routines
Sample format : 44.100 Hz; 16 Bit; Stereo


TOC of the extracted CD

Track | Start | Length | Start sector | End sector
––––––––––––––––––––––––––––-
1 | 0:00.00 | 2:33.44 | 0 | 11518
2 | 2:33.44 | 3:13.21 | 11519 | 26014
3 | 5:46.65 | 4:04.51 | 26015 | 44365
4 | 9:51.41 | 2:27.30 | 44366 | 55420
5 | 12:18.71 | 2:38.32 | 55421 | 67302
6 | 14:57.28 | 2:47.49 | 67303 | 79876
7 | 17:45.02 | 3:32.12 | 79877 | 95788
8 | 21:17.14 | 4:45.22 | 95789 | 117185
9 | 26:02.36 | 5:23.73 | 117186 | 141483
10 | 31:26.34 | 3:31.17 | 141484 | 157325
11 | 34:57.51 | 2:39.64 | 157326 | 169314
12 | 37:37.40 | 2:29.40 | 169315 | 180529
13 | 40:07.05 | 2:51.40 | 180530 | 193394
14 | 42:58.45 | 3:08.01 | 193395 | 207495
15 | 46:06.46 | 3:01.60 | 207496 | 221130
16 | 49:08.31 | 7:07.54 | 221131 | 253209
17 | 56:16.10 | 3:03.35 | 253210 | 266969
18 | 59:19.45 | 3:08.19 | 266970 | 281088
19 | 62:27.64 | 3:46.69 | 281089 | 298107
20 | 66:14.58 | 3:12.72 | 298108 | 312579
21 | 69:27.55 | 2:34.50 | 312580 | 324179
22 | 72:02.30 | 2:43.50 | 324180 | 336454
23 | 74:46.05 | 2:59.51 | 336455 | 349930


Range status and errors

Selected range

Filename C:\Users\Meijin\Desktop\Lossless Rip by ALLexxess\Duane Allman\2013 Skydog - Duane Allman Retrospective (7CD Box Set Rounder Records)\Disc 1\Skydog - Duane Allman Retrospective 1.wav

Peak level 98.9 %
Extraction speed 8.8 X
Range quality 100.0 %
Test CRC A80F2C35
Copy CRC A80F2C35
Copy OK

No errors occurred


AccurateRip summary

Track 1 not present in database
Track 2 not present in database
Track 3 not present in database
Track 4 not present in database
Track 5 not present in database
Track 6 not present in database
Track 7 not present in database
Track 8 not present in database
Track 9 not present in database
Track 10 not present in database
Track 11 not present in database
Track 12 not present in database
Track 13 not present in database
Track 14 not present in database
Track 15 not present in database
Track 16 not present in database
Track 17 not present in database
Track 18 not present in database
Track 19 not present in database
Track 20 not present in database
Track 21 not present in database
Track 22 not present in database
Track 23 not present in database

None of the tracks are present in the AccurateRip database

End of status report

foobar2000 1.1.18 / Dynamic Range Meter 1.1.1
log date: 2013-04-01 15:33:56

––––––––––––––––––––––––––––––––––––––––
Analyzed: Duane Allman / Skydog: The Duane Allman Retrospective 1
––––––––––––––––––––––––––––––––––––––––

DR Peak RMS Duration Track
––––––––––––––––––––––––––––––––––––––––
DR10 -0.26 dB -13.83 dB 2:34 01-The Escorts: Turn On Your Love Light
DR11 -0.38 dB -13.82 dB 3:13 02-The Escorts: No Name Instrumental
DR11 -0.40 dB -13.41 dB 4:05 03-The Escorts: What'd I Say
DR11 -0.65 dB -13.67 dB 2:27 04-The Allman Joys: Spoonful
DR10 -0.72 dB -12.64 dB 2:38 05-The Allman Joys: Gotta Get Away
DR11 -1.18 dB -13.28 dB 2:48 06-The Allman Joys: Shapes Of Things
DR11 -0.33 dB -11.82 dB 3:32 07-The Allman Joys: Crossroads
DR10 -0.65 dB -12.44 dB 4:45 08-The Allman Joys: Mister, You're A Better Man Than I
DR9 -4.91 dB -15.05 dB 5:24 09-The Allman Joys: Lost Woman
DR10 -0.65 dB -13.93 dB 3:31 10-The Hour Glass: Cast Off All My Fears
DR11 -0.41 dB -14.48 dB 2:40 11-The Hour Glass: I’ve Been Trying
DR11 -1.16 dB -13.73 dB 2:30 12-The Hour Glass: Nothing But Tears
DR13 -0.45 dB -15.13 dB 2:52 13-The Hour Glass: Power Of Love
DR12 -0.37 dB -13.86 dB 3:08 14-The Hour Glass: Down In Texas
DR12 -0.09 dB -14.32 dB 3:02 15-The Hour Glass: Norwegian Wood (This Bird Has Flown)
DR8 -3.20 dB -14.65 dB 7:08 16-The Hour Glass: B.B. King Medley: a) Sweet Little Angel b) It's My Own Fault …
DR11 -0.39 dB -15.48 dB 3:03 17-The Hour Glass: Been Gone Too Long
DR11 -0.44 dB -14.42 dB 3:08 18-The Hour Glass: Ain’t No Good To Cry
DR13 -0.31 dB -15.40 dB 3:47 19-31st Of February: Morning Dew
DR11 -0.29 dB -13.76 dB 3:13 20-31st Of February: Melissa
DR11 -0.29 dB -13.88 dB 2:35 21-The Bleus: Milk Aand Honey
DR10 -0.53 dB -12.21 dB 2:44 22-The Bleus: Leavin' Lisa
DR10 -0.73 dB -14.98 dB 3:00 23-The Bleus: Julianna's Gone
––––––––––––––––––––––––––––––––––––––––

Number of tracks: 23
Official DR value: DR11

Samplerate: 44100 Hz
Channels: 2
Bits per sample: 16
Bitrate: 757 kbps
Codec: FLAC

=================

Skydog: The Duane Allman Retrospective (2013) [7CD Box Set]

Tracklist CD2 (1968-1969):

01. Clarence Carter: The Road Of Love 02:54
02. Clarence Carter: Light My Fire 02:49
03. Wilson Pickett: Hey Jude 04:06
04. Wilson Pickett: Toe Hold 02:49
05. Wilson Pickett: My Own Style Of Loving 02:41
06. Wilson Pickett: Born To Be Wild 02:45
07. Laura Lee: It's How You Make It Good 02:32
08. Laura Lee: It Ain't What You Do (But How You Do It) 02:05
09. Spencer Wiggins: I Never Loved A Woman (The Way I Love You) 03:01
10. Arthur Conley: Ob-La-Di, Ob-La-Da 03:00
11. Arthur Conley: Stuff You Gotta Watch 02:15
12. Arthur Conley: Speak Her Name 02:39
13. Arthur Conley: That Can't Be My Baby 02:22
14. Willie Walker: A Lucky Loser 02:20
15. The Lovelles: I'm Coming Today 02:59
16. The Lovelles: Pretending Dear 02:38
17. Aretha Franklin: The Weight 02:53
18. Aretha Franklin: It Ain't Fair 03:22
19. Soul Survivors: Darkness 02:56
20. Soul Survivors: Tell Daddy 02:30
21. Soul Survivors: Got Down On Saturday 03:10
22. King Curtis: Hey Joe 02:56
23. King Curtis: Foot Pattin' 04:49
24. King Curtis: Games People Play 02:46
25. King Curtis: The Weight 02:47
26. The Sweet Inspirations: Get A Little Order 02:06

Exact Audio Copy V1.0 beta 3 from 29. August 2011

EAC extraction logfile from 24. March 2013, 18:31

Duane Allman / Skydog: The Duane Allman Retrospective 2

Used drive : PLEXTOR BD-R PX-B950SA Adapter: 6 ID: 0

Read mode : Secure
Utilize accurate stream : Yes
Defeat audio cache : Yes
Make use of C2 pointers : No

Read offset correction : 6
Overread into Lead-In and Lead-Out : No
Fill up missing offset samples with silence : Yes
Delete leading and trailing silent blocks : No
Null samples used in CRC calculations : Yes
Used interface : Native Win32 interface for Win NT & 2000

Used output format : Internal WAV Routines
Sample format : 44.100 Hz; 16 Bit; Stereo


TOC of the extracted CD

Track | Start | Length | Start sector | End sector
––––––––––––––––––––––––––––-
1 | 0:00.00 | 2:54.36 | 0 | 13085
2 | 2:54.36 | 2:49.38 | 13086 | 25798
3 | 5:43.74 | 4:06.40 | 25799 | 44288
4 | 9:50.39 | 2:49.00 | 44289 | 56963
5 | 12:39.39 | 2:41.07 | 56964 | 69045
6 | 15:20.46 | 2:45.47 | 69046 | 81467
7 | 18:06.18 | 2:32.44 | 81468 | 92911
8 | 20:38.62 | 2:05.47 | 92912 | 102333
9 | 22:44.34 | 3:01.47 | 102334 | 115955
10 | 25:46.06 | 3:00.67 | 115956 | 129522
11 | 28:46.73 | 2:15.05 | 129523 | 139652
12 | 31:02.03 | 2:39.01 | 139653 | 151578
13 | 33:41.04 | 2:22.54 | 151579 | 162282
14 | 36:03.58 | 2:20.41 | 162283 | 172823
15 | 38:24.24 | 2:59.73 | 172824 | 186321
16 | 41:24.22 | 2:38.52 | 186322 | 198223
17 | 44:02.74 | 2:53.31 | 198224 | 211229
18 | 46:56.30 | 3:22.60 | 211230 | 226439
19 | 50:19.15 | 2:56.24 | 226440 | 239663
20 | 53:15.39 | 2:30.36 | 239664 | 250949
21 | 55:46.00 | 3:10.29 | 250950 | 265228
22 | 58:56.29 | 2:56.26 | 265229 | 278454
23 | 61:52.55 | 4:49.05 | 278455 | 300134
24 | 66:41.60 | 2:46.43 | 300135 | 312627
25 | 69:28.28 | 2:47.04 | 312628 | 325156
26 | 72:15.32 | 2:06.16 | 325157 | 334622


Range status and errors

Selected range

Filename C:\Users\Meijin\Desktop\Lossless Rip by ALLexxess\Duane Allman\2013 Skydog - Duane Allman Retrospective (7CD Box Set Rounder Records)\Disc 2\Skydog - Duane Allman Retrospective 2.wav

Peak level 98.0 %
Extraction speed 8.6 X
Range quality 100.0 %
Test CRC 184B08F8
Copy CRC 184B08F8
Copy OK

No errors occurred


AccurateRip summary

Track 1 not present in database
Track 2 not present in database
Track 3 not present in database
Track 4 not present in database
Track 5 not present in database
Track 6 not present in database
Track 7 not present in database
Track 8 not present in database
Track 9 not present in database
Track 10 not present in database
Track 11 not present in database
Track 12 not present in database
Track 13 not present in database
Track 14 not present in database
Track 15 not present in database
Track 16 not present in database
Track 17 not present in database
Track 18 not present in database
Track 19 not present in database
Track 20 not present in database
Track 21 not present in database
Track 22 not present in database
Track 23 not present in database
Track 24 not present in database
Track 25 not present in database
Track 26 not present in database

None of the tracks are present in the AccurateRip database

End of status report

foobar2000 1.1.18 / Dynamic Range Meter 1.1.1
log date: 2013-04-01 15:34:23

––––––––––––––––––––––––––––––––––––––––
Analyzed: Duane Allman / Skydog: The Duane Allman Retrospective 2
––––––––––––––––––––––––––––––––––––––––

DR Peak RMS Duration Track
––––––––––––––––––––––––––––––––––––––––
DR10 -0.40 dB -13.64 dB 2:54 01-Clarence Carter: The Road Of Love
DR10 -1.24 dB -13.33 dB 2:50 02-Clarence Carter: Light My Fire
DR10 -0.17 dB -13.52 dB 4:07 03-Wilson Pickett: Hey Jude
DR10 -0.27 dB -12.87 dB 2:49 04-Wilson Pickett: Toe Hold
DR10 -0.26 dB -12.76 dB 2:41 05-Wilson Pickett: My Own Style Of Loving
DR10 -0.31 dB -12.69 dB 2:46 06-Wilson Pickett: Born To Be Wild
DR12 -0.22 dB -14.67 dB 2:33 07-Laura Lee: It's How You Make It Good
DR12 -0.28 dB -13.55 dB 2:06 08-Laura Lee: It Ain't What You Do (But How You Do It)
DR10 -1.15 dB -13.22 dB 3:02 09-Spencer Wiggins: I Never Loved A Woman (The Way I Love You)
DR12 -0.27 dB -14.28 dB 3:01 10-Arthur Conley: Ob-La-Di, Ob-La-Da
DR10 -0.26 dB -12.53 dB 2:15 11-Arthur Conley: Stuff You Gotta Watch
DR12 -0.23 dB -14.57 dB 2:39 12-Arthur Conley: Speak Her Name
DR12 -0.27 dB -13.72 dB 2:23 13-Arthur Conley: That Can't Be My Baby
DR11 -0.63 dB -13.14 dB 2:21 14-Willie Walker: A Lucky Loser
DR11 -0.30 dB -13.88 dB 3:00 15-The Lovelles: I'm Coming Today
DR12 -0.28 dB -14.71 dB 2:39 16-The Lovelles: Pretending Dear
DR11 -0.30 dB -13.92 dB 2:53 17-Aretha Franklin: The Weight
DR12 -0.25 dB -16.14 dB 3:23 18-Aretha Franklin: It Ain't Fair
DR11 -0.31 dB -13.16 dB 2:56 19-Soul Survivors: Darkness
DR12 -0.27 dB -13.69 dB 2:30 20-Soul Survivors: Tell Daddy
DR12 -0.31 dB -15.51 dB 3:10 21-Soul Survivors: Got Down On Saturday
DR10 -1.21 dB -13.13 dB 2:56 22-King Curtis: Hey Joe
DR11 -0.28 dB -14.29 dB 4:49 23-King Curtis: Foot Pattin'
DR10 -1.37 dB -15.21 dB 2:47 24-King Curtis: Games People Play
DR11 -0.35 dB -13.56 dB 2:47 25-King Curtis: The Weight
DR10 -0.44 dB -12.29 dB 2:06 26-The Sweet Inspirations: Get A Little Order
––––––––––––––––––––––––––––––––––––––––

Number of tracks: 26
Official DR value: DR11

Samplerate: 44100 Hz
Channels: 2
Bits per sample: 16
Bitrate: 828 kbps
Codec: FLAC

=================

Skydog: The Duane Allman Retrospective (2013) [7CD Box Set]

Tracklist CD3 (1968-1969):

01. The Barry Goldberg Blues Band: Twice A Man 04:28
02. Duane Allman: Goin' Down Slow 08:46
03. Duane Allman: No Money Down 03:27
04. Duane Allman: Happily Married Man 02:42
05. Otis Rush: Me 02:56
06. Otis Rush: Reap What You Sow 04:55
07. Otis Rush: It Takes Time 03:27
08. The Duck & The Bear: Going Up The Country 02:37
09. The Duck & The Bear: Hand Jive 02:42
10. Boz Scaggs: Finding Her 04:12
11. Boz Scaggs: Look What I Got 04:15
12. Boz Scaggs: Waiting For A Train 02:44
13. Boz Scaggs: Loan Me A Dime 13:04
14. The Allman Brothers Band: Don't Want You No More 02:26
15. The Allman Brothers Band: It's Not My Cross To Bear 05:01
16. The Allman Brothers Band: Black Hearted Woman 05:09
17. The Allman Brothers Band: Trouble No More 03:45

Exact Audio Copy V1.0 beta 3 from 29. August 2011

EAC extraction logfile from 24. March 2013, 17:49

Duane Allman / Skydog: The Duane Allman Retrospective 3

Used drive : PLEXTOR BD-R PX-B950SA Adapter: 6 ID: 0

Read mode : Secure
Utilize accurate stream : Yes
Defeat audio cache : Yes
Make use of C2 pointers : No

Read offset correction : 6
Overread into Lead-In and Lead-Out : No
Fill up missing offset samples with silence : Yes
Delete leading and trailing silent blocks : No
Null samples used in CRC calculations : Yes
Used interface : Native Win32 interface for Win NT & 2000

Used output format : Internal WAV Routines
Sample format : 44.100 Hz; 16 Bit; Stereo


TOC of the extracted CD

Track | Start | Length | Start sector | End sector
––––––––––––––––––––––––––––-
1 | 0:00.00 | 4:28.27 | 0 | 20126
2 | 4:28.27 | 8:46.29 | 20127 | 59605
3 | 13:14.56 | 3:27.46 | 59606 | 75176
4 | 16:42.27 | 2:42.41 | 75177 | 87367
5 | 19:24.68 | 2:56.67 | 87368 | 100634
6 | 22:21.60 | 4:55.04 | 100635 | 122763
7 | 27:16.64 | 3:27.25 | 122764 | 138313
8 | 30:44.14 | 2:37.09 | 138314 | 150097
9 | 33:21.23 | 2:42.36 | 150098 | 162283
10 | 36:03.59 | 4:12.26 | 162284 | 181209
11 | 40:16.10 | 4:15.63 | 181210 | 200397
12 | 44:31.73 | 2:44.01 | 200398 | 212698
13 | 47:15.74 | 13:04.53 | 212699 | 271551
14 | 60:20.52 | 2:26.66 | 271552 | 282567
15 | 62:47.43 | 5:01.53 | 282568 | 305195
16 | 67:49.21 | 5:09.72 | 305196 | 328442
17 | 72:59.18 | 3:45.32 | 328443 | 345349


Range status and errors

Selected range

Filename C:\Users\Meijin\Desktop\Lossless Rip by ALLexxess\Duane Allman\2013 Skydog - Duane Allman Retrospective (7CD Box Set Rounder Records)\Disc 3\Skydog - Duane Allman Retrospective 3.wav

Peak level 98.2 %
Extraction speed 8.7 X
Range quality 100.0 %
Test CRC ECF4FA48
Copy CRC ECF4FA48
Copy OK

No errors occurred


AccurateRip summary

Track 1 not present in database
Track 2 not present in database
Track 3 not present in database
Track 4 not present in database
Track 5 not present in database
Track 6 not present in database
Track 7 not present in database
Track 8 not present in database
Track 9 not present in database
Track 10 not present in database
Track 11 not present in database
Track 12 not present in database
Track 13 not present in database
Track 14 not present in database
Track 15 not present in database
Track 16 not present in database
Track 17 not present in database

None of the tracks are present in the AccurateRip database

End of status report

foobar2000 1.1.18 / Dynamic Range Meter 1.1.1
log date: 2013-04-01 15:34:51

––––––––––––––––––––––––––––––––––––––––
Analyzed: Duane Allman / Skydog: The Duane Allman Retrospective 3
––––––––––––––––––––––––––––––––––––––––

DR Peak RMS Duration Track
––––––––––––––––––––––––––––––––––––––––
DR13 -0.43 dB -15.74 dB 4:28 01-The Barry Goldberg Blues Band: Twice A Man
DR9 -2.53 dB -15.98 dB 8:46 02-Duane Allman: Goin' Down Slow
DR10 -2.00 dB -14.51 dB 3:28 03-Duane Allman: No Money Down
DR9 -2.54 dB -13.15 dB 2:43 04-Duane Allman: Happily Married Man
DR12 -0.27 dB -14.41 dB 2:57 05-Otis Rush: Me
DR12 -0.83 dB -16.40 dB 4:55 06-Otis Rush: Reap What You Sow
DR11 -1.16 dB -14.16 dB 3:27 07-Otis Rush: It Takes Time
DR12 -1.75 dB -15.39 dB 2:37 08-The Duck & The Bear: Going Up The Country
DR12 -0.29 dB -15.19 dB 2:42 09-The Duck & The Bear: Hand Jive
DR12 -0.91 dB -17.79 dB 4:12 10-Boz Scaggs: Finding Her
DR11 -1.67 dB -15.92 dB 4:16 11-Boz Scaggs: Look What I Got
DR12 -0.93 dB -16.80 dB 2:44 12-Boz Scaggs: Waiting For A Train
DR12 -0.30 dB -15.76 dB 13:05 13-Boz Scaggs: Loan Me A Dime
DR9 -0.16 dB -11.77 dB 2:27 14-The Allman Brothers Band: Don't Want You No More
DR10 -0.17 dB -14.45 dB 5:02 15-The Allman Brothers Band: It's Not My Cross To Bear
DR10 -0.19 dB -12.48 dB 5:10 16-The Allman Brothers Band: Black Hearted Woman
DR10 -0.15 dB -12.36 dB 3:45 17-The Allman Brothers Band: Trouble No More
––––––––––––––––––––––––––––––––––––––––

Number of tracks: 17
Official DR value: DR11

Samplerate: 44100 Hz
Channels: 2
Bits per sample: 16
Bitrate: 805 kbps
Codec: FLAC

=================

Skydog: The Duane Allman Retrospective (2013) [7CD Box Set]

Tracklist CD4 (1969):

01. The Allman Brothers Band: Every Hungry Woman 04:15
02. The Allman Brothers Band: Dreams 07:18
03. The Allman Brothers Band: Whipping Post 05:19
04. Ronnie Hawkins: One More Night 02:24
05. Ronnie Hawkins: Will The Circle Be Unbroken 02:52
06. Ronnie Hawkins: Matchbox 03:07
07. Ronnie Hawkins: Down In The Alley 05:11
08. Ronnie Hawkins: Who Do You Love 02:16
09. Lulu: Marley Purt Drive 03:22
10. Lulu: Dirty Old Man 02:22
11. Lulu: Mr. Bojangles 03:10
12. Lulu: Sweep Around Your Own Back Door 02:43
13. Johnny Jenkins: I Walk On Gilded Splinters 05:17
14. Johnny Jenkins: Rollin' Stone 04:56
15. Johnny Jenkins: Down Along The Cove 03:02
16. Johnny Jenkins: Voodoo In You 04:53
17. John Hammond: Shake For Me 02:42
18. John Hammond: Cryin' For My Baby 02:39
19. John Hammond: I'm Leavin' You 03:20
20. John Hammond: You'll Be Mine 02:42
21. Doris Duke: Ghost Of Myself 03:07

Exact Audio Copy V1.0 beta 3 from 29. August 2011

EAC extraction logfile from 24. March 2013, 13:54

Duane Allman / Skydog: The Duane Allman Retrospective 4

Used drive : PLEXTOR BD-R PX-B950SA Adapter: 6 ID: 0

Read mode : Secure
Utilize accurate stream : Yes
Defeat audio cache : Yes
Make use of C2 pointers : No

Read offset correction : 6
Overread into Lead-In and Lead-Out : No
Fill up missing offset samples with silence : Yes
Delete leading and trailing silent blocks : No
Null samples used in CRC calculations : Yes
Used interface : Native Win32 interface for Win NT & 2000

Used output format : Internal WAV Routines
Sample format : 44.100 Hz; 16 Bit; Stereo


TOC of the extracted CD

Track | Start | Length | Start sector | End sector
––––––––––––––––––––––––––––-
1 | 0:00.00 | 4:15.13 | 0 | 19137
2 | 4:15.13 | 7:18.22 | 19138 | 52009
3 | 11:33.35 | 5:19.24 | 52010 | 75958
4 | 16:52.59 | 2:24.20 | 75959 | 86778
5 | 19:17.04 | 2:52.70 | 86779 | 99748
6 | 22:09.74 | 3:07.63 | 99749 | 113836
7 | 25:17.62 | 5:11.59 | 113837 | 137220
8 | 30:29.46 | 2:16.21 | 137221 | 147441
9 | 32:45.67 | 3:22.70 | 147442 | 162661
10 | 36:08.62 | 2:22.56 | 162662 | 173367
11 | 38:31.43 | 3:10.03 | 173368 | 187620
12 | 41:41.46 | 2:43.34 | 187621 | 199879
13 | 44:25.05 | 5:17.26 | 199880 | 223680
14 | 49:42.31 | 4:56.16 | 223681 | 245896
15 | 54:38.47 | 3:02.00 | 245897 | 259546
16 | 57:40.47 | 4:53.16 | 259547 | 281537
17 | 62:33.63 | 2:42.51 | 281538 | 293738
18 | 65:16.39 | 2:39.53 | 293739 | 305716
19 | 67:56.17 | 3:20.34 | 305717 | 320750
20 | 71:16.51 | 2:42.00 | 320751 | 332900
21 | 73:58.51 | 3:07.02 | 332901 | 346927


Range status and errors

Selected range

Filename C:\Users\Meijin\Desktop\Lossless Rip by ALLexxess\Duane Allman\2013 Skydog - Duane Allman Retrospective (7CD Box Set Rounder Records)\Disc 4\Skydog - Duane Allman Retrospective 4.wav

Peak level 98.2 %
Extraction speed 8.7 X
Range quality 100.0 %
Test CRC 2D840C66
Copy CRC 2D840C66
Copy OK

No errors occurred


AccurateRip summary

Track 1 not present in database
Track 2 not present in database
Track 3 not present in database
Track 4 not present in database
Track 5 not present in database
Track 6 not present in database
Track 7 not present in database
Track 8 not present in database
Track 9 not present in database
Track 10 not present in database
Track 11 not present in database
Track 12 not present in database
Track 13 not present in database
Track 14 not present in database
Track 15 not present in database
Track 16 not present in database
Track 17 not present in database
Track 18 not present in database
Track 19 not present in database
Track 20 not present in database
Track 21 not present in database

None of the tracks are present in the AccurateRip database

End of status report

foobar2000 1.1.18 / Dynamic Range Meter 1.1.1
log date: 2013-04-01 15:35:18

––––––––––––––––––––––––––––––––––––––––
Analyzed: Duane Allman / Skydog: The Duane Allman Retrospective 4
––––––––––––––––––––––––––––––––––––––––

DR Peak RMS Duration Track
––––––––––––––––––––––––––––––––––––––––
DR10 -0.15 dB -11.69 dB 4:15 01-The Allman Brothers Band: Every Hungry Woman
DR10 -0.21 dB -12.65 dB 7:18 02-The Allman Brothers Band: Dreams
DR10 -0.19 dB -13.03 dB 5:19 03-The Allman Brothers Band: Whipping Post
DR13 -1.00 dB -17.06 dB 2:24 04-Ronnie Hawkins: One More Night
DR12 -0.30 dB -14.34 dB 2:53 05-Ronnie Hawkins: Will The Circle Be Unbroken
DR11 -0.27 dB -13.44 dB 3:08 06-Ronnie Hawkins: Matchbox
DR12 -0.37 dB -15.08 dB 5:12 07-Ronnie Hawkins: Down In The Alley
DR11 -1.19 dB -14.03 dB 2:16 08-Ronnie Hawkins: Who Do You Love
DR10 -1.10 dB -12.49 dB 3:23 09-Lulu: Marley Purt Drive
DR11 -0.73 dB -13.30 dB 2:23 10-Lulu: Dirty Old Man
DR11 -1.57 dB -15.44 dB 3:10 11-Lulu: Mr. Bojangles
DR9 -1.42 dB -12.68 dB 2:43 12-Lulu: Sweep Around Your Own Back Door
DR11 -0.26 dB -13.47 dB 5:17 13-Johnny Jenkins: I Walk On Gilded Splinters
DR14 -0.30 dB -16.88 dB 4:56 14-Johnny Jenkins: Rollin' Stone
DR12 -0.28 dB -13.76 dB 3:02 15-Johnny Jenkins: Down Along The Cove
DR11 -0.29 dB -13.85 dB 4:53 16-Johnny Jenkins: Voodoo In You
DR11 -0.84 dB -13.90 dB 2:43 17-John Hammond: Shake For Me
DR11 -0.60 dB -14.41 dB 2:40 18-John Hammond: Cryin' For My Baby
DR12 -0.32 dB -14.53 dB 3:20 19-John Hammond: I'm Leavin' You
DR11 -0.83 dB -13.82 dB 2:42 20-John Hammond: You'll Be Mine
DR11 -0.17 dB -13.75 dB 3:07 21-Doris Duke: Ghost Of Myself
––––––––––––––––––––––––––––––––––––––––

Number of tracks: 21
Official DR value: DR11

Samplerate: 44100 Hz
Channels: 2
Bits per sample: 16
Bitrate: 846 kbps
Codec: FLAC

=================

Skydog: The Duane Allman Retrospective (2013) [7CD Box Set]

Tracklist CD5 (1969-1970):

01. Eric Quince Tate: Comin' Down (Demo Version) 02:53
02. The Allman Brothers Band: Hoochie Coochie Man (Live) 05:03
03. The Allman Brothers Band: Midnight Rider 02:59
04. The Allman Brothers Band: Dimples (Live) 05:01
05. The Allman Brothers Band: I'm Gonna Move To The Outskirts Of Town (Live) 09:24
06. Delaney & Bonnie & Friends: Soul Shake 03:09
07. Laura Nyro: Beads Of Sweat 04:50
08. The Allman Brothers Band: Don't Keep Me Wondering 03:31
09. Delaney & Bonnie & Friends: Living On The Open Road 03:05
10. Ella Brown: A Woman Left Lonely 03:26
11. Ella Brown: Touch Me 03:01
12. Bobby Lance: More Than Enough Rain 05:54
13. Derek & The Dominos: I Am Yours 03:36
14. Derek & The Dominos: Why Does Love Got To Be So Sad? 04:43
15. Derek & The Dominos: Have You Ever Loved A Woman 06:53
16. Derek & The Dominos: Layla 07:05
17. Eric Clapton & Duane Allman: Mean Old World 03:48

Exact Audio Copy V1.0 beta 3 from 29. August 2011

EAC extraction logfile from 24. March 2013, 10:02

Duane Allman / Skydog: The Duane Allman Retrospective 5

Used drive : PLEXTOR BD-R PX-B950SA Adapter: 6 ID: 0

Read mode : Secure
Utilize accurate stream : Yes
Defeat audio cache : Yes
Make use of C2 pointers : No

Read offset correction : 6
Overread into Lead-In and Lead-Out : No
Fill up missing offset samples with silence : Yes
Delete leading and trailing silent blocks : No
Null samples used in CRC calculations : Yes
Used interface : Native Win32 interface for Win NT & 2000

Used output format : Internal WAV Routines
Sample format : 44.100 Hz; 16 Bit; Stereo


TOC of the extracted CD

Track | Start | Length | Start sector | End sector
––––––––––––––––––––––––––––-
1 | 0:00.00 | 2:53.30 | 0 | 13004
2 | 2:53.30 | 5:03.00 | 13005 | 35729
3 | 7:56.30 | 2:59.40 | 35730 | 49194
4 | 10:55.70 | 5:01.69 | 49195 | 71838
5 | 15:57.64 | 9:24.65 | 71839 | 114203
6 | 25:22.54 | 3:09.54 | 114204 | 128432
7 | 28:32.33 | 4:50.39 | 128433 | 150221
8 | 33:22.72 | 3:31.11 | 150222 | 166057
9 | 36:54.08 | 3:05.72 | 166058 | 180004
10 | 40:00.05 | 3:26.24 | 180005 | 195478
11 | 43:26.29 | 3:01.72 | 195479 | 209125
12 | 46:28.26 | 5:54.60 | 209126 | 235735
13 | 52:23.11 | 3:36.02 | 235736 | 251937
14 | 55:59.13 | 4:43.47 | 251938 | 273209
15 | 60:42.60 | 6:53.53 | 273210 | 304237
16 | 67:36.38 | 7:05.14 | 304238 | 336126
17 | 74:41.52 | 3:48.28 | 336127 | 353254


Range status and errors

Selected range

Filename C:\Users\Meijin\Desktop\Lossless Rip by ALLexxess\Duane Allman\2013 Skydog - Duane Allman Retrospective (7CD Box Set Rounder Records)\Disc 5\Skydog - Duane Allman Retrospective 5.wav

Peak level 98.9 %
Extraction speed 4.0 X
Range quality 99.9 %
Test CRC D4418EBD
Copy CRC D4418EBD
Copy OK

No errors occurred


AccurateRip summary

Track 1 not present in database
Track 2 not present in database
Track 3 not present in database
Track 4 not present in database
Track 5 not present in database
Track 6 not present in database
Track 7 not present in database
Track 8 not present in database
Track 9 not present in database
Track 10 not present in database
Track 11 not present in database
Track 12 not present in database
Track 13 not present in database
Track 14 not present in database
Track 15 not present in database
Track 16 not present in database
Track 17 not present in database

None of the tracks are present in the AccurateRip database

End of status report

foobar2000 1.1.18 / Dynamic Range Meter 1.1.1
log date: 2013-04-01 15:35:48

––––––––––––––––––––––––––––––––––––––––
Analyzed: Duane Allman / Skydog: The Duane Allman Retrospective 5
––––––––––––––––––––––––––––––––––––––––

DR Peak RMS Duration Track
––––––––––––––––––––––––––––––––––––––––
DR9 -0.11 dB -10.79 dB 2:53 01-Eric Quince Tate: Comin' Down (Demo Version)
DR8 -0.18 dB -10.37 dB 5:03 02-The Allman Brothers Band: Hoochie Coochie Man (Live)
DR11 -0.19 dB -13.13 dB 3:00 03-The Allman Brothers Band: Midnight Rider
DR9 -0.23 dB -11.13 dB 5:02 04-The Allman Brothers Band: Dimples (Live)
DR10 -0.15 dB -12.62 dB 9:25 05-The Allman Brothers Band: I'm Gonna Move To The Outskirts Of Town (Live)
DR11 -0.09 dB -12.75 dB 3:10 06-Delaney & Bonnie & Friends: Soul Shake
DR12 -0.34 dB -14.73 dB 4:51 07-Laura Nyro: Beads Of Sweat
DR10 -0.18 dB -11.84 dB 3:31 08-The Allman Brothers Band: Don't Keep Me Wondering
DR9 -0.19 dB -11.09 dB 3:06 09-Delaney & Bonnie & Friends: Living On The Open Road
DR6 -4.28 dB -12.37 dB 3:26 10-Ella Brown: A Woman Left Lonely
DR6 -3.51 dB -11.47 dB 3:02 11-Ella Brown: Touch Me
DR10 -0.17 dB -12.88 dB 5:55 12-Bobby Lance: More Than Enough Rain
DR11 -1.46 dB -14.92 dB 3:36 13-Derek & The Dominos: I Am Yours
DR7 -1.13 dB -10.04 dB 4:44 14-Derek & The Dominos: Why Does Love Got To Be So Sad?
DR6 -1.97 dB -10.52 dB 6:54 15-Derek & The Dominos: Have You Ever Loved A Woman
DR5 -2.60 dB -9.06 dB 7:05 16-Derek & The Dominos: Layla
DR11 -1.63 dB -13.78 dB 3:48 17-Eric Clapton & Duane Allman: Mean Old World
––––––––––––––––––––––––––––––––––––––––

Number of tracks: 17
Official DR value: DR9

Samplerate: 44100 Hz
Channels: 2
Bits per sample: 16
Bitrate: 868 kbps
Codec: FLAC

=================

Skydog: The Duane Allman Retrospective (2013) [7CD Box Set]

Tracklist CD6 (1970-1971):

01. Sam Samudio: Me And Bobby McGee 03:33
02. Sam Samudio: Relativity 03:15
03. Sam Samudio: Goin' Upstairs 05:09
04. Ronnie Hawkins: Don't Tell Me Your Troubles 02:15
05. Ronnie Hawkins: Sick And Tired 02:48
06. Ronnie Hawkins: Odessa 03:21
07. Delaney & Bonnie & Friends: Gift Of Love 02:11
08. Delaney & Bonnie & Friends: Sing My Way Home 04:04
09. The Allman Brothers Band: Statesboro Blues (Live) 04:19
10. The Allman Brothers Band: In Memory Of Elizabeth Reed (Live) 13:06
11. Grateful Dead: Sugar Magnolia (Live) 07:21
12. The Allman Brothers Band: One Way Out (Live) 05:00
13. Herbie Mann: Push Push 10:05
14. Herbie Mann: Spirit In The Dark 08:02
15. Herbie Mann: What'd I Say 04:57

Exact Audio Copy V1.0 beta 3 from 29. August 2011

EAC extraction logfile from 23. March 2013, 21:49

Duane Allman / Skydog: The Duane Allman Retrospective 6

Used drive : PLEXTOR BD-R PX-B950SA Adapter: 6 ID: 0

Read mode : Secure
Utilize accurate stream : Yes
Defeat audio cache : Yes
Make use of C2 pointers : No

Read offset correction : 6
Overread into Lead-In and Lead-Out : No
Fill up missing offset samples with silence : Yes
Delete leading and trailing silent blocks : No
Null samples used in CRC calculations : Yes
Used interface : Native Win32 interface for Win NT & 2000

Used output format : Internal WAV Routines
Sample format : 44.100 Hz; 16 Bit; Stereo


TOC of the extracted CD

Track | Start | Length | Start sector | End sector
––––––––––––––––––––––––––––-
1 | 0:00.00 | 3:33.48 | 0 | 16022
2 | 3:33.48 | 3:15.54 | 16023 | 30701
3 | 6:49.27 | 5:09.64 | 30702 | 53940
4 | 11:59.16 | 2:15.25 | 53941 | 64090
5 | 14:14.41 | 2:48.20 | 64091 | 76710
6 | 17:02.61 | 3:21.48 | 76711 | 91833
7 | 20:24.34 | 2:11.33 | 91834 | 101691
8 | 22:35.67 | 4:04.36 | 101692 | 120027
9 | 26:40.28 | 4:19.63 | 120028 | 139515
10 | 31:00.16 | 13:06.09 | 139516 | 198474
11 | 44:06.25 | 7:21.03 | 198475 | 231552
12 | 51:27.28 | 5:00.24 | 231553 | 254076
13 | 56:27.52 | 10:05.19 | 254077 | 299470
14 | 66:32.71 | 8:02.40 | 299471 | 335660
15 | 74:35.36 | 4:57.08 | 335661 | 357943


Range status and errors

Selected range

Filename C:\Users\Meijin\Desktop\Lossless Rip by ALLexxess\Duane Allman\2013 Skydog - Duane Allman Retrospective (7CD Box Set Rounder Records)\Disc 6\Skydog - Duane Allman Retrospective 6.wav

Peak level 99.0 %
Extraction speed 8.8 X
Range quality 100.0 %
Test CRC 5012687E
Copy CRC 5012687E
Copy OK

No errors occurred


AccurateRip summary

Track 1 not present in database
Track 2 not present in database
Track 3 not present in database
Track 4 not present in database
Track 5 not present in database
Track 6 not present in database
Track 7 not present in database
Track 8 not present in database
Track 9 not present in database
Track 10 not present in database
Track 11 not present in database
Track 12 not present in database
Track 13 not present in database
Track 14 not present in database
Track 15 not present in database

None of the tracks are present in the AccurateRip database

End of status report

foobar2000 1.1.18 / Dynamic Range Meter 1.1.1
log date: 2013-04-01 15:36:16

––––––––––––––––––––––––––––––––––––––––
Analyzed: Duane Allman / Skydog: The Duane Allman Retrospective 6
––––––––––––––––––––––––––––––––––––––––

DR Peak RMS Duration Track
––––––––––––––––––––––––––––––––––––––––
DR13 -0.22 dB -15.45 dB 3:34 01-Sam Samudio: Me And Bobby McGee
DR12 -0.20 dB -13.84 dB 3:16 02-Sam Samudio: Relativity
DR12 -0.19 dB -14.04 dB 5:10 03-Sam Samudio: Goin' Upstairs
DR9 -2.61 dB -14.13 dB 2:15 04-Ronnie Hawkins: Don't Tell Me Your Troubles
DR11 -0.22 dB -12.94 dB 2:48 05-Ronnie Hawkins: Sick And Tired
DR12 -2.02 dB -16.97 dB 3:22 06-Ronnie Hawkins: Odessa
DR12 -0.22 dB -15.27 dB 2:11 07-Delaney & Bonnie & Friends: Gift Of Love
DR13 -0.18 dB -15.94 dB 4:04 08-Delaney & Bonnie & Friends: Sing My Way Home
DR10 -0.18 dB -12.07 dB 4:20 09-The Allman Brothers Band: Statesboro Blues (Live)
DR10 -0.08 dB -12.45 dB 13:06 10-The Allman Brothers Band: In Memory Of Elizabeth Reed (Live)
DR10 -0.20 dB -12.58 dB 7:21 11-Grateful Dead: Sugar Magnolia (Live)
DR10 -0.14 dB -12.10 dB 5:00 12-The Allman Brothers Band: One Way Out (Live)
DR10 -0.17 dB -12.90 dB 10:05 13-Herbie Mann: Push Push
DR11 -0.20 dB -14.11 dB 8:03 14-Herbie Mann: Spirit In The Dark
DR11 -0.20 dB -13.63 dB 4:57 15-Herbie Mann: What'd I Say
––––––––––––––––––––––––––––––––––––––––

Number of tracks: 15
Official DR value: DR11

Samplerate: 44100 Hz
Channels: 2
Bits per sample: 16
Bitrate: 824 kbps
Codec: FLAC

=================

Skydog: The Duane Allman Retrospective (2013) [7CD Box Set]

Tracklist CD7 (1971):

01. Delaney & Bonnie & Friends: Come On In My Kitchen (Live) 03:42
02. Delaney & Bonnie & Friends: Going Down The Road Feeling Bad (Live) 04:03
03. Delaney & Bonnie & Friends: Poor Elijah / Tribute To Johnson (Medley / Live) 04:54
04. The Allman Brothers Band: You Don't Love Me / Soul Serenade (Live) 19:28
05. Cowboy: Please Be With Me 03:43
06. The Allman Brothers Band: Stand Back 03:26
07. The Allman Brothers Band: Blue Sky 05:11
08. The Allman Brothers Band: Blue Sky (Live) 11:24
09. The Allman Brothers Band: Dreams (Live) 17:59
10. The Allman Brothers Band: Little Martha 02:07

Exact Audio Copy V1.0 beta 3 from 29. August 2011

EAC extraction logfile from 23. March 2013, 20:57

Duane Allman / Skydog: The Duane Allman Retrospective 7

Used drive : PLEXTOR BD-R PX-B950SA Adapter: 6 ID: 0

Read mode : Secure
Utilize accurate stream : Yes
Defeat audio cache : Yes
Make use of C2 pointers : No

Read offset correction : 6
Overread into Lead-In and Lead-Out : No
Fill up missing offset samples with silence : Yes
Delete leading and trailing silent blocks : No
Null samples used in CRC calculations : Yes
Used interface : Native Win32 interface for Win NT & 2000

Used output format : Internal WAV Routines
Sample format : 44.100 Hz; 16 Bit; Stereo


TOC of the extracted CD

Track | Start | Length | Start sector | End sector
––––––––––––––––––––––––––––-
1 | 0:00.00 | 3:42.07 | 0 | 16656
2 | 3:42.07 | 4:03.46 | 16657 | 34927
3 | 7:45.53 | 4:54.52 | 34928 | 57029
4 | 12:40.30 | 19:28.39 | 57030 | 144668
5 | 32:08.69 | 3:43.18 | 144669 | 161411
6 | 35:52.12 | 3:26.71 | 161412 | 176932
7 | 39:19.08 | 5:11.45 | 176933 | 200302
8 | 44:30.53 | 11:24.24 | 200303 | 251626
9 | 55:55.02 | 17:59.63 | 251627 | 332614
10 | 73:54.65 | 2:07.53 | 332615 | 342192


Range status and errors

Selected range

Filename C:\Users\Meijin\Desktop\Lossless Rip by ALLexxess\Duane Allman\2013 Skydog - Duane Allman Retrospective (7CD Box Set Rounder Records)\Disc 7\Skydog - Duane Allman Retrospective 7.wav

Peak level 99.9 %
Extraction speed 4.0 X
Range quality 100.0 %
Test CRC 11E0478F
Copy CRC 11E0478F
Copy OK

No errors occurred


AccurateRip summary

Track 1 not present in database
Track 2 not present in database
Track 3 not present in database
Track 4 not present in database
Track 5 not present in database
Track 6 not present in database
Track 7 not present in database
Track 8 not present in database
Track 9 not present in database
Track 10 not present in database

None of the tracks are present in the AccurateRip database

End of status report

foobar2000 1.1.18 / Dynamic Range Meter 1.1.1
log date: 2013-04-01 15:36:44

––––––––––––––––––––––––––––––––––––––––
Analyzed: Duane Allman / Skydog: The Duane Allman Retrospective 7
––––––––––––––––––––––––––––––––––––––––

DR Peak RMS Duration Track
––––––––––––––––––––––––––––––––––––––––
DR11 -0.16 dB -13.70 dB 3:42 01-Delaney & Bonnie & Friends: Come On In My Kitchen (Live)
DR10 -0.16 dB -12.62 dB 4:04 02-Delaney & Bonnie & Friends: Going Down The Road Feeling Bad (Live)
DR11 -0.16 dB -14.23 dB 4:55 03-Delaney & Bonnie & Friends: Poor Elijah / Tribute To Johnson (Medley / Live)
DR9 0.00 dB -12.94 dB 19:29 04-The Allman Brothers Band: You Don't Love Me / Soul Serenade (Live)
DR12 -0.21 dB -15.34 dB 3:43 05-Cowboy: Please Be With Me
DR9 -0.17 dB -10.64 dB 3:27 06-The Allman Brothers Band: Stand Back
DR9 -0.20 dB -10.49 dB 5:12 07-The Allman Brothers Band: Blue Sky
DR7 -1.42 dB -9.64 dB 11:24 08-The Allman Brothers Band: Blue Sky (Live)
DR8 -0.17 dB -9.98 dB 18:00 09-The Allman Brothers Band: Dreams (Live)
DR11 -0.22 dB -14.57 dB 2:08 10-The Allman Brothers Band: Little Martha
––––––––––––––––––––––––––––––––––––––––

Number of tracks: 10
Official DR value: DR10

Samplerate: 44100 Hz
Channels: 2
Bits per sample: 16
Bitrate: 866 kbps
Codec: FLAC

Skydog: The Duane Allman Retrospective (2013) [7CD Box Set]

All thanks go to ALLexxess

Download Skydog: The Duane Allman Retrospective (2013):