Subcategories
Tags
Language
Tags

Smokey Robinson & The Miracles - 'Make It Happen' (1967) + 'Special Occasion' (1968) 2 LP on 1 CD, Remastered Reissue 2001

Posted By: Designol
Smokey Robinson & The Miracles - 'Make It Happen' (1967) + 'Special Occasion' (1968) 2 LP on 1 CD, Remastered Reissue 2001

Smokey Robinson & The Miracles - 'Make It Happen' (1967) + 'Special Occasion' (1968)
2 LP on 1 CD, Remastered Reissue 2001

EAC | FLAC | Image (Cue&Log) ~ 422 Mb | Mp3 (CBR320) ~ 168 Mb | Scans included
Motown, Soul, Pop-Soul | Label: Motown | # 013 183-2 | Time: 01:06:06

Digitally remastered reissue combines two domestically out-of-print albums together on one CD, 'Make It Happen' (1967) & 'Special Occasion' (1968). Packaged in a full color outer slipcase with original sleeve artwork.

Two splendid vintage Smokey Robinson & the Miracles' albums for the price of one CD. Sprinkled among the 23 tracks are six bona fide hits: "The Love I Saw in You Was Just a Mirage," "More Love," "The Tears of a Clown," "Yester Love," "If You Can Want," and "Special Occasion." And there could have been more had "Soulful Shack" and Holland-Dozier-Holland's "It's a Good Feeling" been released and promoted as singles. A Stevie Wonder co-write, "After You Put Back the Pieces (I'll Still Have a Broken Heart)," is sheer, mellow brilliance. Slowies "You Must Be Love," "Much Better Off," and "Give Her Up" were popular B-sides; the latter is a scrumptious ballad with doo wop shadings that Martha & the Vandellas also recorded. This two-fer is as good a starting point for novice Smokey Robinson & the Miracles' fans as one of their greatest-hits collections. And diehards will savor the clean, digitally remastered versions of this great Motown group crooning love songs and calling you to dance in their prime.

Review by Andrew Hamilton, Allmusic.com

Smokey Robinson & The Miracles - 'Make It Happen' (1967) + 'Special Occasion' (1968) 2 LP on 1 CD, Remastered Reissue 2001




Tracklist:

Make It Happen (1967):

01. The Soulful Shack 02:50
02. The Love I Saw In You Was Just A Mirage 03:03
03. My Love For You 02:41
04. I'm On The Outside Looking In 02:39
05. Don't Think It's Me 02:48
06. My Love Is Your Love (Forever) 02:25
07. More Love 02:51
08. After You Put Back The Pieces (I'll Still Have A Broken Heart) 02:44
09. It's A Good Feeling 03:15
10. You Must Be Love 02:37
11. Dancing's All Right 02:35
12. The Tears Of A Clown 03:06

Special Occasion (1968):

13. Yester Love 02:21
14. If You Can Want 02:46
15. Special Occasion 02:25
16. Everybody Needs Love 03:12
17. Just Losing You 02:56
18. Give Her Up 03:13
19. I Heard It Through The Grapevine 03:03
20. Yesterday 03:39
21. Your Mother's Only Daughter 02:27
22. Much Better Off 02:52
23. You Only Build Me Up To Tear Me Down 03:28


Exact Audio Copy V0.99 prebeta 4 from 23. January 2008

Отчёт EAC об извлечении, выполненном 15. апреля 2011, 23:20

Smokey Robinson & The Miracles / Make It Happen & Special Occasion

Дисковод: ATAPI iHES108 2 Adapter: 1 ID: 1

Режим чтения : Достоверность
Использование точного потока : Да
Отключение кэша аудио : Да
Использование указателей C2 : Нет

Коррекция смещения при чтении : 6
Способность читать области Lead-in и Lead-out : Нет
Заполнение пропущенных сэмплов тишиной : Да
Удаление блоков с тишиной в начале и конце : Нет
При вычислениях CRC использовались нулевые сэмплы : Да
Интерфейс : Встроенный Win32-интерфейс для Win NT/2000

Выходной формат : Пользовательский кодировщик
Выбранный битрейт : 1024 kBit/s
Качество : Высокий
Добавление ID3-тэга : Нет
Утилита сжатия : C:\Program Files\Exact Audio Copy\Flac\flac.exe
Дополнительные параметры : -V -8 -T "artist=%a" -T "title=%t" -T "album=%g" -T "date=%y" -T "tracknumber=%n" -T "genre=%m" %s


TOC извлечённого CD

Трек | Старт | Длительность | Начальный сектор | Конечный сектор
––––––––––––––––––––––––––––––––––-
1 | 0:00.00 | 2:50.35 | 0 | 12784
2 | 2:50.35 | 3:03.02 | 12785 | 26511
3 | 5:53.37 | 2:41.28 | 26512 | 38614
4 | 8:34.65 | 2:39.45 | 38615 | 50584
5 | 11:14.35 | 2:48.52 | 50585 | 63236
6 | 14:03.12 | 2:25.25 | 63237 | 74136
7 | 16:28.37 | 2:51.18 | 74137 | 86979
8 | 19:19.55 | 2:44.00 | 86980 | 99279
9 | 22:03.55 | 3:15.17 | 99280 | 113921
10 | 25:18.72 | 2:37.70 | 113922 | 125766
11 | 27:56.67 | 2:35.13 | 125767 | 137404
12 | 30:32.05 | 3:06.27 | 137405 | 151381
13 | 33:38.32 | 2:21.03 | 151382 | 161959
14 | 35:59.35 | 2:46.47 | 161960 | 174456
15 | 38:46.07 | 2:25.00 | 174457 | 185331
16 | 41:11.07 | 3:12.63 | 185332 | 199794
17 | 44:23.70 | 2:56.32 | 199795 | 213026
18 | 47:20.27 | 3:13.70 | 213027 | 227571
19 | 50:34.22 | 3:03.30 | 227572 | 241326
20 | 53:37.52 | 3:39.40 | 241327 | 257791
21 | 57:17.17 | 2:27.35 | 257792 | 268851
22 | 59:44.52 | 2:52.68 | 268852 | 281819
23 | 62:37.45 | 3:28.55 | 281820 | 297474


Характеристики диапазона извлечения и сообщения об ошибках

Выбранный диапазон

Имя файла D:\EAC-FOLDER\Smokey Robinson & The Miracles - Make It Happen & Special Occasion\Smokey Robinson & The Miracles - Make It Happen & Special Occasion\Smokey Robinson & The Miracles - Make It Happen & Special Occasion.wav

Пиковый уровень 100.0 %
Качество диапазона 100.0 %
CRC теста FE4BD6F1
CRC копии FE4BD6F1
Копирование… OK

Ошибок не произошло


AccurateRip: сводка

Трек 1 точность не определена (достоверность 3) [F8639135], AccurateRip вернул [0B7A50D5]
Трек 2 точность не определена (достоверность 3) [B452EB92], AccurateRip вернул [DFD5EE1A]
Трек 3 точность не определена (достоверность 3) [7676B8A4], AccurateRip вернул [A3165C9C]
Трек 4 точность не определена (достоверность 3) [254396EC], AccurateRip вернул [072B22F4]
Трек 5 точность не определена (достоверность 3) [37C591DB], AccurateRip вернул [CFDA3F0B]
Трек 6 точность не определена (достоверность 3) [6415DA94], AccurateRip вернул [A9C24A0C]
Трек 7 точность не определена (достоверность 3) [5B03BA81], AccurateRip вернул [01BDC389]
Трек 8 точность не определена (достоверность 3) [3DFC981B], AccurateRip вернул [2478FCA3]
Трек 9 точность не определена (достоверность 3) [79AAB653], AccurateRip вернул [0AFECEB3]
Трек 10 точность не определена (достоверность 3) [F3C9170F], AccurateRip вернул [FAB1CB9F]
Трек 11 точность не определена (достоверность 3) [9CFF5F3B], AccurateRip вернул [7FF761B3]
Трек 12 точность не определена (достоверность 3) [A143577F], AccurateRip вернул [E86BFA8F]
Трек 13 точность не определена (достоверность 3) [28CF0824], AccurateRip вернул [BF5F6D04]
Трек 14 точность не определена (достоверность 3) [1CDDAA04], AccurateRip вернул [4E28E64C]
Трек 15 точность не определена (достоверность 3) [C3E67325], AccurateRip вернул [22306B85]
Трек 16 точность не определена (достоверность 3) [6F08875A], AccurateRip вернул [C54119CA]
Трек 17 точность не определена (достоверность 3) [79514F2F], AccurateRip вернул [B0532927]
Трек 18 точность не определена (достоверность 3) [A2F2CD26], AccurateRip вернул [449F9016]
Трек 19 точность не определена (достоверность 3) [962D0406], AccurateRip вернул [C73311CE]
Трек 20 точность не определена (достоверность 3) [C3EB26DD], AccurateRip вернул [1B0EB105]
Трек 21 точность не определена (достоверность 3) [9459F06A], AccurateRip вернул [BDC27F82]
Трек 22 точность не определена (достоверность 3) [B0DB716B], AccurateRip вернул [7CA23493]
Трек 23 точность не определена (достоверность 3) [7BF9813A], AccurateRip вернул [5FCFDE82]

Ни один трек не прошёл проверки на точность
В вашей базе может быть иной вариант штамповки диска

Конец отчёта

[CUETools log; Date: 28.03.2018 23:05:35; Version: 2.1.4]
[CTDB TOCID: BbN0NZfx7HSPwSyVgJzxioJoljg-] found.
Track | CTDB Status
1 | (7/7) Accurately ripped
2 | (7/7) Accurately ripped
3 | (7/7) Accurately ripped
4 | (7/7) Accurately ripped
5 | (7/7) Accurately ripped
6 | (7/7) Accurately ripped
7 | (7/7) Accurately ripped
8 | (7/7) Accurately ripped
9 | (7/7) Accurately ripped
10 | (7/7) Accurately ripped
11 | (7/7) Accurately ripped
12 | (7/7) Accurately ripped
13 | (7/7) Accurately ripped
14 | (7/7) Accurately ripped
15 | (7/7) Accurately ripped
16 | (7/7) Accurately ripped
17 | (7/7) Accurately ripped
18 | (7/7) Accurately ripped
19 | (7/7) Accurately ripped
20 | (7/7) Accurately ripped
21 | (7/7) Accurately ripped
22 | (7/7) Accurately ripped
23 | (7/7) Accurately ripped
[AccurateRip ID: 003540e0-0379e5f0-4a0f7e17] found.
Track [ CRC | V2 ] Status
01 [f8639135|e5a9d958] (0+2/7) Accurately ripped
02 [b452eb92|dd762b04] (0+2/7) Accurately ripped
03 [7676b8a4|b7ed1420] (0+2/7) Accurately ripped
04 [254396ec|e50fde06] (0+2/7) Accurately ripped
05 [37c591db|7653d7ff] (0+2/7) Accurately ripped
06 [6415da94|a5581f00] (0+2/7) Accurately ripped
07 [5b03ba81|5dafabbc] (0+2/7) Accurately ripped
08 [3dfc981b|de0cea7d] (0+2/7) Accurately ripped
09 [79aab653|27e11003] (0+2/7) Accurately ripped
10 [f3c9170f|cc8d5f1c] (0+2/7) Accurately ripped
11 [9cff5f3b|9c4087df] (0+2/7) Accurately ripped
12 [a143577f|d0739937] (0+2/7) Accurately ripped
13 [28cf0824|5e8353c3] (0+2/7) Accurately ripped
14 [1cddaa04|f02fc07f] (0+2/7) Accurately ripped
15 [c3e67325|2e04984c] (0+2/7) Accurately ripped
16 [6f08875a|6119c352] (0+2/7) Accurately ripped
17 [79514f2f|6fcf593b] (0+2/7) Accurately ripped
18 [a2f2cd26|f943fb49] (0+2/7) Accurately ripped
19 [962d0406|17ed50c5] (0+2/7) Accurately ripped
20 [c3eb26dd|7acfbfab] (0+2/7) Accurately ripped
21 [9459f06a|590163c7] (0+2/7) Accurately ripped
22 [b0db716b|7f868e61] (0+2/7) Accurately ripped
23 [7bf9813a|b73a8f7a] (0+2/7) Accurately ripped
Offsetted by -664:
01 [0b7a50d5] (3/7) Accurately ripped
02 [dfd5ee1a] (3/7) Accurately ripped
03 [a3165c9c] (3/7) Accurately ripped
04 [072b22f4] (3/7) Accurately ripped
05 [cfda3f0b] (3/7) Accurately ripped
06 [a9c24a0c] (3/7) Accurately ripped
07 [01bdc389] (3/7) Accurately ripped
08 [2478fca3] (3/7) Accurately ripped
09 [0afeceb3] (3/7) Accurately ripped
10 [fab1cb9f] (3/7) Accurately ripped
11 [7ff761b3] (3/7) Accurately ripped
12 [e86bfa8f] (3/7) Accurately ripped
13 [bf5f6d04] (3/7) Accurately ripped
14 [4e28e64c] (3/7) Accurately ripped
15 [22306b85] (3/7) Accurately ripped
16 [c54119ca] (3/7) Accurately ripped
17 [b0532927] (3/7) Accurately ripped
18 [449f9016] (3/7) Accurately ripped
19 [c73311ce] (3/7) Accurately ripped
20 [1b0eb105] (3/7) Accurately ripped
21 [bdc27f82] (3/7) Accurately ripped
22 [7ca23493] (3/7) Accurately ripped
23 [5fcfde82] (3/7) Accurately ripped

Track Peak [ CRC32 ] [W/O NULL] [ LOG ]
– 100,0 [FE4BD6F1] [2BFA5E6C] CRC32
01 89,1 [3C5B8E2C] [ACE3C4A7]
02 89,1 [31B80C14] [0B574FFE]
03 89,1 [99F33621] [3023085B]
04 89,1 [FBE96D34] [48E3F52E]
05 83,1 [3ABDB20C] [C247B7C3]
06 90,0 [BDC58FC3] [438A7509]
07 84,0 [99FA4503] [DA8AB0CA]
08 89,0 [BF38CB8A] [1B9B2806]
09 86,0 [E1B6FC77] [455FD185]
10 89,2 [AF8A893E] [2618A7BE]
11 95,4 [E0E229A9] [F422E4AF]
12 85,8 [59E5F33F] [E98A7EB1]
13 100,0 [BD69E118] [D0691011]
14 100,0 [176DB710] [0AD96EE4]
15 100,0 [DDCD254C] [F054643D]
16 99,9 [22B97E8B] [76145272]
17 100,0 [D8EC7929] [7E100F7F]
18 99,9 [87DFE50E] [460291E2]
19 99,9 [1F3D4F9B] [4ABDD549]
20 99,9 [D382D306] [805BAFAF]
21 99,9 [6506D8CB] [0D93EB52]
22 81,3 [E34B74B3] [449A065A]
23 99,9 [B6E7D687] [E63A181A]

foobar2000 1.2 / Dynamic Range Meter 1.1.1
log date: 2018-03-28 23:06:22

––––––––––––––––––––––––––––––––––––––––
Analyzed: Smokey Robinson & The Miracles / Make It Happen & Special Occasion
––––––––––––––––––––––––––––––––––––––––

DR Peak RMS Duration Track
––––––––––––––––––––––––––––––––––––––––
DR11 -1.00 dB -13.67 dB 2:50 01-The Soulful Shack
DR10 -1.00 dB -12.70 dB 3:03 02-The Love I Saw In You Was Just A Mirage
DR10 -1.00 dB -13.86 dB 2:41 03-My Love For You
DR11 -1.00 dB -14.79 dB 2:40 04-I'm On The Outside Looking In
DR11 -1.60 dB -14.37 dB 2:49 05-Don't Think It's Me
DR11 -0.91 dB -13.32 dB 2:25 06-My Love Is Your Love (Forever)
DR9 -1.50 dB -12.37 dB 2:51 07-More Love
DR11 -1.01 dB -14.89 dB 2:44 08-After You Put Back The Pieces (I'll Still Have A Broken Heart)
DR11 -1.30 dB -13.53 dB 3:15 09-It's A Good Feeling
DR11 -0.98 dB -13.76 dB 2:38 10-You Must Be Love
DR10 -0.41 dB -12.07 dB 2:35 11-Dancing's All Right
DR10 -1.33 dB -13.29 dB 3:06 12-The Tears Of A Clown
DR11 0.00 dB -13.23 dB 2:21 13-Yester Love
DR12 0.00 dB -13.26 dB 2:47 14-If You Can Want
DR12 0.00 dB -13.65 dB 2:25 15-Special Occasion
DR12 0.00 dB -13.80 dB 3:13 16-Everybody Needs Love
DR12 0.00 dB -14.18 dB 2:56 17-Just Losing You
DR13 0.00 dB -14.51 dB 3:14 18-Give Her Up
DR12 0.00 dB -14.01 dB 3:03 19-I Heard It Through The Grapevine
DR14 0.00 dB -19.64 dB 3:40 20-Yesterday
DR13 0.00 dB -15.03 dB 2:27 21-Your Mother's Only Daughter
DR11 -1.80 dB -15.31 dB 2:53 22-Much Better Off
DR12 0.00 dB -15.42 dB 3:29 23-You Only Build Me Up To Tear Me Down
––––––––––––––––––––––––––––––––––––––––

Number of tracks: 23
Official DR value: DR11

Samplerate: 44100 Hz
Channels: 2
Bits per sample: 16
Bitrate: 857 kbps
Codec: FLAC
================================================================================

Smokey Robinson & The Miracles - 'Make It Happen' (1967) + 'Special Occasion' (1968) 2 LP on 1 CD, Remastered Reissue 2001

All thanks to original releaser - jlhjlh

More interesting music in My Blog