Subcategories

Sonny Landreth - Down In Louisiana (1985) Reissue 2001

Posted By: Designol
Sonny Landreth - Down In Louisiana (1985) Reissue 2001

Sonny Landreth - Down In Louisiana (1985) Reissue 2001
XLD | FLAC | Image (Cue&Log) ~ 258 Mb | Mp3 (CBR320) ~ 105 Mb | Scans included
Genre: Louisiana Blues, Cajun, Zydeco | Label: Acadia | # ACA 8009 | Time: 00:37:05

This is music from the Saturday night dances in Louisiana; the hot and sweaty have a good time dancing, drinking, and looking at all the people. Do not look for the Royal Albert Hall production on this CD, as on his stunning South of I-10 with its myriad "guest artists." The feel for this music is shown by someone who grew up with it. Listen to the respect and feeling he gives to Clifton Chenier's "If I Ever Get Lucky." Try to keep your body and feet from bouncing to the beat of "Sugar Cane" or "Little Linda." Doesn't your eye start to look around for a dance partner, even though you're in your living room? There is solid playing throughout this CD even though the sound is a bit thin at times and the big-name guests are nowhere to be found. It is a solid effort that spans the musical boundaries of all of Louisiana. Cajun, zydeco, blues, and country are all blended together so they are no longer confining, but a homogenous mix. A solid effort.

Review by Bob Gottlieb, Allmusic.com

Sonny Landreth - Down In Louisiana (1985) Reissue 2001



Tracklist:

01. Ay Ai Ai (03:11)
02. Sugar Cane (03:02)
03. I Had A Dream (04:04)
04. Without My Baby (03:06)
05. Congo Square (05:17)
06. Checking Up On My Baby (03:12)
07. The Parish Line (03:15)
08. Little India (03:47)
09. If I Ever Get Lucky (04:44)
10. Everybody's Breakin' Everybody's Heart (03:24)


X Lossless Decoder version 20111214 (138.1)

XLD extraction logfile from 2012-01-12 23:41:39 +0200

Sonny Landreth / Down In Louisiana

Used drive : MATSHITA DVD-R UJ-898 (revision HC09)

Ripper mode : XLD Secure Ripper
Disable audio cache : OK for the drive with a cache less than 1375KiB
Make use of C2 pointers : NO
Read offset correction : 102
Max retry count : 100
Gap status : Analyzed, Appended

TOC of the extracted CD
Track | Start | Length | Start sector | End sector
––––––––––––––––––––––––––––-
1 | 00:00:00 | 03:11:60 | 0 | 14384
2 | 03:11:60 | 03:02:02 | 14385 | 28036
3 | 06:13:62 | 04:04:10 | 28037 | 46346
4 | 10:17:72 | 03:06:00 | 46347 | 60296
5 | 13:23:72 | 05:17:13 | 60297 | 84084
6 | 18:41:10 | 03:12:07 | 84085 | 98491
7 | 21:53:17 | 03:15:63 | 98492 | 113179
8 | 25:09:05 | 03:47:32 | 113180 | 130236
9 | 28:56:37 | 04:44:48 | 130237 | 151584
10 | 33:41:10 | 03:24:48 | 151585 | 166932

AccurateRip Summary
Track 01 : OK (confidence 1)
Track 02 : OK (confidence 1)
Track 03 : OK (confidence 1)
Track 04 : OK (confidence 1)
Track 05 : OK (confidence 1)
Track 06 : OK (confidence 1)
Track 07 : OK (confidence 1)
Track 08 : OK (confidence 1)
Track 09 : OK (confidence 1)
Track 10 : OK (confidence 1)
->All tracks accurately ripped.

All Tracks
Filename : /Volumes/NO NAME/Sonny Landreth Down In Louisiana(1985)/01 Sonny Landreth - Down In Louisiana.flac
Album gain : -4.84 dB
Peak : 0.977234
CRC32 hash (test run) : B72B9AC3
CRC32 hash : B72B9AC3
CRC32 hash (skip zero) : 25672560
Statistics
Read error : 0
Jitter error (maybe fixed) : 0
Retry sector count : 0
Damaged sector count : 0

Track 01
Pre-gap length : 00:02:00

Track gain : -5.54 dB
Peak : 0.977234
CRC32 hash (test run) : AE319B6D
CRC32 hash : AE319B6D
CRC32 hash (skip zero) : 004412A0
AccurateRip signature : 02A84ADE
->Accurately ripped! (confidence 1)
Statistics
Read error : 0
Jitter error (maybe fixed) : 0
Retry sector count : 0
Damaged sector count : 0

Track 02

Track gain : -4.89 dB
Peak : 0.977234
CRC32 hash (test run) : 0F867308
CRC32 hash : 0F867308
CRC32 hash (skip zero) : C26DD469
AccurateRip signature : 175D82DD
->Accurately ripped! (confidence 1)
Statistics
Read error : 0
Jitter error (maybe fixed) : 0
Retry sector count : 0
Damaged sector count : 0

Track 03

Track gain : -3.30 dB
Peak : 0.977234
CRC32 hash (test run) : A2EB75FA
CRC32 hash : A2EB75FA
CRC32 hash (skip zero) : 9BE4A20B
AccurateRip signature : F1633980
->Accurately ripped! (confidence 1)
Statistics
Read error : 0
Jitter error (maybe fixed) : 0
Retry sector count : 0
Damaged sector count : 0

Track 04

Track gain : -4.96 dB
Peak : 0.977234
CRC32 hash (test run) : C5312DD4
CRC32 hash : C5312DD4
CRC32 hash (skip zero) : 561696E5
AccurateRip signature : 8894D668
->Accurately ripped! (confidence 1)
Statistics
Read error : 0
Jitter error (maybe fixed) : 0
Retry sector count : 0
Damaged sector count : 0

Track 05

Track gain : -5.13 dB
Peak : 0.977234
CRC32 hash (test run) : CCE40142
CRC32 hash : CCE40142
CRC32 hash (skip zero) : 448AF8DA
AccurateRip signature : 8965357A
->Accurately ripped! (confidence 1)
Statistics
Read error : 0
Jitter error (maybe fixed) : 0
Retry sector count : 0
Damaged sector count : 0

Track 06

Track gain : -5.07 dB
Peak : 0.977234
CRC32 hash (test run) : A6C3D194
CRC32 hash : A6C3D194
CRC32 hash (skip zero) : C460646C
AccurateRip signature : D8EA958D
->Accurately ripped! (confidence 1)
Statistics
Read error : 0
Jitter error (maybe fixed) : 0
Retry sector count : 0
Damaged sector count : 0

Track 07

Track gain : -4.80 dB
Peak : 0.977234
CRC32 hash (test run) : E3DA39F8
CRC32 hash : E3DA39F8
CRC32 hash (skip zero) : 866D9DC9
AccurateRip signature : DCF106D9
->Accurately ripped! (confidence 1)
Statistics
Read error : 0
Jitter error (maybe fixed) : 0
Retry sector count : 0
Damaged sector count : 0

Track 08

Track gain : -4.10 dB
Peak : 0.977234
CRC32 hash (test run) : 484558DB
CRC32 hash : 484558DB
CRC32 hash (skip zero) : 3907FAFA
AccurateRip signature : 999A83C0
->Accurately ripped! (confidence 1)
Statistics
Read error : 0
Jitter error (maybe fixed) : 0
Retry sector count : 0
Damaged sector count : 0

Track 09

Track gain : -4.41 dB
Peak : 0.977234
CRC32 hash (test run) : 67680A3E
CRC32 hash : 67680A3E
CRC32 hash (skip zero) : 2E6266D3
AccurateRip signature : FADDABA1
->Accurately ripped! (confidence 1)
Statistics
Read error : 0
Jitter error (maybe fixed) : 0
Retry sector count : 0
Damaged sector count : 0

Track 10

Track gain : -5.20 dB
Peak : 0.977234
CRC32 hash (test run) : 27269D77
CRC32 hash : 27269D77
CRC32 hash (skip zero) : 963DF970
AccurateRip signature : 67141F67
->Accurately ripped! (confidence 1)
Statistics
Read error : 0
Jitter error (maybe fixed) : 0
Retry sector count : 0
Damaged sector count : 0

No errors occurred

End of status report

foobar2000 1.2 / Dynamic Range Meter 1.1.1
log date: 2017-01-25 16:39:46

––––––––––––––––––––––––––––––––––––––––
Analyzed: Sonny Landreth / Down In Louisiana
––––––––––––––––––––––––––––––––––––––––

DR Peak RMS Duration Track
––––––––––––––––––––––––––––––––––––––––
DR12 -0.20 dB -13.91 dB 3:12 01-Ay Ai Ai
DR12 -0.20 dB -13.19 dB 3:02 02-Sugar Cane
DR14 -0.20 dB -15.31 dB 4:04 03-I Had A Dream
DR13 -0.20 dB -14.03 dB 3:06 04-Without My Baby
DR12 -0.20 dB -14.71 dB 5:17 05-Congo Square
DR12 -0.20 dB -13.86 dB 3:12 06-Checking Up On My Baby
DR13 -0.20 dB -14.88 dB 3:16 07-The Parish Line
DR13 -0.20 dB -14.94 dB 3:47 08-Little India
DR12 -0.20 dB -14.08 dB 4:45 09-If I Ever Get Lucky
DR13 -0.20 dB -14.32 dB 3:25 10-Everybody's Breakin' Everybody's Heart
––––––––––––––––––––––––––––––––––––––––

Number of tracks: 10
Official DR value: DR13

Samplerate: 44100 Hz
Channels: 2
Bits per sample: 16
Bitrate: 871 kbps
Codec: FLAC
================================================================================

Sonny Landreth - Down In Louisiana (1985) Reissue 2001

Sonny Landreth - Down In Louisiana (1985) Reissue 2001