Subcategories
Please register here if you want to download anything!

If domain in your address bar is different from the list below
PLEASE LEAVE THAT SITE IMMEDIATELY
❗IT'S A DANGEROUS FAKE❗



Spicy Magazines for Men! ;-)

The Sons of Champlin - Loosen Up Naturally (1969) + The Sons (1969) + Follow Your Heart (1971) 3 LPs on 2 CDs, Remastered 2014

Posted By: Designol
The Sons of Champlin - Loosen Up Naturally (1969) + The Sons (1969) + Follow Your Heart (1971) 3 LPs on 2 CDs, Remastered 2014

The Sons of Champlin - Loosen Up Naturally (1969) + The Sons (1969) + Follow Your Heart (1971)
3 LPs on 2 CDs, Remastered Reissue 2014

EAC | FLAC | Image (Cue&Log) ~ 922 Mb | Mp3 (CBR320) ~ 332 Mb | Scans ~ 30 Mb
Psychedelic Rock, R&B, Early Jazz Rock | Label: BSO | # BGOCD1135 | Time: 02:24:32

This 2014 three-fer contains Loosen Up Naturally, The Sons, and Follow Your Heart, the albums the Sons of Champlin recorded between 1969 and 1971. These are also the Sons' first three albums and it's possible to hear them stretch out with each subsequent record, deepening their grooves, highlighting their jazz inflections, and eventually folding in a rather smooth, sun-kissed gloss. Unlike many of their San Franciscan brethren, they weren't particularly hard-edged or Dionysian: they had a stronger sense of soul and rhythm, they reveled in feel over texture. This can mean that all three of these records meander a bit – songwriting wasn't a Sons specialty – but there's an open-hearted attitude to the trinity that remains appealing.

Review by Stephen Thomas Erlewine, Allmusic.com

The Sons of Champlin - Loosen Up Naturally (1969) + The Sons (1969) + Follow Your Heart (1971) 3 LPs on 2 CDs, Remastered 2014



Tracklist:

CD1:

Loosen Up Naturally (1969):

01. 1982-A (03:55)
02. The thing to do (04:51)
03. Misery isn't free (04:20)
04. Rooftop (03:48)
05. Everywhere (03:46)
06. Don't fight it, do it! (04:19)
07. Get high (07:49)
08. Black and blue rainbow (03:23)
09. Hello sunlight (04:28)
10. Things are gettin' better (05:56)
11. Freedom (14:48)

The Sons (1969):

12. Love of a woman (07:53)
13. Terry's tune (03:46)

CD2:

01. Boomp boomp chop (10:08)
02. Why do people run from the rain (03:28)
03. It's time (03:57)
04. Country girl (01:49)
05. You can fly (11:38)

Follow Your Heart (1971):

06. Before you right now (05:36)
07. Children know (03:32)
08. Hey children (04:52)
09. Follow your heart (05:49)
10. Beside you (01:47)
11. Headway (01:50)
12. The child continued (07:36)
13. A sound love (03:37)
14. Well done (05:38)


Exact Audio Copy V1.1 from 23. June 2015

Отчёт EAC об извлечении, выполненном 3. февраля 2016, 19:10

The Sons Of Champlin / Loosen up naturally / The sons

Дисковод: ASUS DRW-24B3ST Adapter: 0 ID: 0

Режим чтения : Достоверность
Использование точного потока : Да
Отключение кэша аудио : Да
Использование указателей C2 : Нет

Коррекция смещения при чтении : 6
Способность читать области Lead-in и Lead-out : Нет
Заполнение пропущенных сэмплов тишиной : Да
Удаление блоков с тишиной в начале и конце : Нет
При вычислениях CRC использовались нулевые сэмплы : Да
Интерфейс : Установленный внешний ASPI-интерфейс

Выходной формат : Пользовательский кодировщик
Выбранный битрейт : 896 kBit/s
Качество : Высокий
Добавление ID3-тега : Нет
Утилита сжатия : C:\Program Files (x86)\Exact Audio Copy\FLAC\FLAC.EXE
Дополнительные параметры : -6 -V -T "ARTIST=%artist%" -T "TITLE=%title%" -T "ALBUM=%albumtitle%" -T "DATE=%year%" -T "TRACKNUMBER=%tracknr%" -T "GENRE=%genre%" -T "COMMENT=%comment%" -T "BAND=%albuminterpret%" -T "ALBUMARTIST=%albuminterpret%" -T "COMPOSER=%composer%" %haslyrics%–tag-from-file=LYRICS="%lyricsfile%"%haslyrics% -T "DISCNUMBER=%cdnumber%" -T "TOTALDISCS=%totalcds%" -T "TOTALTRACKS=%numtracks%" %hascover%–picture="%coverfile%"%hascover% %source% -o %dest%


TOC извлечённого CD

Трек | Старт | Длительность | Начальный сектор | Конечный сектор
––––––––––––––––––––––––––––––––––-
1 | 0:00.00 | 3:55.54 | 0 | 17678
2 | 3:55.54 | 4:51.08 | 17679 | 39511
3 | 8:46.62 | 4:20.64 | 39512 | 59075
4 | 13:07.51 | 3:48.25 | 59076 | 76200
5 | 16:56.01 | 3:46.67 | 76201 | 93217
6 | 20:42.68 | 4:19.20 | 93218 | 112662
7 | 25:02.13 | 7:49.45 | 112663 | 147882
8 | 32:51.58 | 3:23.52 | 147883 | 163159
9 | 36:15.35 | 4:28.02 | 163160 | 183261
10 | 40:43.37 | 5:56.44 | 183262 | 210005
11 | 46:40.06 | 14:48.33 | 210006 | 276638
12 | 61:28.39 | 7:53.39 | 276639 | 312152
13 | 69:22.03 | 3:46.06 | 312153 | 329108


Характеристики диапазона извлечения и сообщения об ошибках

Выбранный диапазон

Имя файла E:\Torrents\The Sons Of Champlin - 1969-71 - Loosen up naturally - The sons - Follow Your Heart\CD1\The Sons Of Champlin - Loosen up naturally , The sons.wav

Пиковый уровень 100.0 %
Скорость извлечения 9.9 X
Качество диапазона 100.0 %
CRC теста DA826A3F
CRC копии DA826A3F
Копирование… OK

Ошибок не произошло

Конец отчёта

==== Контрольная сумма отчёта FFD484E182FD0D00A47FE051A25C0D76C84E6C1FC7C9D96A68E48EC86ADD8C71 ====

foobar2000 1.2 / Dynamic Range Meter 1.1.1
log date: 2016-02-04 20:17:53

––––––––––––––––––––––––––––––––––––––––
Analyzed: The Sons Of Champlin / Loosen up naturally / The sons
––––––––––––––––––––––––––––––––––––––––

DR Peak RMS Duration Track
––––––––––––––––––––––––––––––––––––––––
DR9 -1.50 dB -12.58 dB 3:56 01-1982-A
DR8 -1.50 dB -11.35 dB 4:51 02-The thing to do
DR8 -1.50 dB -11.55 dB 4:21 03-Misery isn't free
DR8 -1.50 dB -11.47 dB 3:48 04-Rooftop
DR8 -1.50 dB -10.66 dB 3:47 05-Everywhere
DR8 -1.50 dB -11.96 dB 4:19 06-Don't fight it, do it!
DR10 -1.50 dB -14.13 dB 7:50 07-Get high
DR9 -1.50 dB -12.38 dB 3:24 08-Black and blue rainbow
DR8 -1.50 dB -11.88 dB 4:28 09-Hello sunlight
DR8 -1.50 dB -11.77 dB 5:57 10-Things are gettin' better
DR8 -1.00 dB -11.64 dB 14:48 11-Freedom
DR11 0.00 dB -14.15 dB 7:54 12-Love of a woman
DR13 -1.19 dB -17.51 dB 3:46 13-Terry's tune
––––––––––––––––––––––––––––––––––––––––

Number of tracks: 13
Official DR value: DR9

Samplerate: 44100 Hz
Channels: 2
Bits per sample: 16
Bitrate: 902 kbps
Codec: FLAC
================================================================================


Exact Audio Copy V1.1 from 23. June 2015

Отчёт EAC об извлечении, выполненном 3. февраля 2016, 19:31

The Sons Of Champlin / The sons / Follow your heart

Дисковод: ASUS DRW-24B3ST Adapter: 0 ID: 0

Режим чтения : Достоверность
Использование точного потока : Да
Отключение кэша аудио : Да
Использование указателей C2 : Нет

Коррекция смещения при чтении : 6
Способность читать области Lead-in и Lead-out : Нет
Заполнение пропущенных сэмплов тишиной : Да
Удаление блоков с тишиной в начале и конце : Нет
При вычислениях CRC использовались нулевые сэмплы : Да
Интерфейс : Установленный внешний ASPI-интерфейс

Выходной формат : Пользовательский кодировщик
Выбранный битрейт : 896 kBit/s
Качество : Высокий
Добавление ID3-тега : Нет
Утилита сжатия : C:\Program Files (x86)\Exact Audio Copy\FLAC\FLAC.EXE
Дополнительные параметры : -6 -V -T "ARTIST=%artist%" -T "TITLE=%title%" -T "ALBUM=%albumtitle%" -T "DATE=%year%" -T "TRACKNUMBER=%tracknr%" -T "GENRE=%genre%" -T "COMMENT=%comment%" -T "BAND=%albuminterpret%" -T "ALBUMARTIST=%albuminterpret%" -T "COMPOSER=%composer%" %haslyrics%–tag-from-file=LYRICS="%lyricsfile%"%haslyrics% -T "DISCNUMBER=%cdnumber%" -T "TOTALDISCS=%totalcds%" -T "TOTALTRACKS=%numtracks%" %hascover%–picture="%coverfile%"%hascover% %source% -o %dest%


TOC извлечённого CD

Трек | Старт | Длительность | Начальный сектор | Конечный сектор
––––––––––––––––––––––––––––––––––-
1 | 0:00.00 | 10:08.35 | 0 | 45634
2 | 10:08.35 | 3:28.70 | 45635 | 61304
3 | 13:37.30 | 3:57.07 | 61305 | 79086
4 | 17:34.37 | 1:49.52 | 79087 | 87313
5 | 19:24.14 | 11:38.23 | 87314 | 139686
6 | 31:02.37 | 5:36.69 | 139687 | 164955
7 | 36:39.31 | 3:32.56 | 164956 | 180911
8 | 40:12.12 | 4:52.03 | 180912 | 202814
9 | 45:04.15 | 5:49.54 | 202815 | 229043
10 | 50:53.69 | 1:47.45 | 229044 | 237113
11 | 52:41.39 | 1:50.22 | 237114 | 245385
12 | 54:31.61 | 7:36.02 | 245386 | 279587
13 | 62:07.63 | 3:37.56 | 279588 | 295918
14 | 65:45.44 | 5:38.58 | 295919 | 321326


Характеристики диапазона извлечения и сообщения об ошибках

Выбранный диапазон

Имя файла E:\Torrents\The Sons Of Champlin - 1969-71 - Loosen up naturally - The sons - Follow Your Heart\CD2\The Sons Of Champlin - The sons , Follow your heart.wav

Пиковый уровень 100.0 %
Скорость извлечения 9.7 X
Качество диапазона 100.0 %
CRC теста 14BA65E4
CRC копии 14BA65E4
Копирование… OK

Ошибок не произошло

Конец отчёта

==== Контрольная сумма отчёта D60CF4E9F20C2B84934596E1C5946951DA34FD520122BFC81CD84B7680819E0B ====

foobar2000 1.2 / Dynamic Range Meter 1.1.1
log date: 2016-02-04 20:18:16

––––––––––––––––––––––––––––––––––––––––
Analyzed: The Sons Of Champlin / The sons / Follow your heart
––––––––––––––––––––––––––––––––––––––––

DR Peak RMS Duration Track
––––––––––––––––––––––––––––––––––––––––
DR10 0.00 dB -12.70 dB 10:08 01-Boomp boomp chop
DR12 0.00 dB -16.11 dB 3:29 02-Why do people run from the rain
DR10 0.00 dB -10.78 dB 3:57 03-It's time
DR12 -1.97 dB -18.81 dB 1:50 04-Country girl
DR9 0.00 dB -12.47 dB 11:38 05-You can fly
DR9 -0.08 dB -11.20 dB 5:37 06-Before you right now
DR9 -0.10 dB -13.56 dB 3:33 07-Children know
DR10 -0.10 dB -12.57 dB 4:52 08-Hey children
DR9 -0.10 dB -11.11 dB 5:50 09-Follow your heart
DR11 -0.10 dB -14.72 dB 1:48 10-Beside you
DR8 -0.08 dB -9.57 dB 1:50 11-Headway
DR9 -0.10 dB -11.79 dB 7:36 12-The child continued
DR11 -0.10 dB -14.60 dB 3:38 13-A sound love
DR10 -0.10 dB -13.24 dB 5:39 14-Well done
––––––––––––––––––––––––––––––––––––––––

Number of tracks: 14
Official DR value: DR10

Samplerate: 44100 Hz
Channels: 2
Bits per sample: 16
Bitrate: 879 kbps
Codec: FLAC
================================================================================

The Sons of Champlin - Loosen Up Naturally (1969) + The Sons (1969) + Follow Your Heart (1971) 3 LPs on 2 CDs, Remastered 2014

The Sons of Champlin - Loosen Up Naturally (1969) + The Sons (1969) + Follow Your Heart (1971) 3 LPs on 2 CDs, Remastered 2014