Subcategories

Split Enz - Split Enz 1980-1984 (1992) 6 CD Box Set

Posted By: Designol
Split Enz - Split Enz 1980-1984 (1992) 6 CD Box Set

Split Enz - Split Enz 1980-1984 (1992) 6 CD Box Set
EAC | FLAC | Image (Cue&Log) ~ 1.71 Gb (incl 5%) | Complete Scans | Time: 04:04:16
New Wave, Art Rock, Pop Rock | Label: Mushroom | # D80946

This Australian-only box set covers the period of the band's peak in popularity (1980-1984). Beginning with True Colours and ending with their swan song, See Ya Round, it shows the band in perfect pop form. While this is too ambitious for the casual fan, the devoted will find this essential for considerably improved sound and the bonus disc of previously unreleased tracks.

Review by Chris Woodstra, Allmusic.com

Split Enz - Split Enz 1980-1984 (1992) 6 CD Box Set






Split Enz - Split Enz 1980-1984 (1992) 6 CD Box Set

Split Enz - True Colours (1980)
EAC | FLAC | Image (Cue&Log) ~ 288 Mb | 00:40:01 | Scans included

Split Enz found their place in new wave with True Colours, shedding the eccentricities and excesses of their past in favor of bright, highly memorable, Beatlesque pop. The album also marked Neil Finn's emergence as a great songcraftsman – his infectious "I Got You" helped to push the album and the band to international success. Both the single and the album stand as high points of the new wave era. As part of its marketing, the album was released in several different-colored covers with laser-etched vinyl.

Chris Woodstra, Allmusic.com

Tracklist:

01. Shark Attack (02:58)
02. I Got You (03:30)
03. What's The Matter With You (03:11)
04. Double Happy (03:28)
05. I Wouldn't Dream Of It (03:25)
06. I Hope I Never (04:37)
07. Nobody Takes Me Seriously (03:30)
08. Missing Person (03:38)
09. Poor Boy (03:27)
10. How Can I Resist Her (03:32)
11. The Choral Sea (04:41)


Exact Audio Copy V0.99 prebeta 5 from 4. May 2009

EAC extraction logfile from 6. December 2010, 8:42

Split Enz / True Colours

Used drive : TEAC CD-W552E Adapter: 1 ID: 0

Read mode : Secure
Utilize accurate stream : Yes
Defeat audio cache : Yes
Make use of C2 pointers : No

Read offset correction : 6
Overread into Lead-In and Lead-Out : No
Fill up missing offset samples with silence : Yes
Delete leading and trailing silent blocks : No
Null samples used in CRC calculations : Yes
Used interface : Installed external ASPI interface

Used output format : Internal WAV Routines
Sample format : 44.100 Hz; 16 Bit; Stereo


TOC of the extracted CD

Track | Start | Length | Start sector | End sector
––––––––––––––––––––––––––––-
1 | 0:00.00 | 2:58.12 | 0 | 13361
2 | 2:58.12 | 3:30.10 | 13362 | 29121
3 | 6:28.22 | 3:11.23 | 29122 | 43469
4 | 9:39.45 | 3:28.10 | 43470 | 59079
5 | 13:07.55 | 3:25.65 | 59080 | 74519
6 | 16:33.45 | 4:37.55 | 74520 | 95349
7 | 21:11.25 | 3:30.42 | 95350 | 111141
8 | 24:41.67 | 3:38.43 | 111142 | 127534
9 | 28:20.35 | 3:27.37 | 127535 | 143096
10 | 31:47.72 | 3:32.38 | 143097 | 159034
11 | 35:20.35 | 4:41.22 | 159035 | 180131


Range status and errors

Selected range

Filename C:\Program Files\BitComet\Downloads\Split Enz\07 - Split Enz - True Colours (1980)\Split Enz - True Colours.wav

Peak level 100.0 %
Range quality 100.0 %
Copy CRC 08C96F91
Copy OK

No errors occurred


AccurateRip summary

Track 1 accurately ripped (confidence 1) [CBF1DBE8]
Track 2 accurately ripped (confidence 2) [98374950]
Track 3 accurately ripped (confidence 1) [98D92BD5]
Track 4 accurately ripped (confidence 1) [8CE800D4]
Track 5 accurately ripped (confidence 1) [F3FA84E2]
Track 6 accurately ripped (confidence 1) [70CC5513]
Track 7 accurately ripped (confidence 1) [4E9CE23E]
Track 8 accurately ripped (confidence 1) [8475C473]
Track 9 accurately ripped (confidence 1) [50A94072]
Track 10 accurately ripped (confidence 1) [4ADA21EE]
Track 11 accurately ripped (confidence 1) [7CB0A937]

All tracks accurately ripped

End of status report

foobar2000 1.2 / Dynamic Range Meter 1.1.1
log date: 2016-08-31 23:41:13

––––––––––––––––––––––––––––––––––––––––
Analyzed: Split Enz / True Colours
––––––––––––––––––––––––––––––––––––––––

DR Peak RMS Duration Track
––––––––––––––––––––––––––––––––––––––––
DR13 -1.12 dB -15.98 dB 2:58 01-Shark Attack
DR12 0.00 dB -15.15 dB 3:30 02-I Got You
DR11 -2.33 dB -16.13 dB 3:11 03-What's The Matter With You
DR14 -0.93 dB -17.28 dB 3:28 04-Double Happy
DR12 -1.92 dB -16.40 dB 3:26 05-I Wouldn't Dream Of It
DR10 -3.93 dB -17.80 dB 4:38 06-I Hope I Never
DR11 -0.41 dB -14.00 dB 3:31 07-Nobody Takes Me Seriously
DR11 -0.40 dB -13.59 dB 3:39 08-Missing Person
DR12 -0.40 dB -14.82 dB 3:27 09-Poor Boy
DR12 -0.40 dB -14.66 dB 3:33 10-How Can I Resist Her
DR12 -0.40 dB -13.94 dB 4:41 11-The Choral Sea
––––––––––––––––––––––––––––––––––––––––

Number of tracks: 11
Official DR value: DR12

Samplerate: 44100 Hz
Channels: 2
Bits per sample: 16
Bitrate: 872 kbps
Codec: FLAC
================================================================================




Split Enz - Split Enz 1980-1984 (1992) 6 CD Box Set

Split Enz - Corroboree (1981)
EAC | FLAC | Image (Cue&Log) ~ 281 Mb | 00:37:29 | Scans included

Because of the hurried schedule of newfound international success, the follow-up to True Colours suffered. Waiata follows much of the same formula of its predecessor, though in a slightly darker form that often lacks the punch that made True Colours great. Despite a couple of classic singles – "One Step Ahead" and "History Never Repeats" – and a handful of other inspired tracks, the album marks the band's first lateral move. "Waiata" is the Maori word for "party" (the album was given the aboriginal party title, Corroboree, in Australia). Following in the trend of True Colours, A&M issued three different colored covers for the worldwide release.

Chris Woodstra, Allmusic.com

Tracklist:

01. Hard Act To Follow (03:17)
02. One Step Ahead (02:51)
03. I Don't Wanna Dance (03:33)
04. Iris (02:49)
05. Wail (02:52)
06. Clumsy (03:31)
07. History Never Repeats (02:58)
08. Walking Through The Ruins (04:05)
09. Ships (03:01)
10. Ghost Girl (04:25)
11. Albert Of India (04:03)


Exact Audio Copy V0.99 prebeta 5 from 4. May 2009

EAC extraction logfile from 6. December 2010, 8:52

Split Enz / Corroboree

Used drive : PLEXTOR DVDR PX-810SA Adapter: 3 ID: 1

Read mode : Secure
Utilize accurate stream : Yes
Defeat audio cache : Yes
Make use of C2 pointers : No

Read offset correction : 48
Overread into Lead-In and Lead-Out : No
Fill up missing offset samples with silence : Yes
Delete leading and trailing silent blocks : No
Null samples used in CRC calculations : Yes
Used interface : Installed external ASPI interface

Used output format : Internal WAV Routines
Sample format : 44.100 Hz; 16 Bit; Stereo


TOC of the extracted CD

Track | Start | Length | Start sector | End sector
––––––––––––––––––––––––––––-
1 | 0:00.00 | 3:17.25 | 0 | 14799
2 | 3:17.25 | 2:51.62 | 14800 | 27686
3 | 6:09.12 | 3:33.25 | 27687 | 43686
4 | 9:42.37 | 2:49.13 | 43687 | 56374
5 | 12:31.50 | 2:52.12 | 56375 | 69286
6 | 15:23.62 | 3:31.13 | 69287 | 85124
7 | 18:55.00 | 2:58.00 | 85125 | 98474
8 | 21:53.00 | 4:05.15 | 98475 | 116864
9 | 25:58.15 | 3:01.72 | 116865 | 130511
10 | 29:00.12 | 4:25.50 | 130512 | 150436
11 | 33:25.62 | 4:03.43 | 150437 | 168704


Range status and errors

Selected range

Filename C:\Program Files\BitComet\Downloads\Split Enz\08 - Split Enz - Corroboree (1981)\Split Enz - Corroboree.wav

Peak level 100.0 %
Range quality 99.9 %
Copy CRC 430F2F3F
Copy OK

No errors occurred


AccurateRip summary

Track 1 accurately ripped (confidence 13) [FDE7B0C4]
Track 2 accurately ripped (confidence 14) [B7ED5EFB]
Track 3 accurately ripped (confidence 14) [C67BD675]
Track 4 accurately ripped (confidence 14) [0DB37AD5]
Track 5 accurately ripped (confidence 14) [C9F7051E]
Track 6 accurately ripped (confidence 14) [B5F0C0F7]
Track 7 accurately ripped (confidence 14) [EA61056A]
Track 8 accurately ripped (confidence 14) [BB5685A1]
Track 9 accurately ripped (confidence 13) [9A53FF64]
Track 10 accurately ripped (confidence 14) [C58E1BC9]
Track 11 accurately ripped (confidence 14) [3EA3E98B]

All tracks accurately ripped

End of status report

foobar2000 1.2 / Dynamic Range Meter 1.1.1
log date: 2016-08-31 23:41:29

––––––––––––––––––––––––––––––––––––––––
Analyzed: Split Enz / Corroboree
––––––––––––––––––––––––––––––––––––––––

DR Peak RMS Duration Track
––––––––––––––––––––––––––––––––––––––––
DR12 0.00 dB -14.72 dB 3:17 01-Hard Act To Follow
DR11 -1.05 dB -14.83 dB 2:52 02-One Step Ahead
DR10 -0.83 dB -13.62 dB 3:33 03-I Don't Wanna Dance
DR12 -1.06 dB -15.97 dB 2:49 04-Iris
DR12 -0.77 dB -13.69 dB 2:52 05-Wail
DR12 0.00 dB -14.39 dB 3:31 06-Clumsy
DR12 -0.59 dB -14.04 dB 2:58 07-History Never Repeats
DR11 -0.83 dB -13.83 dB 4:05 08-Walking Through The Ruins
DR12 -1.88 dB -16.26 dB 3:02 09-Ships
DR13 0.00 dB -15.29 dB 4:26 10-Ghost Girl
DR11 -4.48 dB -17.69 dB 4:04 11-Albert Of India
––––––––––––––––––––––––––––––––––––––––

Number of tracks: 11
Official DR value: DR12

Samplerate: 44100 Hz
Channels: 2
Bits per sample: 16
Bitrate: 906 kbps
Codec: FLAC
================================================================================




Split Enz - Split Enz 1980-1984 (1992) 6 CD Box Set

Split Enz - Time And Tide (1982)
EAC | FLAC | Image (Cue&Log) ~ 322 Mb | 00:41:29 | Scans included

Time and Tide stands as Split Enz's creative peak and most fully realized effort. On previous albums, the band remained distant and removed, only revealing what little they did between the lines; for Time and Tide, Tim and Neil Finn, while still clearly standing as outsiders, opened up, giving a rare glimpse at their feelings and thought processes. Tim exorcised demons and fears in the funky workout of "Dirty Creature," experienced a joyful communion with nature in "Never Ceases to Amaze Me," outlined a global view in "Small World," and explored ancient folk music with "Six Months in a Leaky Boat" and "Haul Away," an autobiographical sea shanty. Neil, on the other hand, gave darkly evocative yet slightly more abstract accounts in "Giant Heartbeat," "Take a Walk," and the claustrophobic "Log Cabin Fever" while still producing an infectious rocker in "Hello Sandy Allen." In addition to the peaks in songwriting, the Enz never sounded tighter as a band, with lean, tasteful arrangements. The result is a timeless, thoroughly consistent album and the high point of the Enz catalog.

Chris Woodstra, Allmusic.com

Tracklist:

01. Dirty Creature (04:02)
02. Giant Heartbeat (03:56)
03. Hello Sandy Allen (03:50)
04. Never Ceases To Amaze Me (03:03)
05. Lost For Words (03:00)
06. Small World (03:35)
07. Take A Walk (03:34)
08. Pioneer (01:30)
09. Six Months In A Leaky Boat (04:20)
10. Haul Away (02:26)
11. Log Cabin Fever (04:34)
12. Make Sense Of It (03:33)


Exact Audio Copy V0.99 prebeta 5 from 4. May 2009

EAC extraction logfile from 6. December 2010, 10:03

Split Enz / Time And Tide

Used drive : PLEXTOR DVDR PX-810SA Adapter: 3 ID: 1

Read mode : Secure
Utilize accurate stream : Yes
Defeat audio cache : Yes
Make use of C2 pointers : No

Read offset correction : 48
Overread into Lead-In and Lead-Out : No
Fill up missing offset samples with silence : Yes
Delete leading and trailing silent blocks : No
Null samples used in CRC calculations : Yes
Used interface : Installed external ASPI interface

Used output format : Internal WAV Routines
Sample format : 44.100 Hz; 16 Bit; Stereo


TOC of the extracted CD

Track | Start | Length | Start sector | End sector
––––––––––––––––––––––––––––-
1 | 0:00.00 | 4:02.25 | 0 | 18174
2 | 4:02.25 | 3:57.00 | 18175 | 35949
3 | 7:59.25 | 3:50.00 | 35950 | 53199
4 | 11:49.25 | 3:03.62 | 53200 | 66986
5 | 14:53.12 | 3:00.00 | 66987 | 80486
6 | 17:53.12 | 3:35.38 | 80487 | 96649
7 | 21:28.50 | 3:34.62 | 96650 | 112761
8 | 25:03.37 | 1:30.48 | 112762 | 119559
9 | 26:34.10 | 4:20.27 | 119560 | 139086
10 | 30:54.37 | 2:26.33 | 139087 | 150069
11 | 33:20.70 | 4:34.42 | 150070 | 170661
12 | 37:55.37 | 3:33.43 | 170662 | 186679


Range status and errors

Selected range

Filename C:\Program Files\BitComet\Downloads\Split Enz\09 - Split Enz - Time And Tide (1982)\Split Enz - Time And Tide.wav

Peak level 100.0 %
Range quality 100.0 %
Copy CRC 1F45CEF1
Copy OK

No errors occurred


AccurateRip summary

Track 1 accurately ripped (confidence 12) [1BFA4121]
Track 2 accurately ripped (confidence 13) [115F4692]
Track 3 accurately ripped (confidence 13) [43CDA9AE]
Track 4 accurately ripped (confidence 13) [729D152A]
Track 5 accurately ripped (confidence 13) [F1BC0FF4]
Track 6 accurately ripped (confidence 13) [FBE4BEE5]
Track 7 accurately ripped (confidence 13) [B1E51CA1]
Track 8 accurately ripped (confidence 13) [CDE42D62]
Track 9 accurately ripped (confidence 12) [F7361335]
Track 10 accurately ripped (confidence 13) [BE1DEE95]
Track 11 accurately ripped (confidence 13) [9B192F6B]
Track 12 accurately ripped (confidence 13) [BFF277FB]

All tracks accurately ripped

End of status report

foobar2000 1.2 / Dynamic Range Meter 1.1.1
log date: 2016-08-31 23:41:53

––––––––––––––––––––––––––––––––––––––––
Analyzed: Split Enz / Time And Tide
––––––––––––––––––––––––––––––––––––––––

DR Peak RMS Duration Track
––––––––––––––––––––––––––––––––––––––––
DR13 -0.36 dB -15.38 dB 4:02 01-Dirty Creature
DR14 -0.40 dB -17.12 dB 3:57 02-Giant Heartbeat
DR13 -0.52 dB -15.59 dB 3:50 03-Hello Sandy Allen
DR14 -0.89 dB -16.31 dB 3:04 04-Never Ceases To Amaze Me
DR13 -0.94 dB -16.40 dB 3:00 05-Lost For Words
DR13 -0.96 dB -17.26 dB 3:36 06-Small World
DR14 0.00 dB -16.74 dB 3:35 07-Take A Walk
DR10 -4.66 dB -17.50 dB 1:31 08-Pioneer
DR13 -0.72 dB -17.08 dB 4:20 09-Six Months In A Leaky Boat
DR12 -3.27 dB -17.89 dB 2:26 10-Haul Away
DR12 -0.10 dB -17.10 dB 4:35 11-Log Cabin Fever
DR12 -0.47 dB -15.46 dB 3:34 12-Make Sense Of It
––––––––––––––––––––––––––––––––––––––––

Number of tracks: 12
Official DR value: DR13

Samplerate: 44100 Hz
Channels: 2
Bits per sample: 16
Bitrate: 884 kbps
Codec: FLAC
================================================================================




Split Enz - Split Enz 1980-1984 (1992) 6 CD Box Set

Split Enz - Conflicting Emotions (1983)
EAC | FLAC | Image (Cue&Log) ~ 296 Mb | 00:42:19 | Scans included

The distraction of a Tim Finn solo project (1983's Escapade) may have robbed Split Enz of the creative momentum produced by Time & Tide; Tim obviously spent much of his energy on that project, leaving him with a minority of songwriting credits for the first time since taking leadership of the band…There's a strong batch of songs from Neil, which includes the achingly beautiful love song "Message to My Girl" and the contemplative "Our Day," which intimates the thoughts of the soon-to-be father…A misguided overreliance on drum machines and generally heavy-handed production ultimately date a solid album. The telling title track, as well as the album closer, "Bon Voyage," hinted at Tim Finn's imminent departure from the band. Initial pressings of the album in New Zealand included a bonus 12" of "Kia Kaha" and "Parasite" – songs unavailable elsewhere until the release of the box sets.

Chris Woodstra, Allmusic.com

Tracklist:

01. Strait Old Line (04:01)
02. Bullet Brain And Cactus Head (03:58)
03. Message To My Girl (04:04)
04. Working Up In Appetite (04:07)
05. Our Day (04:57)
06. No Mischief (04:14)
07. The Devil You Know (03:35)
08. I Wake Up Every Night (04:46)
09. Conflicting Emotions (04:30)
10. Bon Voyage (04:03)


Exact Audio Copy V0.99 prebeta 5 from 4. May 2009

EAC extraction logfile from 6. December 2010, 10:15

Split Enz / Conflicting Emotions

Used drive : TEAC CD-W552E Adapter: 1 ID: 0

Read mode : Secure
Utilize accurate stream : Yes
Defeat audio cache : Yes
Make use of C2 pointers : No

Read offset correction : 6
Overread into Lead-In and Lead-Out : No
Fill up missing offset samples with silence : Yes
Delete leading and trailing silent blocks : No
Null samples used in CRC calculations : Yes
Used interface : Installed external ASPI interface

Used output format : Internal WAV Routines
Sample format : 44.100 Hz; 16 Bit; Stereo


TOC of the extracted CD

Track | Start | Length | Start sector | End sector
––––––––––––––––––––––––––––-
1 | 0:00.00 | 4:01.25 | 0 | 18099
2 | 4:01.25 | 3:58.50 | 18100 | 35999
3 | 8:00.00 | 4:04.00 | 36000 | 54299
4 | 12:04.00 | 4:07.62 | 54300 | 72886
5 | 16:11.62 | 4:57.13 | 72887 | 95174
6 | 21:09.00 | 4:14.37 | 95175 | 114261
7 | 25:23.37 | 3:35.38 | 114262 | 130424
8 | 28:59.00 | 4:46.12 | 130425 | 151886
9 | 33:45.12 | 4:30.25 | 151887 | 172161
10 | 38:15.37 | 4:03.50 | 172162 | 190436


Range status and errors

Selected range

Filename C:\Program Files\BitComet\Downloads\Split Enz\10 - Split Enz - Conflicting Emotions (1983)\Split Enz - Conflicting Emotions.wav

Peak level 95.7 %
Range quality 100.0 %
Copy CRC FDA1F734
Copy OK

No errors occurred


AccurateRip summary

Track 1 accurately ripped (confidence 8) [99D002F2]
Track 2 accurately ripped (confidence 8) [596A1133]
Track 3 accurately ripped (confidence 8) [76E1B3B7]
Track 4 accurately ripped (confidence 7) [7F2FC612]
Track 5 accurately ripped (confidence 7) [EE4F1DC1]
Track 6 accurately ripped (confidence 7) [BECC987E]
Track 7 accurately ripped (confidence 7) [E0198D9A]
Track 8 accurately ripped (confidence 8) [89740937]
Track 9 accurately ripped (confidence 7) [750321B1]
Track 10 accurately ripped (confidence 7) [3FA54EDC]

All tracks accurately ripped

End of status report

foobar2000 1.2 / Dynamic Range Meter 1.1.1
log date: 2016-08-31 23:42:12

––––––––––––––––––––––––––––––––––––––––
Analyzed: Split Enz / Conflicting Emotions
––––––––––––––––––––––––––––––––––––––––

DR Peak RMS Duration Track
––––––––––––––––––––––––––––––––––––––––
DR14 -0.93 dB -18.75 dB 4:01 01-Strait Old Line
DR14 -1.27 dB -19.25 dB 3:59 02-Bullet Brain And Cactus Head
DR13 -2.63 dB -18.09 dB 4:04 03-Message To My Girl
DR13 -2.27 dB -18.66 dB 4:08 04-Working Up In Appetite
DR13 -2.05 dB -18.03 dB 4:57 05-Our Day
DR14 -2.19 dB -17.82 dB 4:14 06-No Mischief
DR12 -3.15 dB -17.68 dB 3:36 07-The Devil You Know
DR13 -0.38 dB -16.66 dB 4:46 08-I Wake Up Every Night
DR12 -2.12 dB -17.68 dB 4:30 09-Conflicting Emotions
DR13 -4.57 dB -19.88 dB 4:04 10-Bon Voyage
––––––––––––––––––––––––––––––––––––––––

Number of tracks: 10
Official DR value: DR13

Samplerate: 44100 Hz
Channels: 2
Bits per sample: 16
Bitrate: 768 kbps
Codec: FLAC
================================================================================




Split Enz - Split Enz 1980-1984 (1992) 6 CD Box Set

Split Enz - See Ya 'Round (1984)
EAC | FLAC | Image (Cue&Log) ~ 313 Mb | 00:43:47 | Scans included

With Tim Finn departing for a solo career, Neil Finn takes charge of the aging band for their final studio album. While not living up to the band's previous brilliance, songs such as "Years Go By," "One Mouth Is Fed," and an early version of "I Walk Away" are delightful Finn compositions. Side two features songs written by each of the remaining members. Released only in Australia, New Zealand, and Canada.

Chris Woodstra, Allmusic.com

Tracklist:

01. Breakin' My Back (03:53)
02. I Walk Away (03:50)
03. Doctor Love (04:16)
04. One Mouth Is Fed (03:26)
05. Years Go By (04:14)
06. Voices (03:31)
07. The Lost Cat (05:40)
08. Adz (04:12)
09. This Is Massive (03:17)
10. Kia Kaha (04:06)
11. Ninnie Knees Up (03:17)


Exact Audio Copy V0.99 prebeta 5 from 4. May 2009

EAC extraction logfile from 6. December 2010, 11:27

Split Enz / See Ya 'Round

Used drive : PLEXTOR DVDR PX-810SA Adapter: 3 ID: 1

Read mode : Secure
Utilize accurate stream : Yes
Defeat audio cache : Yes
Make use of C2 pointers : No

Read offset correction : 48
Overread into Lead-In and Lead-Out : No
Fill up missing offset samples with silence : Yes
Delete leading and trailing silent blocks : No
Null samples used in CRC calculations : Yes
Used interface : Installed external ASPI interface

Used output format : Internal WAV Routines
Sample format : 44.100 Hz; 16 Bit; Stereo


TOC of the extracted CD

Track | Start | Length | Start sector | End sector
––––––––––––––––––––––––––––-
1 | 0:00.00 | 3:53.50 | 0 | 17524
2 | 3:53.50 | 3:50.00 | 17525 | 34774
3 | 7:43.50 | 4:17.00 | 34775 | 54049
4 | 12:00.50 | 3:26.37 | 54050 | 69536
5 | 15:27.12 | 4:14.00 | 69537 | 88586
6 | 19:41.12 | 3:31.13 | 88587 | 104424
7 | 23:12.25 | 5:40.15 | 104425 | 129939
8 | 28:52.40 | 4:12.52 | 129940 | 148891
9 | 33:05.17 | 3:18.00 | 148892 | 163741
10 | 36:23.17 | 4:06.70 | 163742 | 182261
11 | 40:30.12 | 3:17.38 | 182262 | 197074


Range status and errors

Selected range

Filename C:\Program Files\BitComet\Downloads\Split Enz\11 - Split Enz - See Ya 'Round (1984)\Split Enz - See Ya 'Round.wav

Peak level 100.0 %
Range quality 100.0 %
Copy CRC F74F60DC
Copy OK

No errors occurred


AccurateRip summary

Track 1 accurately ripped (confidence 8) [17852409]
Track 2 accurately ripped (confidence 8) [53D18BA0]
Track 3 accurately ripped (confidence 7) [66143AB6]
Track 4 accurately ripped (confidence 6) [4BFE40B4]
Track 5 accurately ripped (confidence 8) [DBC0A134]
Track 6 accurately ripped (confidence 7) [DAA054C7]
Track 7 accurately ripped (confidence 6) [3954D5FD]
Track 8 accurately ripped (confidence 7) [F1F74CAA]
Track 9 accurately ripped (confidence 8) [33B856A2]
Track 10 accurately ripped (confidence 7) [CA91AA25]
Track 11 accurately ripped (confidence 7) [C5CA2BD1]

All tracks accurately ripped

End of status report

foobar2000 1.2 / Dynamic Range Meter 1.1.1
log date: 2016-08-31 23:42:31

––––––––––––––––––––––––––––––––––––––––
Analyzed: Split Enz / See Ya 'Round
––––––––––––––––––––––––––––––––––––––––

DR Peak RMS Duration Track
––––––––––––––––––––––––––––––––––––––––
DR12 0.00 dB -14.17 dB 3:54 01-Breakin' My Back
DR12 0.00 dB -15.40 dB 3:50 02-I Walk Away
DR14 0.00 dB -16.01 dB 4:17 03-Doctor Love
DR12 0.00 dB -14.41 dB 3:26 04-One Mouth Is Fed
DR13 -0.58 dB -16.90 dB 4:14 05-Years Go By
DR12 -0.51 dB -16.47 dB 3:31 06-Voices
DR13 0.00 dB -16.42 dB 5:40 07-The Lost Cat
DR11 -0.27 dB -14.58 dB 4:13 08-Adz
DR11 -1.34 dB -14.66 dB 3:18 09-This Is Massive
DR13 -1.28 dB -17.41 dB 4:07 10-Kia Kaha
DR12 -3.23 dB -17.23 dB 3:18 11-Ninnie Knees Up
––––––––––––––––––––––––––––––––––––––––

Number of tracks: 11
Official DR value: DR12

Samplerate: 44100 Hz
Channels: 2
Bits per sample: 16
Bitrate: 801 kbps
Codec: FLAC
================================================================================




Split Enz - Split Enz 1980-1984 (1992) 6 CD Box Set

Split Enz - Rear Enz (80s Rarities) (1992)
EAC | FLAC | Image (Cue&Log) ~ 252 Mb | 00:39:09 | Scans included

Rear Enz is a 1992 album of rarities released by New Zealand rock music group Split Enz, comprising b-sides, demos and a non-album single ranging from 1980 to 1984.

Tracklist:

01. Firedrill (03:55)
02. Your Inspiration (03:49)
03. Parasite (03:37)
04. Next Exit (03:40)
05. Over Drive (03:43)
06. Serge (03:35)
07. In The Wars (03:06)
08. Love & Success (03:04)
09. Big Heart (03:42)
10. Mr. Catalyst (03:38)
11. Remember When (03:15)


Exact Audio Copy V0.99 prebeta 5 from 4. May 2009

EAC extraction logfile from 6. December 2010, 11:49

Split Enz / Rear Enz

Used drive : TEAC CD-W552E Adapter: 1 ID: 0

Read mode : Secure
Utilize accurate stream : Yes
Defeat audio cache : Yes
Make use of C2 pointers : No

Read offset correction : 6
Overread into Lead-In and Lead-Out : No
Fill up missing offset samples with silence : Yes
Delete leading and trailing silent blocks : No
Null samples used in CRC calculations : Yes
Used interface : Installed external ASPI interface

Used output format : Internal WAV Routines
Sample format : 44.100 Hz; 16 Bit; Stereo


TOC of the extracted CD

Track | Start | Length | Start sector | End sector
––––––––––––––––––––––––––––-
1 | 0:00.00 | 3:55.57 | 0 | 17681
2 | 3:55.57 | 3:49.58 | 17682 | 34914
3 | 7:45.40 | 3:37.17 | 34915 | 51206
4 | 11:22.57 | 3:40.33 | 51207 | 67739
5 | 15:03.15 | 3:43.62 | 67740 | 84526
6 | 18:47.02 | 3:35.00 | 84527 | 100651
7 | 22:22.02 | 3:06.30 | 100652 | 114631
8 | 25:28.32 | 3:04.08 | 114632 | 128439
9 | 28:32.40 | 3:42.62 | 128440 | 145151
10 | 32:15.27 | 3:38.50 | 145152 | 161551
11 | 35:54.02 | 3:15.38 | 161552 | 176214


Range status and errors

Selected range

Filename C:\Program Files\BitComet\Downloads\Split Enz\12 - Split Enz - Rear Enz (80s Rarities) (1992)\Split Enz - Rear Enz.wav

Peak level 100.0 %
Range quality 100.0 %
Copy CRC 7FD26589
Copy OK

No errors occurred


AccurateRip summary

Track 1 accurately ripped (confidence 2) [53ACFE6D]
Track 2 accurately ripped (confidence 2) [4930CA5C]
Track 3 accurately ripped (confidence 2) [D97FE9D0]
Track 4 accurately ripped (confidence 2) [A4636F06]
Track 5 accurately ripped (confidence 2) [07080E60]
Track 6 accurately ripped (confidence 2) [51C37D9C]
Track 7 accurately ripped (confidence 2) [8347F75E]
Track 8 accurately ripped (confidence 2) [0F773DC3]
Track 9 accurately ripped (confidence 2) [35D1E604]
Track 10 accurately ripped (confidence 2) [E516CD0F]
Track 11 accurately ripped (confidence 2) [D4F37FDF]

All tracks accurately ripped

End of status report

foobar2000 1.2 / Dynamic Range Meter 1.1.1
log date: 2016-08-31 23:42:48

––––––––––––––––––––––––––––––––––––––––
Analyzed: Split Enz / Rear Enz
––––––––––––––––––––––––––––––––––––––––

DR Peak RMS Duration Track
––––––––––––––––––––––––––––––––––––––––
DR13 0.00 dB -16.69 dB 3:56 01-Firedrill
DR14 -0.98 dB -17.00 dB 3:50 02-Your Inspiration
DR16 0.00 dB -19.07 dB 3:37 03-Parasite
DR14 -0.25 dB -17.54 dB 3:40 04-Next Exit
DR12 -3.26 dB -16.69 dB 3:44 05-Over Drive
DR12 -3.01 dB -18.51 dB 3:35 06-Serge
DR12 -0.62 dB -15.95 dB 3:06 07-In The Wars
DR14 -0.10 dB -16.68 dB 3:04 08-Love & Success
DR15 -0.08 dB -16.22 dB 3:43 09-Big Heart
DR14 -1.31 dB -17.20 dB 3:39 10-Mr. Catalyst
DR12 -2.99 dB -20.37 dB 3:16 11-Remember When
––––––––––––––––––––––––––––––––––––––––

Number of tracks: 11
Official DR value: DR13

Samplerate: 44100 Hz
Channels: 2
Bits per sample: 16
Bitrate: 817 kbps
Codec: FLAC
================================================================================




All thanks to original releaser - erro

More interesting music in My Blog