Subcategories

Squarepusher presents Shobaleader One: d'Demonstrator (2010) [Japanese Edition]

Posted By: gribovar
Squarepusher presents Shobaleader One: d'Demonstrator (2010) [Japanese Edition]

Squarepusher presents Shobaleader One: d'Demonstrator (2010) [Japanese Edition]
EAC Rip | FLAC (tracks+.cue+log) - 329 MB | MP3 CBR 320 kbps (LAME 3.93) - 116 MB | Covers - 219 MB
Genre: Techno, Electro, Experimental | RAR 3% Rec. | Label: Beat Records (BRC-266)

A concept album that sticks straitjacket tight to its concept throughout, Shobaleader One: d'Demonstrator is a record of throwback electronic rock, with an R&B edge and synthesized vocals, performed by a hooded band - and if Daft Punk springs to mind, it should. After a record of solo bass (titled Solo Electric Bass, Vol. 1), Squarepusher's Tom Jenkinson soon unveiled his next project: the masked foursome named Shobaleader One. (Jenkinson's claims that the group consists of real people is certainly possible, but the omnipresent masks make one wonder if the producer is playing puppetmaster here.) A combination of stark electro and swinging funk, most tracks featuring vocals, the album will have listeners thinking of Daft Punk one minute and stark '80s television themes the next (read Knight Rider). As usual, Jenkinson gets in a little action with his bass (or synth-bass), especially on "Cryptic Motion," virtually the only track here that lets a little light in (it was released on Ed Banger a month before it appeared here). He has a way with vocals too, best heard on the robot-lover opener "Plug Me In." Elsewhere, the material is mostly midtempo and methodical, with the masks staying on throughout (literally and figuratively). It's an excellent way for Jenkinson to branch out and try something different - his playing and programming is definitely up to his high standard - but aside from the sweet retro vibes, it's hardly a classic.
Tracklist:
01. Plug Me In
02. Laser Rock
03. Into The Blue
04. Frisco Wave
05. Megazine
06. Abstract Lover
07. Endless Night
08. Cryptic Motion
09. Maximum Planck
10. On Fire Again (Bonus track)

Total time: 49:15

Exact Audio Copy V1.0 beta 3 from 29. August 2011

EAC extraction logfile from 5. February 2014, 22:32

Squarepusher / Shobaleader One: d'Demonstrator

Used drive : PLDS DVD+-RW DU-8A4SH Adapter: 0 ID: 1

Read mode : Secure
Utilize accurate stream : Yes
Defeat audio cache : Yes
Make use of C2 pointers : No

Read offset correction : 6
Overread into Lead-In and Lead-Out : No
Fill up missing offset samples with silence : Yes
Delete leading and trailing silent blocks : No
Null samples used in CRC calculations : Yes
Used interface : Native Win32 interface for Win NT & 2000
Gap handling : Appended to previous track

Used output format : User Defined Encoder
Selected bitrate : 1024 kBit/s
Quality : High
Add ID3 tag : No
Command line compressor : C:\Program Files (x86)\FLAC\flac.exe
Additional command line options : -T "artist=%artist%" -T "title=%title%" -T "album=%albumtitle%" -T "date=%year%" -T "tracknumber=%tracknr%" -T "genre=%genre%" -5 %source%


TOC of the extracted CD

Track | Start | Length | Start sector | End sector
––––––––––––––––––––––––––––-
1 | 0:00.00 | 4:49.14 | 0 | 21688
2 | 4:49.14 | 4:43.27 | 21689 | 42940
3 | 9:32.41 | 4:46.38 | 42941 | 64428
4 | 14:19.04 | 3:45.53 | 64429 | 81356
5 | 18:04.57 | 4:34.74 | 81357 | 101980
6 | 22:39.56 | 3:46.31 | 101981 | 118961
7 | 26:26.12 | 5:05.33 | 118962 | 141869
8 | 31:31.45 | 6:13.47 | 141870 | 169891
9 | 37:45.17 | 6:59.49 | 169892 | 201365
10 | 44:44.66 | 4:30.09 | 201366 | 221624


Track 1

Filename C:\Rips\01 - Plug Me In.wav

Pre-gap length 0:00:02.00

Peak level 100.0 %
Extraction speed 1.0 X
Track quality 99.9 %
Test CRC B4175BB0
Copy CRC B4175BB0
Accurately ripped (confidence 2) [2412EAF4] (AR v2)
Copy OK

Track 2

Filename C:\Rips\02 - Laser Rock.wav

Peak level 100.0 %
Extraction speed 1.3 X
Track quality 100.0 %
Test CRC 431E63D7
Copy CRC 431E63D7
Accurately ripped (confidence 2) [D55D4483] (AR v2)
Copy OK

Track 3

Filename C:\Rips\03 - Into The Blue.wav

Peak level 100.0 %
Extraction speed 1.3 X
Track quality 99.9 %
Test CRC 9D9769E5
Copy CRC 9D9769E5
Accurately ripped (confidence 2) [89FD3A11] (AR v2)
Copy OK

Track 4

Filename C:\Rips\04 - Frisco Wave.wav

Peak level 100.0 %
Extraction speed 1.5 X
Track quality 100.0 %
Test CRC 5EEA995E
Copy CRC 5EEA995E
Accurately ripped (confidence 2) [E358A521] (AR v2)
Copy OK

Track 5

Filename C:\Rips\05 - Megazine.wav

Peak level 100.0 %
Extraction speed 1.6 X
Track quality 100.0 %
Test CRC 8BEFD306
Copy CRC 8BEFD306
Accurately ripped (confidence 2) [476285EF] (AR v2)
Copy OK

Track 6

Filename C:\Rips\06 - Abstract Lover.wav

Peak level 100.0 %
Extraction speed 1.4 X
Track quality 99.9 %
Test CRC 6AAD3BE1
Copy CRC 6AAD3BE1
Accurately ripped (confidence 2) [E1B50893] (AR v2)
Copy OK

Track 7

Filename C:\Rips\07 - Endless Night.wav

Peak level 100.0 %
Extraction speed 1.6 X
Track quality 99.9 %
Test CRC 6866F981
Copy CRC 6866F981
Accurately ripped (confidence 2) [C3729BA0] (AR v2)
Copy OK

Track 8

Filename C:\Rips\08 - Cryptic Motion.wav

Peak level 100.0 %
Extraction speed 2.0 X
Track quality 100.0 %
Test CRC 7088EB0E
Copy CRC 7088EB0E
Accurately ripped (confidence 2) [D39BA8A4] (AR v2)
Copy OK

Track 9

Filename C:\Rips\09 - Maximum Planck.wav

Peak level 100.0 %
Extraction speed 1.9 X
Track quality 99.9 %
Test CRC 4568291E
Copy CRC 4568291E
Accurately ripped (confidence 2) [1FF87823] (AR v2)
Copy OK

Track 10

Filename C:\Rips\10 - On Fire Again.wav

Peak level 100.0 %
Extraction speed 2.1 X
Track quality 100.0 %
Test CRC 45A807DC
Copy CRC 45A807DC
Accurately ripped (confidence 2) [740233B5] (AR v2)
Copy OK


All tracks accurately ripped

No errors occurred

End of status report

–– CUETools DB Plugin V2.1.3

[CTDB TOCID: dMWl05KQwJwBPzgiOL2zPRNDIH0-] found, Submit result: dMWl05KQwJwBPzgiOL2zPRNDIH0- has been confirmed
[f8ec61b5] (6/6) Accurately ripped


==== Log checksum EC32636DE7778059048FC7CC5462E1DD4BC1FD2647C05D18AE09A544DBC9E9A1 ====

[CUETools log; Date: 25.03.2020 3:22:25; Version: 2.1.4]
[CTDB TOCID: dMWl05KQwJwBPzgiOL2zPRNDIH0-] found.
Track | CTDB Status
1 | (34/34) Accurately ripped
2 | (34/34) Accurately ripped
3 | (34/34) Accurately ripped
4 | (34/34) Accurately ripped
5 | (34/34) Accurately ripped
6 | (34/34) Accurately ripped
7 | (34/34) Accurately ripped
8 | (34/34) Accurately ripped
9 | (34/34) Accurately ripped
10 | (34/34) Accurately ripped
[AccurateRip ID: 0011cb20-008f626e-990b8b0a] found.
Track [ CRC | V2 ] Status
01 [285b3ff1|2412eaf4] (02+09/11) Accurately ripped
02 [d18666a9|d55d4483] (02+09/11) Accurately ripped
03 [79bfa7ea|89fd3a11] (02+09/11) Accurately ripped
04 [1a1d140a|e358a521] (02+09/11) Accurately ripped
05 [d4c7339a|476285ef] (02+09/11) Accurately ripped
06 [0690f951|e1b50893] (02+09/11) Accurately ripped
07 [78637cdd|c3729ba0] (02+09/11) Accurately ripped
08 [8cc0e54c|d39ba8a4] (02+09/11) Accurately ripped
09 [1c20c08f|1ff87823] (02+09/11) Accurately ripped
10 [f2fad31c|740233b5] (02+09/11) Accurately ripped

Track Peak [ CRC32 ] [W/O NULL] [ LOG ]
– 100,0 [AC9160F0] [BD3AB779]
01 100,0 [B4175BB0] [528DD5C2] CRC32
02 100,0 [431E63D7] [DD25ED4B] CRC32
03 100,0 [9D9769E5] [22FCCE4D] CRC32
04 100,0 [5EEA995E] [E5CC9513] CRC32
05 100,0 [8BEFD306] [AA5AAD5D] CRC32
06 100,0 [6AAD3BE1] [56856A48] CRC32
07 100,0 [6866F981] [1C083B44] CRC32
08 100,0 [7088EB0E] [5726609C] CRC32
09 100,0 [4568291E] [F76AEE71] CRC32
10 100,0 [45A807DC] [CA21442D] CRC32

Thanks to thezabs

See also:
Squarepusher - Ufabulum & Enstrobia (2012) [2CD Japanese Edition]