Tags
Language
Tags

Steely Dan - Southland [2CD Set] (2015)

Posted By: JET 1
Steely Dan - Southland [2CD Set] (2015)

Steely Dan - Southland [2CD Set] (2015)
EAC Rip | FLAC (Tracks) +CUE, LOG | 643 MB | Scans
Genre: Rock, Soft Rock, Jazz Rock | Label: FMIC Records | Catalog Number: FMIC012

These two concerts come from a period when the band were at the point of headlining their own concerts but shortly after these concerts the band decided to concentrate on studio recordings rather than concert performances.
These concerts would be amongst the final live shows from steely dan for almost twenty years. they include the hit singles 'do it again', 'reelin’ in the years' and 'rikki don’t lose that number' and also key album tracks including 'pretzel logic'. these recordings come from a period when steely dan was still considered a working band, rather than walter becker and donald fagen backed up by a series of highly paid and highly accomplished session musicians and, whilst a little rough around the edges, it is easy to see why steely dan were considered at the time of these broadcasts one of the best bands to come out of america.

Exact Audio Copy V1.3 from 2. September 2016

EAC extraction logfile from 26. September 2018, 10:58

Steely Dan / Southland

Used drive : PLEXTOR PX-891SAF Adapter: 1 ID: 0

Read mode : Secure
Utilize accurate stream : Yes
Defeat audio cache : Yes
Make use of C2 pointers : No

Read offset correction : 6
Overread into Lead-In and Lead-Out : No
Fill up missing offset samples with silence : Yes
Delete leading and trailing silent blocks : No
Null samples used in CRC calculations : Yes
Used interface : Native Win32 interface for Win NT & 2000
Gap handling : Appended to previous track

Used output format : User Defined Encoder
Selected bitrate : 1024 kBit/s
Quality : High
Add ID3 tag : No
Command line compressor : C:\Program Files (x86)\Exact Audio Copy\Flac\flac.exe
Additional command line options : -8 -V -T "ARTIST=%artist%" -T "TITLE=%title%" -T "ALBUM=%albumtitle%" -T "DATE=%year%" -T "TRACKNUMBER=%tracknr%" -T "GENRE=%genre%" -T "PERFORMER=%albuminterpret%" -T "COMPOSER=%composer%" %haslyrics%–tag-from-file=LYRICS="%lyricsfile%"%haslyrics% -T "ALBUMARTIST=%albumartist%" -T "DISCNUMBER=%cdnumber%" -T "TOTALDISCS=%totalcds%" -T "TOTALTRACKS=%numtracks%" -T "COMMENT=%comment%" %source% -o %dest%


TOC of the extracted CD

Track | Start | Length | Start sector | End sector
––––––––––––––––––––––––––––-
1 | 0:00.00 | 8:10.39 | 0 | 36788
2 | 8:10.39 | 4:43.23 | 36789 | 58036
3 | 12:53.62 | 3:23.53 | 58037 | 73314
4 | 16:17.40 | 5:08.31 | 73315 | 96445
5 | 21:25.71 | 4:40.36 | 96446 | 117481
6 | 26:06.32 | 5:30.10 | 117482 | 142241
7 | 31:36.42 | 5:41.45 | 142242 | 167861
8 | 37:18.12 | 4:44.28 | 167862 | 189189
9 | 42:02.40 | 3:56.46 | 189190 | 206935


Track 1

Filename D:\#Rotterdam 3\Steely Dan - Southland\cd 1\01. Steely Dan - Do It Again.wav

Pre-gap length 0:00:02.00

Peak level 97.7 %
Extraction speed 5.7 X
Track quality 100.0 %
Test CRC A77E3808
Copy CRC A77E3808
Accurately ripped (confidence 11) [DD890FD5] (AR v2)
Copy OK

Track 2

Filename D:\#Rotterdam 3\Steely Dan - Southland\cd 1\02. Steely Dan - Rikki Don't Lose That Number.wav

Peak level 97.7 %
Extraction speed 6.2 X
Track quality 100.0 %
Test CRC 024493AD
Copy CRC 024493AD
Accurately ripped (confidence 11) [C1C4BA9A] (AR v2)
Copy OK

Track 3

Filename D:\#Rotterdam 3\Steely Dan - Southland\cd 1\03. Steely Dan - Any Major Dude.wav

Peak level 97.7 %
Extraction speed 6.5 X
Track quality 100.0 %
Test CRC 80618755
Copy CRC 80618755
Accurately ripped (confidence 11) [4AE8CA24] (AR v2)
Copy OK

Track 4

Filename D:\#Rotterdam 3\Steely Dan - Southland\cd 1\04. Steely Dan - King Of The World.wav

Peak level 97.7 %
Extraction speed 6.3 X
Track quality 99.9 %
Test CRC 13D78269
Copy CRC 13D78269
Accurately ripped (confidence 11) [A701D72C] (AR v2)
Copy OK

Track 5

Filename D:\#Rotterdam 3\Steely Dan - Southland\cd 1\05. Steely Dan - Barrytown.wav

Peak level 97.7 %
Extraction speed 7.6 X
Track quality 100.0 %
Test CRC 49A2CD93
Copy CRC 49A2CD93
Accurately ripped (confidence 11) [A0113423] (AR v2)
Copy OK

Track 6

Filename D:\#Rotterdam 3\Steely Dan - Southland\cd 1\06. Steely Dan - My Old School.wav

Peak level 97.7 %
Extraction speed 8.4 X
Track quality 100.0 %
Test CRC C9EA2CFD
Copy CRC C9EA2CFD
Accurately ripped (confidence 11) [A6B58339] (AR v2)
Copy OK

Track 7

Filename D:\#Rotterdam 3\Steely Dan - Southland\cd 1\07. Steely Dan - Pretzel Logic.wav

Peak level 97.7 %
Extraction speed 7.6 X
Track quality 99.9 %
Test CRC 9C0EC78D
Copy CRC 9C0EC78D
Accurately ripped (confidence 11) [F5BF3EF2] (AR v2)
Copy OK

Track 8

Filename D:\#Rotterdam 3\Steely Dan - Southland\cd 1\08. Steely Dan - Reelin' In The Years.wav

Peak level 97.7 %
Extraction speed 8.9 X
Track quality 100.0 %
Test CRC 37C5E6D5
Copy CRC 37C5E6D5
Accurately ripped (confidence 11) [5EA86A48] (AR v2)
Copy OK

Track 9

Filename D:\#Rotterdam 3\Steely Dan - Southland\cd 1\09. Steely Dan - This Is All To Mobile Home.wav

Peak level 97.7 %
Extraction speed 9.0 X
Track quality 100.0 %
Test CRC DD0A24DA
Copy CRC DD0A24DA
Accurately ripped (confidence 11) [3A01FAD0] (AR v2)
Copy OK


All tracks accurately ripped

No errors occurred

End of status report

–– CUETools DB Plugin V2.1.6

[CTDB TOCID: ja8iR0nTbGaL8NlP.84MuAE_oEQ-] found
Submit result: ja8iR0nTbGaL8NlP.84MuAE_oEQ- has been confirmed
Track | CTDB Status
1 | (17/17) Accurately ripped
2 | (17/17) Accurately ripped
3 | (17/17) Accurately ripped
4 | (17/17) Accurately ripped
5 | (17/17) Accurately ripped
6 | (17/17) Accurately ripped
7 | (17/17) Accurately ripped
8 | (17/17) Accurately ripped
9 | (17/17) Accurately ripped


==== Log checksum EAF33E2F57E8C3DCAEBF0CAF6630C2B6F426104D75D5B8B6270FF9EB5043EE07 ====

––––––––––––––––––––––––––––––

Exact Audio Copy V1.3 from 2. September 2016

EAC extraction logfile from 26. September 2018, 10:59

Steely Dan / Southland

Used drive : PLEXTOR PX-891SAF Adapter: 1 ID: 0

Read mode : Secure
Utilize accurate stream : Yes
Defeat audio cache : Yes
Make use of C2 pointers : No

Read offset correction : 6
Overread into Lead-In and Lead-Out : No
Fill up missing offset samples with silence : Yes
Delete leading and trailing silent blocks : No
Null samples used in CRC calculations : Yes
Used interface : Native Win32 interface for Win NT & 2000
Gap handling : Appended to previous track

Used output format : User Defined Encoder
Selected bitrate : 1024 kBit/s
Quality : High
Add ID3 tag : No
Command line compressor : C:\Program Files (x86)\Exact Audio Copy\Flac\flac.exe
Additional command line options : -8 -V -T "ARTIST=%artist%" -T "TITLE=%title%" -T "ALBUM=%albumtitle%" -T "DATE=%year%" -T "TRACKNUMBER=%tracknr%" -T "GENRE=%genre%" -T "PERFORMER=%albuminterpret%" -T "COMPOSER=%composer%" %haslyrics%–tag-from-file=LYRICS="%lyricsfile%"%haslyrics% -T "ALBUMARTIST=%albumartist%" -T "DISCNUMBER=%cdnumber%" -T "TOTALDISCS=%totalcds%" -T "TOTALTRACKS=%numtracks%" -T "COMMENT=%comment%" %source% -o %dest%


TOC of the extracted CD

Track | Start | Length | Start sector | End sector
––––––––––––––––––––––––––––-
1 | 0:00.00 | 8:10.39 | 0 | 36788
2 | 8:10.39 | 4:43.23 | 36789 | 58036
3 | 12:53.62 | 3:23.53 | 58037 | 73314
4 | 16:17.40 | 5:08.31 | 73315 | 96445
5 | 21:25.71 | 4:40.36 | 96446 | 117481
6 | 26:06.32 | 5:30.10 | 117482 | 142241
7 | 31:36.42 | 5:41.45 | 142242 | 167861
8 | 37:18.12 | 4:44.28 | 167862 | 189189
9 | 42:02.40 | 3:56.46 | 189190 | 206935


Track 1

Filename D:\#Rotterdam 3\Steely Dan - Southland\cd 1\01. Steely Dan - Do It Again.wav

Pre-gap length 0:00:02.00

Peak level 97.7 %
Extraction speed 5.7 X
Track quality 100.0 %
Test CRC A77E3808
Copy CRC A77E3808
Accurately ripped (confidence 11) [DD890FD5] (AR v2)
Copy OK

Track 2

Filename D:\#Rotterdam 3\Steely Dan - Southland\cd 1\02. Steely Dan - Rikki Don't Lose That Number.wav

Peak level 97.7 %
Extraction speed 6.2 X
Track quality 100.0 %
Test CRC 024493AD
Copy CRC 024493AD
Accurately ripped (confidence 11) [C1C4BA9A] (AR v2)
Copy OK

Track 3

Filename D:\#Rotterdam 3\Steely Dan - Southland\cd 1\03. Steely Dan - Any Major Dude.wav

Peak level 97.7 %
Extraction speed 6.5 X
Track quality 100.0 %
Test CRC 80618755
Copy CRC 80618755
Accurately ripped (confidence 11) [4AE8CA24] (AR v2)
Copy OK

Track 4

Filename D:\#Rotterdam 3\Steely Dan - Southland\cd 1\04. Steely Dan - King Of The World.wav

Peak level 97.7 %
Extraction speed 6.3 X
Track quality 99.9 %
Test CRC 13D78269
Copy CRC 13D78269
Accurately ripped (confidence 11) [A701D72C] (AR v2)
Copy OK

Track 5

Filename D:\#Rotterdam 3\Steely Dan - Southland\cd 1\05. Steely Dan - Barrytown.wav

Peak level 97.7 %
Extraction speed 7.6 X
Track quality 100.0 %
Test CRC 49A2CD93
Copy CRC 49A2CD93
Accurately ripped (confidence 11) [A0113423] (AR v2)
Copy OK

Track 6

Filename D:\#Rotterdam 3\Steely Dan - Southland\cd 1\06. Steely Dan - My Old School.wav

Peak level 97.7 %
Extraction speed 8.4 X
Track quality 100.0 %
Test CRC C9EA2CFD
Copy CRC C9EA2CFD
Accurately ripped (confidence 11) [A6B58339] (AR v2)
Copy OK

Track 7

Filename D:\#Rotterdam 3\Steely Dan - Southland\cd 1\07. Steely Dan - Pretzel Logic.wav

Peak level 97.7 %
Extraction speed 7.6 X
Track quality 99.9 %
Test CRC 9C0EC78D
Copy CRC 9C0EC78D
Accurately ripped (confidence 11) [F5BF3EF2] (AR v2)
Copy OK

Track 8

Filename D:\#Rotterdam 3\Steely Dan - Southland\cd 1\08. Steely Dan - Reelin' In The Years.wav

Peak level 97.7 %
Extraction speed 8.9 X
Track quality 100.0 %
Test CRC 37C5E6D5
Copy CRC 37C5E6D5
Accurately ripped (confidence 11) [5EA86A48] (AR v2)
Copy OK

Track 9

Filename D:\#Rotterdam 3\Steely Dan - Southland\cd 1\09. Steely Dan - This Is All To Mobile Home.wav

Peak level 97.7 %
Extraction speed 9.0 X
Track quality 100.0 %
Test CRC DD0A24DA
Copy CRC DD0A24DA
Accurately ripped (confidence 11) [3A01FAD0] (AR v2)
Copy OK


All tracks accurately ripped

No errors occurred

End of status report

–– CUETools DB Plugin V2.1.6

[CTDB TOCID: ja8iR0nTbGaL8NlP.84MuAE_oEQ-] found
Submit result: ja8iR0nTbGaL8NlP.84MuAE_oEQ- has been confirmed
Track | CTDB Status
1 | (17/17) Accurately ripped
2 | (17/17) Accurately ripped
3 | (17/17) Accurately ripped
4 | (17/17) Accurately ripped
5 | (17/17) Accurately ripped
6 | (17/17) Accurately ripped
7 | (17/17) Accurately ripped
8 | (17/17) Accurately ripped
9 | (17/17) Accurately ripped


==== Log checksum 86ED886C260883D161F607B7B889DE227F5A85D55DE3758189FC3034EB96BBB4 ====

Exact Audio Copy V1.3 from 2. September 2016

EAC extraction logfile from 26. September 2018, 11:16

Steely Dan / Southland

Used drive : PLEXTOR PX-891SAF Adapter: 1 ID: 0

Read mode : Secure
Utilize accurate stream : Yes
Defeat audio cache : Yes
Make use of C2 pointers : No

Read offset correction : 6
Overread into Lead-In and Lead-Out : No
Fill up missing offset samples with silence : Yes
Delete leading and trailing silent blocks : No
Null samples used in CRC calculations : Yes
Used interface : Native Win32 interface for Win NT & 2000
Gap handling : Appended to previous track

Used output format : User Defined Encoder
Selected bitrate : 1024 kBit/s
Quality : High
Add ID3 tag : No
Command line compressor : C:\Program Files (x86)\Exact Audio Copy\Flac\flac.exe
Additional command line options : -8 -V -T "ARTIST=%artist%" -T "TITLE=%title%" -T "ALBUM=%albumtitle%" -T "DATE=%year%" -T "TRACKNUMBER=%tracknr%" -T "GENRE=%genre%" -T "PERFORMER=%albuminterpret%" -T "COMPOSER=%composer%" %haslyrics%–tag-from-file=LYRICS="%lyricsfile%"%haslyrics% -T "ALBUMARTIST=%albumartist%" -T "DISCNUMBER=%cdnumber%" -T "TOTALDISCS=%totalcds%" -T "TOTALTRACKS=%numtracks%" -T "COMMENT=%comment%" %source% -o %dest%


TOC of the extracted CD

Track | Start | Length | Start sector | End sector
––––––––––––––––––––––––––––-
1 | 0:00.00 | 1:01.15 | 0 | 4589
2 | 1:01.15 | 5:01.57 | 4590 | 27221
3 | 6:02.72 | 6:09.62 | 27222 | 54958
4 | 12:12.59 | 7:53.72 | 54959 | 90505
5 | 20:06.56 | 3:13.06 | 90506 | 104986
6 | 23:19.62 | 5:11.27 | 104987 | 128338
7 | 28:31.14 | 4:11.34 | 128339 | 147197
8 | 32:42.48 | 6:28.41 | 147198 | 176338
9 | 39:11.14 | 5:29.73 | 176339 | 201086
10 | 44:41.12 | 4:30.33 | 201087 | 221369
11 | 49:11.45 | 5:51.33 | 221370 | 247727


Track 1

Filename D:\#Rotterdam 3\Steely Dan - Southland\cd 2\01. Steely Dan - Intro.wav

Pre-gap length 0:00:02.00

Peak level 97.0 %
Extraction speed 3.4 X
Track quality 100.0 %
Test CRC A86FBBB9
Copy CRC A86FBBB9
Accurately ripped (confidence 11) [2680C65A] (AR v2)
Copy OK

Track 2

Filename D:\#Rotterdam 3\Steely Dan - Southland\cd 2\02. Steely Dan - Bodhisattva.wav

Peak level 95.2 %
Extraction speed 4.6 X
Track quality 99.9 %
Test CRC CC2E2203
Copy CRC CC2E2203
Accurately ripped (confidence 11) [CFA2618C] (AR v2)
Copy OK

Track 3

Filename D:\#Rotterdam 3\Steely Dan - Southland\cd 2\03. Steely Dan - The Boston Rag.wav

Peak level 97.7 %
Extraction speed 5.6 X
Track quality 99.9 %
Test CRC 94C10762
Copy CRC 94C10762
Accurately ripped (confidence 11) [FD35121A] (AR v2)
Copy OK

Track 4

Filename D:\#Rotterdam 3\Steely Dan - Southland\cd 2\04. Steely Dan - Do It Again.wav

Peak level 97.7 %
Extraction speed 7.3 X
Track quality 100.0 %
Test CRC 0BC3CD59
Copy CRC 0BC3CD59
Accurately ripped (confidence 11) [21D02131] (AR v2)
Copy OK

Track 5

Filename D:\#Rotterdam 3\Steely Dan - Southland\cd 2\05. Steely Dan - Any Major Dude Will Tell You.wav

Peak level 97.7 %
Extraction speed 7.0 X
Track quality 100.0 %
Test CRC 13A43DC1
Copy CRC 13A43DC1
Accurately ripped (confidence 11) [C7D5D12C] (AR v2)
Copy OK

Track 6

Filename D:\#Rotterdam 3\Steely Dan - Southland\cd 2\06. Steely Dan - King Of The World.wav

Peak level 97.7 %
Extraction speed 8.0 X
Track quality 100.0 %
Test CRC 42128582
Copy CRC 42128582
Accurately ripped (confidence 11) [B3DCDA4C] (AR v2)
Copy OK

Track 7

Filename D:\#Rotterdam 3\Steely Dan - Southland\cd 2\07. Steely Dan - Rikki Don't Lose That Number.wav

Peak level 97.7 %
Extraction speed 8.1 X
Track quality 100.0 %
Test CRC E90D9072
Copy CRC E90D9072
Accurately ripped (confidence 11) [8A6221EF] (AR v2)
Copy OK

Track 8

Filename D:\#Rotterdam 3\Steely Dan - Southland\cd 2\08. Steely Dan - Pretzel Logic.wav

Peak level 97.7 %
Extraction speed 9.0 X
Track quality 100.0 %
Test CRC 0BF46F92
Copy CRC 0BF46F92
Accurately ripped (confidence 11) [11710450] (AR v2)
Copy OK

Track 9

Filename D:\#Rotterdam 3\Steely Dan - Southland\cd 2\09. Steely Dan - Your Gold Teeth (Jam).wav

Peak level 97.7 %
Extraction speed 7.9 X
Track quality 99.9 %
Test CRC A3984B11
Copy CRC A3984B11
Accurately ripped (confidence 11) [C038098E] (AR v2)
Copy OK

Track 10

Filename D:\#Rotterdam 3\Steely Dan - Southland\cd 2\10. Steely Dan - Reelin' In The Years.wav

Peak level 97.7 %
Extraction speed 9.4 X
Track quality 100.0 %
Test CRC 205DB4FB
Copy CRC 205DB4FB
Accurately ripped (confidence 11) [736B2342] (AR v2)
Copy OK

Track 11

Filename D:\#Rotterdam 3\Steely Dan - Southland\cd 2\11. Steely Dan - This Is All Too Mobile Home.wav

Peak level 97.7 %
Extraction speed 10.0 X
Track quality 100.0 %
Test CRC 9B5F113A
Copy CRC 9B5F113A
Accurately ripped (confidence 11) [5A3DFE52] (AR v2)
Copy OK


All tracks accurately ripped

No errors occurred

End of status report

–– CUETools DB Plugin V2.1.6

[CTDB TOCID: kuyHjQO.njGI9iJ3LHGE3ycRoq0-] found
Submit result: kuyHjQO.njGI9iJ3LHGE3ycRoq0- has been confirmed
Track | CTDB Status
1 | (16/16) Accurately ripped
2 | (16/16) Accurately ripped
3 | (16/16) Accurately ripped
4 | (16/16) Accurately ripped
5 | (16/16) Accurately ripped
6 | (16/16) Accurately ripped
7 | (16/16) Accurately ripped
8 | (16/16) Accurately ripped
9 | (16/16) Accurately ripped
10 | (16/16) Accurately ripped
11 | (16/16) Accurately ripped


==== Log checksum B9B8ADA8484E844BB3C9742C28FEF1C85481DD2401263875ECEBF1F09A981A1B ====

––––––––––––––––––––––––––––––

Exact Audio Copy V1.3 from 2. September 2016

EAC extraction logfile from 26. September 2018, 11:16

Steely Dan / Southland

Used drive : PLEXTOR PX-891SAF Adapter: 1 ID: 0

Read mode : Secure
Utilize accurate stream : Yes
Defeat audio cache : Yes
Make use of C2 pointers : No

Read offset correction : 6
Overread into Lead-In and Lead-Out : No
Fill up missing offset samples with silence : Yes
Delete leading and trailing silent blocks : No
Null samples used in CRC calculations : Yes
Used interface : Native Win32 interface for Win NT & 2000
Gap handling : Appended to previous track

Used output format : User Defined Encoder
Selected bitrate : 1024 kBit/s
Quality : High
Add ID3 tag : No
Command line compressor : C:\Program Files (x86)\Exact Audio Copy\Flac\flac.exe
Additional command line options : -8 -V -T "ARTIST=%artist%" -T "TITLE=%title%" -T "ALBUM=%albumtitle%" -T "DATE=%year%" -T "TRACKNUMBER=%tracknr%" -T "GENRE=%genre%" -T "PERFORMER=%albuminterpret%" -T "COMPOSER=%composer%" %haslyrics%–tag-from-file=LYRICS="%lyricsfile%"%haslyrics% -T "ALBUMARTIST=%albumartist%" -T "DISCNUMBER=%cdnumber%" -T "TOTALDISCS=%totalcds%" -T "TOTALTRACKS=%numtracks%" -T "COMMENT=%comment%" %source% -o %dest%


TOC of the extracted CD

Track | Start | Length | Start sector | End sector
––––––––––––––––––––––––––––-
1 | 0:00.00 | 1:01.15 | 0 | 4589
2 | 1:01.15 | 5:01.57 | 4590 | 27221
3 | 6:02.72 | 6:09.62 | 27222 | 54958
4 | 12:12.59 | 7:53.72 | 54959 | 90505
5 | 20:06.56 | 3:13.06 | 90506 | 104986
6 | 23:19.62 | 5:11.27 | 104987 | 128338
7 | 28:31.14 | 4:11.34 | 128339 | 147197
8 | 32:42.48 | 6:28.41 | 147198 | 176338
9 | 39:11.14 | 5:29.73 | 176339 | 201086
10 | 44:41.12 | 4:30.33 | 201087 | 221369
11 | 49:11.45 | 5:51.33 | 221370 | 247727


Track 1

Filename D:\#Rotterdam 3\Steely Dan - Southland\cd 2\01. Steely Dan - Intro.wav

Pre-gap length 0:00:02.00

Peak level 97.0 %
Extraction speed 3.4 X
Track quality 100.0 %
Test CRC A86FBBB9
Copy CRC A86FBBB9
Accurately ripped (confidence 11) [2680C65A] (AR v2)
Copy OK

Track 2

Filename D:\#Rotterdam 3\Steely Dan - Southland\cd 2\02. Steely Dan - Bodhisattva.wav

Peak level 95.2 %
Extraction speed 4.6 X
Track quality 99.9 %
Test CRC CC2E2203
Copy CRC CC2E2203
Accurately ripped (confidence 11) [CFA2618C] (AR v2)
Copy OK

Track 3

Filename D:\#Rotterdam 3\Steely Dan - Southland\cd 2\03. Steely Dan - The Boston Rag.wav

Peak level 97.7 %
Extraction speed 5.6 X
Track quality 99.9 %
Test CRC 94C10762
Copy CRC 94C10762
Accurately ripped (confidence 11) [FD35121A] (AR v2)
Copy OK

Track 4

Filename D:\#Rotterdam 3\Steely Dan - Southland\cd 2\04. Steely Dan - Do It Again.wav

Peak level 97.7 %
Extraction speed 7.3 X
Track quality 100.0 %
Test CRC 0BC3CD59
Copy CRC 0BC3CD59
Accurately ripped (confidence 11) [21D02131] (AR v2)
Copy OK

Track 5

Filename D:\#Rotterdam 3\Steely Dan - Southland\cd 2\05. Steely Dan - Any Major Dude Will Tell You.wav

Peak level 97.7 %
Extraction speed 7.0 X
Track quality 100.0 %
Test CRC 13A43DC1
Copy CRC 13A43DC1
Accurately ripped (confidence 11) [C7D5D12C] (AR v2)
Copy OK

Track 6

Filename D:\#Rotterdam 3\Steely Dan - Southland\cd 2\06. Steely Dan - King Of The World.wav

Peak level 97.7 %
Extraction speed 8.0 X
Track quality 100.0 %
Test CRC 42128582
Copy CRC 42128582
Accurately ripped (confidence 11) [B3DCDA4C] (AR v2)
Copy OK

Track 7

Filename D:\#Rotterdam 3\Steely Dan - Southland\cd 2\07. Steely Dan - Rikki Don't Lose That Number.wav

Peak level 97.7 %
Extraction speed 8.1 X
Track quality 100.0 %
Test CRC E90D9072
Copy CRC E90D9072
Accurately ripped (confidence 11) [8A6221EF] (AR v2)
Copy OK

Track 8

Filename D:\#Rotterdam 3\Steely Dan - Southland\cd 2\08. Steely Dan - Pretzel Logic.wav

Peak level 97.7 %
Extraction speed 9.0 X
Track quality 100.0 %
Test CRC 0BF46F92
Copy CRC 0BF46F92
Accurately ripped (confidence 11) [11710450] (AR v2)
Copy OK

Track 9

Filename D:\#Rotterdam 3\Steely Dan - Southland\cd 2\09. Steely Dan - Your Gold Teeth (Jam).wav

Peak level 97.7 %
Extraction speed 7.9 X
Track quality 99.9 %
Test CRC A3984B11
Copy CRC A3984B11
Accurately ripped (confidence 11) [C038098E] (AR v2)
Copy OK

Track 10

Filename D:\#Rotterdam 3\Steely Dan - Southland\cd 2\10. Steely Dan - Reelin' In The Years.wav

Peak level 97.7 %
Extraction speed 9.4 X
Track quality 100.0 %
Test CRC 205DB4FB
Copy CRC 205DB4FB
Accurately ripped (confidence 11) [736B2342] (AR v2)
Copy OK

Track 11

Filename D:\#Rotterdam 3\Steely Dan - Southland\cd 2\11. Steely Dan - This Is All Too Mobile Home.wav

Peak level 97.7 %
Extraction speed 10.0 X
Track quality 100.0 %
Test CRC 9B5F113A
Copy CRC 9B5F113A
Accurately ripped (confidence 11) [5A3DFE52] (AR v2)
Copy OK


All tracks accurately ripped

No errors occurred

End of status report

–– CUETools DB Plugin V2.1.6

[CTDB TOCID: kuyHjQO.njGI9iJ3LHGE3ycRoq0-] found
Submit result: kuyHjQO.njGI9iJ3LHGE3ycRoq0- has been confirmed
Track | CTDB Status
1 | (16/16) Accurately ripped
2 | (16/16) Accurately ripped
3 | (16/16) Accurately ripped
4 | (16/16) Accurately ripped
5 | (16/16) Accurately ripped
6 | (16/16) Accurately ripped
7 | (16/16) Accurately ripped
8 | (16/16) Accurately ripped
9 | (16/16) Accurately ripped
10 | (16/16) Accurately ripped
11 | (16/16) Accurately ripped


==== Log checksum B9B8ADA8484E844BB3C9742C28FEF1C85481DD2401263875ECEBF1F09A981A1B ====

Tracklist :::
CD 1 - Live At The University Of California March 10th 1974
01. Do it again
02. Rikki don't lose that number
03. Any major dude will tell you
04. King of the world
05. Barrytown
06. My old school
07. Pretzel logic
08. Reelin' in the years
09. This is all too mobile home

CD 2 - Live At The Record Plant Los Angeles March 20th 1974
01. Intro
02. Bodhisattva
03. The Boston rag
04. Do it again
05. Any major dude will tell you
06. King of the world
07. Rikki don't lose that number
08. Pretzel logic
09. Your gold teeth jam
10. Reelin' in the years
11. This is all too mobile home