Subcategories

Steve Oliver - Albums Collection 1999-2016 (10CD + DVD5)

Posted By: Designol
Steve Oliver - Albums Collection 1999-2016 (10CD + DVD5)

Steve Oliver - Albums Collection 1999-2016 (10CD + DVD5)
EAC | FLAC | Tracks (Cue&Log) ~ 3.78 Gb | Mp3 (CBR320) ~ 1.41 Gb | Time: 08:41:14
DVD5 | NTSC, 16:9 (720x480) VBR | AC3 5.1 @ 448 Kbps or 2.0 @ 192 Kbps | 01:26:12 | ~ 3.6 Gb
Guitar Jazz, Contemporary Jazz, Smooth Jazz, Jazz Pop, Pop/Rock | Scans included

Playing sideman to Rick Braun, Larry Carlton, Gato Barbieri, the Neville Brothers, and many others introduced guitarist/vocalist Steve Oliver to smooth jazz fans, but it was with Steve Reid's band that Oliver found a following. It was 1996 when Reid contacted Oliver at the last minute to fill in for a canceled opening act. Oliver hit the stage as a solo act and Reid was impressed with the guitarist's vocalese skills and summery sound (Oliver is a California native and a true follower of the laid-back lifestyle). Oliver had come to vocalese not through King Pleasure or Lambert, Hendricks & Ross, but through Bobby McFerrin and Pat Metheny's work with Richard Bona and David Blamires, who sang along with guitar solos. Being a fan of the earthy Metheny sound, Reid hired Oliver after the gig and featured him in his touring band. Reid's Mysteries and Passion in Paradise albums featured Oliver not only as guitarist but songwriter as well.

Oliver struck out on his own in 1999 with his debut, First View, released by Night Vision. The album spawned three hit singles on smooth jazz radio and earned the guitarist a Debut Artist of the Year award from Smooth Jazz News. Duties in Reid's band kept Oliver busy until 2002, when he released Positive Energy on Native Language. Spyro Gyra keyboardist Tom Schuman was in the producer's chair for Oliver's third album, 3-D, released by Koch in 2004.

David Jeffries, Allmusic.com

Steve Oliver - Albums Collection 1999-2016 (10CD + DVD5)

Steve Oliver - Albums Collection 1999-2016 (10CD + DVD5)





Steve Oliver - Albums Collection 1999-2016 (10CD + DVD5)

Steve Oliver - First View (1999)
EAC | FLAC | Image (Cue&Log) ~ 310 Mb | Mp3 (CBR320) ~ 103 Mb
Label: Native Language | # 0916-2 | Time: 00:44:25 | Scans included

Acoustic guitarist Steve Oliver knows another can't-miss smooth jazz secret: if you want to create a killer debut, work with a slew of past and present Rippingtons. First View reveals a strong melodic player and composer equally comfortable on sweet little gems like "I Know" and the slamming razor sharp funk of "Happy Feet"; Oliver was able to bring a fresh new hip-hop feel to the silly standard "Midnight at the Oasis." Another trademark is his remarkable soprano-voiced scatting ability, which he weaves seamlessly into his guitar lines. Still, it's got to be a secure feeling having percussionist Steve Reid, saxmen Paul Taylor and Jeff Kashiwa, keyboardist Dave Kochanski and bassist Kim Stone helping out. The Taylor driven bridge on "Happy Feet" thrusts along like a classic Rippingtons' riff. The one area of departure from that Rippingtons' feel which Oliver could feel free to explore more (lest he always be compared to Russ Freeman) appears on "East Wind," which finds him right at home exploring more hard-edged blues flavors. Even if his basic acoustic sound is of the cool and balmy variety, he likes to surround it with hard-hitting grooves at times; "Happy Feet"'s foundation, laid down by Stone and aggressive drummer Dave Hooper, provides the perfect balance for Oliver's lighter touch.

Jonathan Widran, Allmusic.com

Tracklist:

01. West End (05:26)
02. Highway One (05:24)
03. First View (04:13)
04. Midnight At The Oasis (04:13)
05. I Know (04:59)
06. One Wish (04:12)
07. Happy Feet (04:01)
08. East Wind (04:24)
09. Sunrise Celebration (04:13)
10. We Will Be (03:15)


Exact Audio Copy V1.0 beta 3 from 29. August 2011

Отчёт EAC об извлечении, выполненном 15. июня 2014, 13:44

Steve Oliver / First View

Дисковод: PLEXTOR DVDR PX-880SA Adapter: 1 ID: 0

Режим чтения : Достоверность
Использование точного потока : Да
Отключение кэша аудио : Да
Использование указателей C2 : Нет

Коррекция смещения при чтении : 6
Способность читать области Lead-in и Lead-out : Нет
Заполнение пропущенных сэмплов тишиной : Да
Удаление блоков с тишиной в начале и конце : Нет
При вычислениях CRC использовались нулевые сэмплы : Да
Интерфейс : Установленный внешний ASPI-интерфейс

Выходной формат : Пользовательский кодировщик
Выбранный битрейт : 1024 kBit/s
Качество : Высокий
Добавление ID3-тега : Нет
Утилита сжатия : C:\Program Files\Exact Audio Copy\FLAC\FLAC.EXE
Дополнительные параметры : -10 -V -T "ARTIST=%artist%" -T "ALBUM=%albumtitle%" -T "DATE=%year%" -T "GENRE=%genre%" -T "COMMENT=ripped by izia1956" %source%


TOC извлечённого CD

Трек | Старт | Длительность | Начальный сектор | Конечный сектор
––––––––––––––––––––––––––––––––––-
1 | 0:00.32 | 5:26.70 | 32 | 24551
2 | 5:27.27 | 5:24.05 | 24552 | 48856
3 | 10:51.32 | 4:13.68 | 48857 | 67899
4 | 15:05.25 | 4:13.30 | 67900 | 86904
5 | 19:18.55 | 4:59.72 | 86905 | 109401
6 | 24:18.52 | 4:12.48 | 109402 | 128349
7 | 28:31.25 | 4:01.57 | 128350 | 146481
8 | 32:33.07 | 4:24.15 | 146482 | 166296
9 | 36:57.22 | 4:13.58 | 166297 | 185329
10 | 41:11.05 | 3:15.07 | 185330 | 199961


Характеристики диапазона извлечения и сообщения об ошибках

Выбранный диапазон

Имя файла D:\BitComet\Steve Oliver(flac)\1999 - First View\Steve Oliver - First View.wav

Пиковый уровень 99.8 %
Скорость извлечения 2.7 X
Качество диапазона 100.0 %
CRC теста 75EA41F0
CRC копии 75EA41F0
Копирование… OK

Ошибок не произошло


AccurateRip: сводка

Трек 1 точность не определена (достоверность 2) [C27C55C6], AccurateRip вернул [88184103] (AR v2)
Трек 2 точность не определена (достоверность 2) [3B15BC44], AccurateRip вернул [AC1C3F34] (AR v2)
Трек 3 точность не определена (достоверность 3) [C4EA5DDD], AccurateRip вернул [FF535DC2] (AR v2)
Трек 4 точность не определена (достоверность 2) [69D9B09B], AccurateRip вернул [6F66415B] (AR v2)
Трек 5 точность не определена (достоверность 2) [981B2B65], AccurateRip вернул [061F8121] (AR v2)
Трек 6 точность не определена (достоверность 2) [621BCC4F], AccurateRip вернул [768A5DD8] (AR v2)
Трек 7 точность не определена (достоверность 2) [FADB7B71], AccurateRip вернул [03F62D5B] (AR v2)
Трек 8 точность не определена (достоверность 2) [B4FBADED], AccurateRip вернул [40851D61] (AR v2)
Трек 9 точность не определена (достоверность 2) [2136F94E], AccurateRip вернул [637CE992] (AR v2)
Трек 10 точность не определена (достоверность 2) [6901801C], AccurateRip вернул [EE3B61C9] (AR v2)

Ни один трек не прошёл проверки на точность
В вашей базе может быть иной вариант штамповки диска

Конец отчёта

==== Контрольная сумма отчёта 348868BC72A620CBA1DE74F0AD51D96C07667AF9F96AC594C9CE1C1C36A366FD ====

foobar2000 1.2 / Dynamic Range Meter 1.1.1
log date: 2014-12-24 16:43:14

––––––––––––––––––––––––––––––––––––––––
Analyzed: Steve Oliver / First View
––––––––––––––––––––––––––––––––––––––––

DR Peak RMS Duration Track
––––––––––––––––––––––––––––––––––––––––
DR8 -0.01 dB -9.33 dB 5:27 01-West End
DR9 -0.01 dB -10.38 dB 5:24 02-Highway One
DR7 -0.01 dB -8.96 dB 4:14 03-First View
DR9 -0.01 dB -9.72 dB 4:13 04-Midnight At The Oasis
DR7 -0.01 dB -9.66 dB 5:00 05-I Know
DR9 -0.04 dB -10.82 dB 4:13 06-One Wish
DR9 -0.01 dB -10.71 dB 4:02 07-Happy Feet
DR8 -0.17 dB -10.16 dB 4:24 08-East Wind
DR9 -0.32 dB -11.41 dB 4:14 09-Sunrise Celebration
DR11 -2.07 dB -16.52 dB 3:15 10-We Will Be
––––––––––––––––––––––––––––––––––––––––

Number of tracks: 10
Official DR value: DR9

Samplerate: 44100 Hz
Channels: 2
Bits per sample: 16
Bitrate: 972 kbps
Codec: FLAC
================================================================================




Steve Oliver - Albums Collection 1999-2016 (10CD + DVD5)

Steve Oliver - Positive + Energy (2002)
EAC | FLAC | Image (Cue&Log) ~ 377 Mb | Mp3 (CBR320) ~ 126 Mb
Label: Native Language | # 0925-2 | Time: 00:50:14 | Scans included

Contemporary jazz guitarist and vocalist Steve Oliver offers something everyone will enjoy on his sophomore release as a leader, titled Positive Energy. The recording reflects Oliver's smooth, upbeat, joyous spirit through dynamic vocals and instrumentals on 12 brand-new originals. Working with Steve Oliver are such prominent contemporary jazz favorites as his labelmate, Jeff Kashiwa, on saxophone and Spyro Gyra keyboardist Tom Schuman alongside the multi-talented bassists Brian Bromberg and Larry Antonino. The recording opens with the radio-friendly "High Noon," the first single to be released from the CD. The song combines the freshest licks from Latin funk and the smoothest grooves from smooth jazz in an energetic presentation with a contemporary flair. Oliver's vocals set the song apart from the instrumentals on the set and give his listeners more than enough room to enjoy the "positive energy" emanating from his playing style. On the title track, Steve Reid adds his mighty percussion to the mix and not only provides an extra layer of rhythmic fuel, but inspires Oliver's excellent guitar playing to another level of performance. Oliver's ability to tell a story is quite evident on the vocal version of "Show You Love." This song has the potential to cross over to the R&B genre due to its funky backbeat and danceability and is reprised as an instrumental, with Brandon Fields' smooth tenor sax as the lead voice, to close the set. Positive Energy has no problem meeting the standards set by Oliver's 1999 debut, First View, and should garner additional smooth jazz and groove fans for Oliver. In the making for nearly three years, the new musical dimensions added by the guest stars, the romantic and sometimes-funky celebratory vibe, and Oliver's excellent musicality make Positive Energy another great opportunity to hear what Steve Oliver is all about.

Paula Edelstein, Allmusic.com

Tracklist:

01. High Noon (03:49)
02. Positive Energy (03:58)
03. Right Direction (04:51)
04. Ocean Blue (04:53)
05. Festevo (03:55)
06. Show You Love (04:42)
07. Day's End (04:13)
08. Horizon (04:14)
09. Mr. Hipster (04:31)
10. Come on Home (04:28)
11. Horizon (Reprise) (01:51)
12. Show You Love (Instrumental) (04:43)


Exact Audio Copy V1.0 beta 3 from 29. August 2011

Отчёт EAC об извлечении, выполненном 15. июня 2014, 13:07

Steve Oliver / Positive + Energy

Дисковод: PLEXTOR DVDR PX-880SA Adapter: 1 ID: 0

Режим чтения : Достоверность
Использование точного потока : Да
Отключение кэша аудио : Да
Использование указателей C2 : Нет

Коррекция смещения при чтении : 6
Способность читать области Lead-in и Lead-out : Нет
Заполнение пропущенных сэмплов тишиной : Да
Удаление блоков с тишиной в начале и конце : Нет
При вычислениях CRC использовались нулевые сэмплы : Да
Интерфейс : Установленный внешний ASPI-интерфейс

Выходной формат : Пользовательский кодировщик
Выбранный битрейт : 1024 kBit/s
Качество : Высокий
Добавление ID3-тега : Нет
Утилита сжатия : C:\Program Files\Exact Audio Copy\FLAC\FLAC.EXE
Дополнительные параметры : -10 -V -T "ARTIST=%artist%" -T "ALBUM=%albumtitle%" -T "DATE=%year%" -T "GENRE=%genre%" -T "COMMENT=ripped by izia1956" %source%


TOC извлечённого CD

Трек | Старт | Длительность | Начальный сектор | Конечный сектор
––––––––––––––––––––––––––––––––––-
1 | 0:00.00 | 3:49.70 | 0 | 17244
2 | 3:49.70 | 3:58.07 | 17245 | 35101
3 | 7:48.02 | 4:51.53 | 35102 | 56979
4 | 12:39.55 | 4:53.00 | 56980 | 78954
5 | 17:32.55 | 3:55.25 | 78955 | 96604
6 | 21:28.05 | 4:42.42 | 96605 | 117796
7 | 26:10.47 | 4:13.65 | 117797 | 136836
8 | 30:24.37 | 4:14.63 | 136837 | 155949
9 | 34:39.25 | 4:31.35 | 155950 | 176309
10 | 39:10.60 | 4:28.42 | 176310 | 196451
11 | 43:39.27 | 1:51.38 | 196452 | 204814
12 | 45:30.65 | 4:43.42 | 204815 | 226081


Характеристики диапазона извлечения и сообщения об ошибках

Выбранный диапазон

Имя файла D:\BitComet\Steve Oliver(flac)\2002 - Positive + Energy\Steve Oliver - Positive + Energy.wav

Пиковый уровень 98.8 %
Скорость извлечения 2.9 X
Качество диапазона 100.0 %
CRC теста D6D1B3CE
CRC копии D6D1B3CE
Копирование… OK

Ошибок не произошло


AccurateRip: сводка

Трек 1 : извлечено точно (доверие 4) [81028851] (AR v2)
Трек 2 : извлечено точно (доверие 3) [27C47495] (AR v2)
Трек 3 : извлечено точно (доверие 4) [9238AA10] (AR v2)
Трек 4 : извлечено точно (доверие 4) [729816E0] (AR v2)
Трек 5 : извлечено точно (доверие 4) [EA9A0FCE] (AR v2)
Трек 6 : извлечено точно (доверие 4) [B73217EC] (AR v2)
Трек 7 : извлечено точно (доверие 4) [5AB0435D] (AR v2)
Трек 8 : извлечено точно (доверие 4) [C06AEC9C] (AR v2)
Трек 9 : извлечено точно (доверие 3) [17B2B01C] (AR v2)
Трек 10 : извлечено точно (доверие 3) [3DDE639B] (AR v2)
Трек 11 : извлечено точно (доверие 4) [22D0BCC3] (AR v2)
Трек 12 : извлечено точно (доверие 4) [4986F4C3] (AR v2)

Все треки извлечены точно

Конец отчёта

==== Контрольная сумма отчёта EB8342DEB800CDCF0F76A44326E0CD5153E8259EDD2F09F521748F83F056EB7F ====

foobar2000 1.2 / Dynamic Range Meter 1.1.1
log date: 2014-12-24 16:43:31

––––––––––––––––––––––––––––––––––––––––
Analyzed: Steve Oliver / Positive + Energy
––––––––––––––––––––––––––––––––––––––––

DR Peak RMS Duration Track
––––––––––––––––––––––––––––––––––––––––
DR8 -0.10 dB -8.68 dB 3:50 01-High Noon
DR7 -0.10 dB -9.02 dB 3:58 02-Positive Energy
DR7 -0.10 dB -8.58 dB 4:52 03-Right Direction
DR7 -0.10 dB -8.52 dB 4:53 04-Ocean Blue
DR7 -0.10 dB -8.11 dB 3:55 05-Festevo
DR7 -0.10 dB -8.71 dB 4:43 06-Show You Love
DR7 -0.10 dB -8.77 dB 4:14 07-Day's End
DR7 -0.10 dB -8.79 dB 4:15 08-Horizon
DR7 -0.10 dB -8.11 dB 4:31 09-Mr. Hipster
DR7 -0.10 dB -8.46 dB 4:29 10-Come on Home
DR8 -0.10 dB -11.08 dB 1:52 11-Horizon (Reprise)
DR7 -0.10 dB -8.75 dB 4:44 12-Show You Love (Instrumental)
––––––––––––––––––––––––––––––––––––––––

Number of tracks: 12
Official DR value: DR7

Samplerate: 44100 Hz
Channels: 2
Bits per sample: 16
Bitrate: 1018 kbps
Codec: FLAC
================================================================================




Steve Oliver - Albums Collection 1999-2016 (10CD + DVD5)

Steve Oliver - 3D (2004)
EAC | FLAC | Image (Cue&Log) ~ 420 Mb | Mp3 (CBR320) ~ 171 Mb
Label: Koch Records | # KOC-CD-9583 | Time: 00:51:24 | Scans included

As one reviewer said of the cheerful music and personality of this increasingly popular voice of smooth jazz guitar, it's Disneyland all the time with him. In other words, Positive Energy, the name of his second genre disc, wasn't just a happy marketing tool. And the title of this disc is appropriate, too, because with the co-production help of founding Spyro Gyra keyboardist Tom Schuman, Oliver digs deep into a rich variety of influences for a multifaceted romp through the worlds of pop, jazz, urban/hip-hop, worldbeat, Brazilian, and Latin music. While focusing as always on his classic acoustic guitar and brilliant "vocalese" to convey the lead melodies on the instrumentals, he stretches into edgier blues territory with his lesser-heard electric on "In the Shade of Cool." Joining all-star guests like Fourplay drummer Harvey Mason (who adds his gentle rhythmic touch to the lush romantic atmospheres of the title track) and saxophonist Eric Marienthal (soulful harmony on the lilting ballad "She's Got the Way-O," punchy riffs and call-and-response amidst the brass, retro-soul, and party-groove mania of "Funhouse") is a handful of musicians familiar to longtime fans of the Oliver live experience, including Will Donato (sax) and Larry Antonino (bass). It's fun in the sun (with a few romantic respites) from beginning to end, with the jumpy, brass-fired "Chips and Salsa" balanced by trippier pieces like "Magic World," which has a slight worldbeat sensibility. Oliver's growing as a vocalist, too, with three lead vocal tracks that are among his best. He hardly needed to do a cover to get attention (as some smoothies do), but he puts on a subtle charm for "Imagine" that adds a touch of inspiration to the Magic Kingdom.

Jonathan Widran, Allmusic.com

Tracklist:

01. Magic World (05:02)
02. Wings of Spring (04:24)
03. You Rescued Me (04:03)
04. Chips and Salsa (03:55)
05. She's Got the Way-O (04:12)
06. Oh Yeah (04:07)
07. Let It Go (04:31)
08. 3-D 'Third Dimension' (04:51)
09. Funhouse (03:33)
10. In the Shade of Cool (03:51)
11. Imagine (04:57)
12. See You Soon (03:52)


Exact Audio Copy V1.0 beta 3 from 29. August 2011

Отчёт EAC об извлечении, выполненном 14. июня 2014, 17:02

Steve Oliver / 3D

Дисковод: PLEXTOR DVDR PX-880SA Adapter: 1 ID: 0

Режим чтения : Достоверность
Использование точного потока : Да
Отключение кэша аудио : Да
Использование указателей C2 : Нет

Коррекция смещения при чтении : 6
Способность читать области Lead-in и Lead-out : Нет
Заполнение пропущенных сэмплов тишиной : Да
Удаление блоков с тишиной в начале и конце : Нет
При вычислениях CRC использовались нулевые сэмплы : Да
Интерфейс : Установленный внешний ASPI-интерфейс

Выходной формат : Пользовательский кодировщик
Выбранный битрейт : 1024 kBit/s
Качество : Высокий
Добавление ID3-тега : Нет
Утилита сжатия : C:\Program Files\Exact Audio Copy\FLAC\FLAC.EXE
Дополнительные параметры : -10 -V -T "ARTIST=%artist%" -T "ALBUM=%albumtitle%" -T "DATE=%year%" -T "GENRE=%genre%" -T "COMMENT=ripped by izia1956" %source%


TOC извлечённого CD

Трек | Старт | Длительность | Начальный сектор | Конечный сектор
––––––––––––––––––––––––––––––––––-
1 | 0:00.00 | 5:02.37 | 0 | 22686
2 | 5:02.37 | 4:24.72 | 22687 | 42558
3 | 9:27.34 | 4:03.60 | 42559 | 60843
4 | 13:31.19 | 3:55.06 | 60844 | 78474
5 | 17:26.25 | 4:12.40 | 78475 | 97414
6 | 21:38.65 | 4:07.63 | 97415 | 116002
7 | 25:46.53 | 4:31.68 | 116003 | 136395
8 | 30:18.46 | 4:51.12 | 136396 | 158232
9 | 35:09.58 | 3:33.46 | 158233 | 174253
10 | 38:43.29 | 3:51.03 | 174254 | 191581
11 | 42:34.32 | 4:57.38 | 191582 | 213894
12 | 47:31.70 | 3:52.55 | 213895 | 231349


Характеристики диапазона извлечения и сообщения об ошибках

Выбранный диапазон

Имя файла D:\BitComet\Steve Oliver(flac)\2004 - 3D\Steve Oliver - 3D.wav

Пиковый уровень 100.0 %
Скорость извлечения 2.9 X
Качество диапазона 100.0 %
CRC теста 1601CCDD
CRC копии 1601CCDD
Копирование… OK

Ошибок не произошло


AccurateRip: сводка

Трек 1 точность не определена (достоверность 2) [4CEB7E94], AccurateRip вернул [64F51693] (AR v2)
Трек 2 точность не определена (достоверность 2) [F90BA362], AccurateRip вернул [DA080B3D] (AR v2)
Трек 3 точность не определена (достоверность 2) [DF6D47ED], AccurateRip вернул [20324B5E] (AR v2)
Трек 4 точность не определена (достоверность 2) [D751BDB8], AccurateRip вернул [91BB2EBB] (AR v2)
Трек 5 точность не определена (достоверность 2) [C2D1E41F], AccurateRip вернул [394659ED] (AR v2)
Трек 6 точность не определена (достоверность 2) [AC32FA6C], AccurateRip вернул [241A078B] (AR v2)
Трек 7 точность не определена (достоверность 2) [C3652367], AccurateRip вернул [169D462C] (AR v2)
Трек 8 точность не определена (достоверность 2) [FD6A9B02], AccurateRip вернул [9910CD10] (AR v2)
Трек 9 точность не определена (достоверность 2) [4DE48E0A], AccurateRip вернул [996E6B4E] (AR v2)
Трек 10 точность не определена (достоверность 2) [F4CE4EA5], AccurateRip вернул [654CED2A] (AR v2)
Трек 11 точность не определена (достоверность 2) [6CB83B54], AccurateRip вернул [1BDA1609] (AR v2)
Трек 12 точность не определена (достоверность 2) [C6EFAC00], AccurateRip вернул [62CA6215] (AR v2)

Ни один трек не прошёл проверки на точность
В вашей базе может быть иной вариант штамповки диска

Конец отчёта

==== Контрольная сумма отчёта 98BF9EAF2EEED53E4A8E9385EC120CA631B4CACCDFF0E9999F98A20466EE73DA ====

foobar2000 1.2 / Dynamic Range Meter 1.1.1
log date: 2014-12-24 16:43:48

––––––––––––––––––––––––––––––––––––––––
Analyzed: Steve Oliver / 3D
––––––––––––––––––––––––––––––––––––––––

DR Peak RMS Duration Track
––––––––––––––––––––––––––––––––––––––––
DR9 0.00 dB -11.36 dB 5:02 01-Magic World
DR7 0.00 dB -7.90 dB 4:25 02-Wings of Spring
DR6 -0.10 dB -7.15 dB 4:04 03-You Rescued Me
DR9 0.00 dB -10.19 dB 3:55 04-Chips and Salsa
DR6 -0.10 dB -8.15 dB 4:13 05-She's Got the Way-O
DR7 -0.10 dB -7.88 dB 4:08 06-Oh Yeah
DR7 -0.10 dB -9.54 dB 4:32 07-Let It Go
DR7 -0.10 dB -8.37 dB 4:51 08-3-D 'Third Dimension'
DR7 -0.10 dB -7.95 dB 3:34 09-Funhouse
DR7 0.00 dB -8.76 dB 3:51 10-In the Shade of Cool
DR8 0.00 dB -9.50 dB 4:58 11-Imagine
DR7 0.00 dB -9.21 dB 3:53 12-See You Soon
––––––––––––––––––––––––––––––––––––––––

Number of tracks: 12
Official DR value: DR7

Samplerate: 44100 Hz
Channels: 2
Bits per sample: 16
Bitrate: 999 kbps
Codec: FLAC
================================================================================




Steve Oliver - Albums Collection 1999-2016 (10CD + DVD5)

Steve Oliver - Radiant (2006)
EAC | FLAC | Image (Cue&Log) ~ 386 Mb | Mp3 (CBR320) ~ 154 Mb
Label: SOM | # none | Time: 00:50:02 | Scans included

This buoyant smooth jazz guitarist and vocalist was once described by Jazziz Magazine as having a personality that was genuinely "Disneyland all the time." Many genre greats balk at having their music called "happy jazz," but Oliver would no doubt take that as a compliment. His deepening production textures show that he can do more than simply create playful, upbeat, instantly hummable melodies, but he's always focused on making sure the listener has a great time. His second recording was called Positive Energy and the title of this disc sums up his ongoing vibe and mission even more succinctly. While his previous recordings included numerous tracks featuring "big" productions and all-star guest artists like Harvey Mason and Eric Marienthal (who both guested on his previous project, 3D), he committed this time to a slightly scaled-back approach that focuses more intimately on his guitar and voice – which truly has the power to create a multi-layered "orchestra" all its own. Oliver brought back Spyro Gyra keyboardist Tom Schuman – who co-produced 3D – to co-produce the graceful and sensual "Across the Water" and the lush, inspirational closing vocal track, "Radiant Dreams," but on the other nine tracks sought the fresh perspective of co-producer, keyboardist, and programmer Michael Broening. Like Oliver's previous albums, Radiant thrives on the thrilling sunshine of lively, playful nylon string-driven tracks like the opener (whose title says it all), "Feeling Good"; "Tradewinds" (which begins in a dreamy, swaying mode before evolving into a funky jam); "Good to Go," a Latin/world music fusion explosion featuring a sizzling, full-throttle offering of Oliver's guitar, "vocalese," vocal percussion, and trippy production ambience; and the brassy and bluesy, R&B-flavored "Cool." The musician's first two recordings featured all original songs, but his success in "Oliverizing" John Lennon's "Imagine" – which has become a popular staple of his live shows – inspired him to rework in his own inimitable way (this time vocally) another chestnut from the same era, Stephen Stills' classic 1966 track with Buffalo Springfield, "For What It's Worth."

Jonathan Widran, Allmusic.com

Tracklist:

01. Feeling Good (04:59)
02. Tradewinds (04:21)
03. For What It's Worth (04:37)
04. Good to Go (04:04)
05. Shadow of the Moon (05:34)
06. Cool (03:50)
07. Bend or Break (04:20)
08. Across the Water (05:25)
09. Reach the Sky (03:57)
10. Shine (04:50)
11. Radiant Dreams (03:59)


Exact Audio Copy V1.0 beta 3 from 29. August 2011

Отчёт EAC об извлечении, выполненном 14. июня 2014, 19:56

Steve Oliver / Radiant

Дисковод: PLEXTOR DVDR PX-880SA Adapter: 1 ID: 0

Режим чтения : Достоверность
Использование точного потока : Да
Отключение кэша аудио : Да
Использование указателей C2 : Нет

Коррекция смещения при чтении : 6
Способность читать области Lead-in и Lead-out : Нет
Заполнение пропущенных сэмплов тишиной : Да
Удаление блоков с тишиной в начале и конце : Нет
При вычислениях CRC использовались нулевые сэмплы : Да
Интерфейс : Установленный внешний ASPI-интерфейс

Выходной формат : Пользовательский кодировщик
Выбранный битрейт : 1024 kBit/s
Качество : Высокий
Добавление ID3-тега : Нет
Утилита сжатия : C:\Program Files\Exact Audio Copy\FLAC\FLAC.EXE
Дополнительные параметры : -10 -V -T "ARTIST=%artist%" -T "ALBUM=%albumtitle%" -T "DATE=%year%" -T "GENRE=%genre%" -T "COMMENT=ripped by izia1956" %source%


TOC извлечённого CD

Трек | Старт | Длительность | Начальный сектор | Конечный сектор
––––––––––––––––––––––––––––––––––-
1 | 0:00.00 | 4:59.37 | 0 | 22461
2 | 4:59.37 | 4:21.49 | 22462 | 42085
3 | 9:21.11 | 4:37.29 | 42086 | 62889
4 | 13:58.40 | 4:04.52 | 62890 | 81241
5 | 18:03.17 | 5:34.71 | 81242 | 106362
6 | 23:38.13 | 3:50.19 | 106363 | 123631
7 | 27:28.32 | 4:20.56 | 123632 | 143187
8 | 31:49.13 | 5:25.67 | 143188 | 167629
9 | 37:15.05 | 3:57.44 | 167630 | 185448
10 | 41:12.49 | 4:50.34 | 185449 | 207232
11 | 46:03.08 | 3:59.08 | 207233 | 225165


Характеристики диапазона извлечения и сообщения об ошибках

Выбранный диапазон

Имя файла D:\BitComet\Steve Oliver(flac)\2006 - Radiant\Steve Oliver - Radiant.wav

Пиковый уровень 99.9 %
Скорость извлечения 2.9 X
Качество диапазона 100.0 %
CRC теста 4B6911CC
CRC копии 4B6911CC
Копирование… OK

Ошибок не произошло


AccurateRip: сводка

Трек 1 точность не определена (достоверность 5) [33DE846D], AccurateRip вернул [85783C1D] (AR v2)
Трек 2 точность не определена (достоверность 5) [6DE633B7], AccurateRip вернул [1F5F8649] (AR v2)
Трек 3 точность не определена (достоверность 5) [F6700289], AccurateRip вернул [5119E613] (AR v2)
Трек 4 точность не определена (достоверность 5) [E88A2DC7], AccurateRip вернул [FD482CB5] (AR v2)
Трек 5 точность не определена (достоверность 5) [40836DAD], AccurateRip вернул [7CC0AB55] (AR v2)
Трек 6 точность не определена (достоверность 5) [C4673A85], AccurateRip вернул [68ED715E] (AR v2)
Трек 7 точность не определена (достоверность 5) [1856558D], AccurateRip вернул [0CFB2F77] (AR v2)
Трек 8 точность не определена (достоверность 5) [D4FD173D], AccurateRip вернул [A71A792B] (AR v2)
Трек 9 точность не определена (достоверность 5) [519AD1E9], AccurateRip вернул [CA7BD02A] (AR v2)
Трек 10 точность не определена (достоверность 5) [69E126C5], AccurateRip вернул [C8BC7097] (AR v2)
Трек 11 точность не определена (достоверность 5) [36B730BB], AccurateRip вернул [70EE138C] (AR v2)

Ни один трек не прошёл проверки на точность
В вашей базе может быть иной вариант штамповки диска

Конец отчёта

==== Контрольная сумма отчёта 008F2083E67023AE910641EBB29967D4838F1687257F7863653105BD43295511 ====

foobar2000 1.2 / Dynamic Range Meter 1.1.1
log date: 2014-12-24 16:44:04

––––––––––––––––––––––––––––––––––––––––
Analyzed: Steve Oliver / Radiant
––––––––––––––––––––––––––––––––––––––––

DR Peak RMS Duration Track
––––––––––––––––––––––––––––––––––––––––
DR7 -0.01 dB -8.40 dB 4:59 01-Feeling Good
DR7 -0.01 dB -7.77 dB 4:22 02-Tradewinds
DR8 -0.01 dB -9.43 dB 4:37 03-For What It's Worth
DR7 -0.01 dB -8.07 dB 4:05 04-Good to Go
DR6 -0.01 dB -6.85 dB 5:35 05-Shadow of the Moon
DR7 -0.01 dB -8.04 dB 3:50 06-Cool
DR7 -0.01 dB -9.27 dB 4:21 07-Bend or Break
DR8 -0.01 dB -10.04 dB 5:26 08-Across the Water
DR8 -0.01 dB -8.79 dB 3:58 09-Reach the Sky
DR7 -0.01 dB -8.49 dB 4:50 10-Shine
DR7 -0.06 dB -10.41 dB 3:59 11-Radiant Dreams
––––––––––––––––––––––––––––––––––––––––

Number of tracks: 11
Official DR value: DR7

Samplerate: 44100 Hz
Channels: 2
Bits per sample: 16
Bitrate: 970 kbps
Codec: FLAC
================================================================================




Steve Oliver - Albums Collection 1999-2016 (10CD + DVD5)

Steve Oliver - Snowfall (2006)
EAC | FLAC | Image (Cue&Log) ~ 317 Mb | Mp3 (CBR320) ~ 148 Mb
Label: KOCH Records | # KOC-CD-9986 | Time: 00:40:47 | Scans included

One of smooth jazz's most inventive and melodic guitarists and vocalists, the always engaging Steve Oliver has come up with 2006's smooth jazz holiday disc to beat with this winsome effort, Snowfall He succeeds brilliantly simply by making sure his arrangements of these oft-heard songs capture the different elements of his eclectic artistry. "Carol of the Bells" is both dramatic and intimate, a sweet exploration of his joyful acoustic guitar approach. "Silent Night" has a cool underlying machine-generated percussion bed and a soulful lead vocal, while the medley "Deck the Halls/Angels We Have Heard on High" is lively, danceable and a perfect blend of Oliver's wordless vocal magic, acoustic tenderness, and Latin sensibilities. "White Christmas," on the other hand, is served by his subtle electric guitar. Oliver is one of his genre's best songwriters, always ready with a solid hook radio can't resist; "Crystals in the Snow" displays the kind of drama he can create with simple soundscaping and a lead acoustic line, while "Watching the Snowfall" is a typically heartfelt vocal. Album artwork is somewhat secondary these days due to smaller formats and digital downloading, but artist Bettie Miner's stunning impressionistic cover and insert painting is beautiful and worth owning.

Jonathan Widran, Allmusic.com

Tracklist:

01. Carol Of The Bells (03:41)
02. Silent Night (04:33)
03. Deck The Halls / Angels We Have Heard On High (04:45)
04. Joy To The World (02:59)
05. White Christmas (04:36)
06. Cyrstals In The Snow (03:05)
07. The Christmas Song (05:09)
08. Little Drummer Boy (03:52)
09. God Rest Ye Merry Gentlemen (04:50)
10. Watching The Snowfall (03:13)]


Exact Audio Copy V1.0 beta 3 from 29. August 2011

Отчёт EAC об извлечении, выполненном 14. июня 2014, 16:07

Steve Oliver / Snowfall

Дисковод: PLEXTOR DVDR PX-880SA Adapter: 1 ID: 0

Режим чтения : Достоверность
Использование точного потока : Да
Отключение кэша аудио : Да
Использование указателей C2 : Нет

Коррекция смещения при чтении : 6
Способность читать области Lead-in и Lead-out : Нет
Заполнение пропущенных сэмплов тишиной : Да
Удаление блоков с тишиной в начале и конце : Нет
При вычислениях CRC использовались нулевые сэмплы : Да
Интерфейс : Установленный внешний ASPI-интерфейс

Выходной формат : Пользовательский кодировщик
Выбранный битрейт : 1024 kBit/s
Качество : Высокий
Добавление ID3-тега : Нет
Утилита сжатия : C:\Program Files\Exact Audio Copy\FLAC\FLAC.EXE
Дополнительные параметры : -10 -V -T "ARTIST=%artist%" -T "ALBUM=%albumtitle%" -T "DATE=%year%" -T "GENRE=%genre%" -T "COMMENT=ripped by izia1956" %source%


TOC извлечённого CD

Трек | Старт | Длительность | Начальный сектор | Конечный сектор
––––––––––––––––––––––––––––––––––-
1 | 0:00.00 | 3:41.67 | 0 | 16641
2 | 3:41.67 | 4:33.65 | 16642 | 37181
3 | 8:15.57 | 4:45.30 | 37182 | 58586
4 | 13:01.12 | 2:59.38 | 58587 | 72049
5 | 16:00.50 | 4:36.42 | 72050 | 92791
6 | 20:37.17 | 3:05.28 | 92792 | 106694
7 | 23:42.45 | 5:09.12 | 106695 | 129881
8 | 28:51.57 | 3:52.23 | 129882 | 147304
9 | 32:44.05 | 4:50.40 | 147305 | 169094
10 | 37:34.45 | 3:13.30 | 169095 | 183599


Характеристики диапазона извлечения и сообщения об ошибках

Выбранный диапазон

Имя файла D:\BitComet\Steve Oliver(flac)\2006 - Snowfall\Steve Oliver - Snowfall.wav

Пиковый уровень 99.9 %
Скорость извлечения 2.8 X
Качество диапазона 100.0 %
CRC теста F851CAA2
CRC копии F851CAA2
Копирование… OK

Ошибок не произошло


AccurateRip: сводка

Трек 1 : извлечено точно (доверие 1) [795F461D] (AR v1)
Трек 2 : извлечено точно (доверие 1) [561D39C9] (AR v1)
Трек 3 : извлечено точно (доверие 1) [912B68C6] (AR v1)
Трек 4 : извлечено точно (доверие 1) [E360104A] (AR v1)
Трек 5 : извлечено точно (доверие 1) [A961BCB1] (AR v1)
Трек 6 : извлечено точно (доверие 1) [606055C8] (AR v1)
Трек 7 : извлечено точно (доверие 1) [002273D1] (AR v1)
Трек 8 : извлечено точно (доверие 1) [7D0F8D7D] (AR v1)
Трек 9 : извлечено точно (доверие 1) [CB625DDC] (AR v1)
Трек 10 : извлечено точно (доверие 1) [B20D5043] (AR v1)

Все треки извлечены точно

Конец отчёта

==== Контрольная сумма отчёта A245958046A59F826341A32BEFB32C722D5ADC60520AA76B7BD0B095E2A04B4A ====

foobar2000 1.2 / Dynamic Range Meter 1.1.1
log date: 2014-12-24 16:44:17

––––––––––––––––––––––––––––––––––––––––
Analyzed: Steve Oliver / Snowfall
––––––––––––––––––––––––––––––––––––––––

DR Peak RMS Duration Track
––––––––––––––––––––––––––––––––––––––––
DR7 -0.08 dB -9.06 dB 3:42 01-Carol Of The Bells
DR6 -0.02 dB -7.60 dB 4:34 02-Silent Night
DR7 -0.01 dB -9.00 dB 4:45 03-Deck The Halls / Angels We Have Heard On High
DR7 -0.16 dB -8.90 dB 3:00 04-Joy To The World
DR7 -0.01 dB -8.64 dB 4:37 05-White Christmas
DR7 -0.01 dB -8.89 dB 3:05 06-Cyrstals In The Snow
DR7 -0.09 dB -8.77 dB 5:09 07-The Christmas Song
DR6 0.00 dB -7.93 dB 3:52 08-Little Drummer Boy
DR6 0.00 dB -9.31 dB 4:51 09-God Rest Ye Merry Gentlemen
DR6 -0.01 dB -7.88 dB 3:13 10-Watching The Snowfall
––––––––––––––––––––––––––––––––––––––––

Number of tracks: 10
Official DR value: DR6

Samplerate: 44100 Hz
Channels: 2
Bits per sample: 16
Bitrate: 899 kbps
Codec: FLAC
================================================================================




Steve Oliver - Albums Collection 1999-2016 (10CD + DVD5)

Steve Oliver - One Night (2008) CD + DVD5
EAC | FLAC | Image (Cue&Log) ~ 577 Mb | Mp3 (CBR320) ~ 213 Mb | Time: 01:12:45
DVD5 | NTSC, 16:9 (720x480) VBR | AC3 5.1 @ 448 Kbps or 2.0 @ 192 Kbps | 01:26:12 | ~ 3.6 Gb
Label: NuGroove Music | # NUG-2008-2 | Scans included

Cynics who don't get smooth jazz – and wonder why thousands of passionate genre fans spend their hard-earned money every year on the genre's many festivals and cruises – just listen to the radio too much. No matter how catchy the songs are, the airwaves just don't capture the potential magic and fire of a live performance. That goes for most of the format's big artists, but few have been as compelling on-stage as the multi-talented Steve Oliver, whose soulful vocals and snappy guitar lines are just the beginning of what is essentially a one-man orchestra capable of numerous sonic delights; these include wild and crazy vocal percussion, breezy wordless vocal joys, and – as evidenced by the "Guitar Demonstration" of this exciting live CD/DVD package – a synth guitar that can simulate everything from a grand piano to bass, flute, and orchestrated strings. In the economic climate of the late 2000s, a dual package like this seemed like a calculated commercial risk. But as wildly compelling as Oliver's instantly infectious songs are on the ears, the visual entertainment he provides and the way his grateful audience responds (at any of his 200-plus performances annually) make a DVD of one of his classic performances (at the State Theatre in Modesto, CA) a must. Oliver doesn't go crazy finding new twists on instrumental hits like "Magic World" and "Chips and Salsa," but they are still some of smooth jazz's best songs and are always fun to hear. On classics like "I Know" and new tunes like "Fearless," he also shows his penchant for romantic lead vocals. The title of one of the package's later uptempo tracks, the breezy top-down "Feeling Good," sums up the charms Oliver offers throughout. Beyond the 13 live performances, the guitarist adds two new studio tunes, the catchy vocal "This Fire" and a cheerful new instrumental, "On the Upside," which is just that. The DVD features a behind-the-scenes segment and a lighthearted explanation of the artist's "guitar orchestra" that shows his truly "Radiant" personality one more time. If this blisteringly happy disc doesn't make you feel all Disneyland, no music released in 2008 will.

Jonathan Widran , Allmusic.com

CD Tracklist:

01. Magic World (06:14)
02. First View (05:08)
03. Guitar Demonstration (02:16)
04. I Know (06:36)
05. Chips and Salsa (04:17)
06. Sojourn (04:53)
07. Fearless (05:25)
08. Show You Love (03:43)
09. Wings of Spring (04:28)
10. Bend or Break (04:39)
11. High Noon (05:23)
12. Feeling Good (05:34)
13. Radiant Dreams (06:10)
14. This Fire (04:16)
15. On the Upside (03:39)


Exact Audio Copy V1.0 beta 3 from 29. August 2011

Отчёт EAC об извлечении, выполненном 14. июня 2014, 18:00

Steve Oliver / One Night

Дисковод: PLEXTOR DVDR PX-880SA Adapter: 1 ID: 0

Режим чтения : Достоверность
Использование точного потока : Да
Отключение кэша аудио : Да
Использование указателей C2 : Нет

Коррекция смещения при чтении : 6
Способность читать области Lead-in и Lead-out : Нет
Заполнение пропущенных сэмплов тишиной : Да
Удаление блоков с тишиной в начале и конце : Нет
При вычислениях CRC использовались нулевые сэмплы : Да
Интерфейс : Установленный внешний ASPI-интерфейс

Выходной формат : Пользовательский кодировщик
Выбранный битрейт : 1024 kBit/s
Качество : Высокий
Добавление ID3-тега : Нет
Утилита сжатия : C:\Program Files\Exact Audio Copy\FLAC\FLAC.EXE
Дополнительные параметры : -10 -V -T "ARTIST=%artist%" -T "ALBUM=%albumtitle%" -T "DATE=%year%" -T "GENRE=%genre%" -T "COMMENT=ripped by izia1956" %source%


TOC извлечённого CD

Трек | Старт | Длительность | Начальный сектор | Конечный сектор
––––––––––––––––––––––––––––––––––-
1 | 0:00.00 | 6:14.04 | 0 | 28053
2 | 6:14.04 | 5:08.18 | 28054 | 51171
3 | 11:22.22 | 2:16.30 | 51172 | 61401
4 | 13:38.52 | 6:36.65 | 61402 | 91166
5 | 20:15.42 | 4:17.14 | 91167 | 110455
6 | 24:32.56 | 4:53.52 | 110456 | 132482
7 | 29:26.33 | 5:25.19 | 132483 | 156876
8 | 34:51.52 | 3:43.10 | 156877 | 173611
9 | 38:34.62 | 4:28.11 | 173612 | 193722
10 | 43:02.73 | 4:39.40 | 193723 | 214687
11 | 47:42.38 | 5:23.12 | 214688 | 238924
12 | 53:05.50 | 5:34.38 | 238925 | 264012
13 | 58:40.13 | 6:10.02 | 264013 | 291764
14 | 64:50.15 | 4:16.21 | 291765 | 310985
15 | 69:06.36 | 3:39.06 | 310986 | 327416


Характеристики диапазона извлечения и сообщения об ошибках

Выбранный диапазон

Имя файла D:\BitComet\Steve Oliver(flac)\2008 - One Night\Steve Oliver - One Night.wav

Пиковый уровень 98.8 %
Скорость извлечения 2.9 X
Качество диапазона 100.0 %
CRC теста D7658C7E
CRC копии D7658C7E
Копирование… OK

Ошибок не произошло


AccurateRip: сводка

Трек 1 отсутствует в базе данных
Трек 2 отсутствует в базе данных
Трек 3 отсутствует в базе данных
Трек 4 отсутствует в базе данных
Трек 5 отсутствует в базе данных
Трек 6 отсутствует в базе данных
Трек 7 отсутствует в базе данных
Трек 8 отсутствует в базе данных
Трек 9 отсутствует в базе данных
Трек 10 отсутствует в базе данных
Трек 11 отсутствует в базе данных
Трек 12 отсутствует в базе данных
Трек 13 отсутствует в базе данных
Трек 14 отсутствует в базе данных
Трек 15 отсутствует в базе данных

Ни одного трека нет в базе AccurateRip

Конец отчёта

==== Контрольная сумма отчёта BD05B096636911EB09437C5CD59A60BFDF1A56B39C90BD174897657640FFA086 ====

foobar2000 1.2 / Dynamic Range Meter 1.1.1
log date: 2014-12-24 16:44:40

––––––––––––––––––––––––––––––––––––––––
Analyzed: Steve Oliver / One Night
––––––––––––––––––––––––––––––––––––––––

DR Peak RMS Duration Track
––––––––––––––––––––––––––––––––––––––––
DR8 -0.14 dB -10.02 dB 6:14 01-Magic World
DR8 -0.11 dB -9.21 dB 5:08 02-First View
DR11 -0.19 dB -15.06 dB 2:16 03-Guitar Demonstration
DR7 -0.11 dB -9.75 dB 6:37 04-I Know
DR8 -0.15 dB -9.25 dB 4:17 05-Chips and Salsa
DR9 -0.17 dB -12.08 dB 4:54 06-Sojourn
DR7 -0.10 dB -9.49 dB 5:25 07-Fearless
DR7 -0.12 dB -9.61 dB 3:43 08-Show You Love
DR7 -0.12 dB -8.65 dB 4:28 09-Wings of Spring
DR7 -0.13 dB -9.12 dB 4:40 10-Bend or Break
DR9 -0.13 dB -10.88 dB 5:23 11-High Noon
DR8 -0.13 dB -9.67 dB 5:35 12-Feeling Good
DR7 -0.10 dB -11.07 dB 6:10 13-Radiant Dreams
DR6 -0.41 dB -7.57 dB 4:16 14-This Fire
DR7 -0.20 dB -8.23 dB 3:39 15-On the Upside
––––––––––––––––––––––––––––––––––––––––

Number of tracks: 15
Official DR value: DR8

Samplerate: 44100 Hz
Channels: 2
Bits per sample: 16
Bitrate: 1019 kbps
Codec: FLAC
================================================================================

Steve Oliver - Albums Collection 1999-2016 (10CD + DVD5)

Steve Oliver - Albums Collection 1999-2016 (10CD + DVD5)

Steve Oliver - Albums Collection 1999-2016 (10CD + DVD5)

Steve Oliver - Albums Collection 1999-2016 (10CD + DVD5)

Steve Oliver - Albums Collection 1999-2016 (10CD + DVD5)

Steve Oliver - Albums Collection 1999-2016 (10CD + DVD5)


DVD Content:

01. Magic World
02. First View
03. I know
04. Chips and Salsa
05. Tradewinds
06. Walkin
07. My Flamingo
08. Sojourn
09. Fearless
10. Show You Love
11. Wings of Spring
12. Bend or Break
13. High Noon
14. Feeling Good
15. Radiant Dreams

Bonus: Behind the scenes
Bonus: Explanation of the guitar orchestra





Steve Oliver - Albums Collection 1999-2016 (10CD + DVD5)

Steve Oliver - Global Kiss (2010)
EAC | FLAC | Image (Cue&Log) ~ 330 Mb | Mp3 (CBR320) ~ 114 Mb
Label: SOM | # none | Time: 00:48:10 | Scans included

Gifted guitarman Steve Oliver is back and in great fashion. His latest work "Global Kiss" proves one more time his versatility and creative touch throughout the whole album. Produced by him and Spyro Gyro's keyboardist Tom Schuman this new work released on March of this year displays a high level of musicianship given the variety of styles that Steve likes to explore. From the "sure-fire" smooth jazz hit in the opening track "Fun in the Sun" featuring new sax sensation Darren Rahn and my favorite "True Vision" with stellar guests like Marion Meadows on soprano, Bob Baldwin on piano and Bonny B. on drums to latin flavored "Ba Aye" which includes another outstanding line-up (Tom Schuman on keyboards and piano, Will Donato on sax, Alan Hewitt on vibes and marimba and Spyro Gyra's Bonny B on drums besides Rochon Westmoreland on bass and Humberto Vela, percussion) Steve feels "at home". In between world music numbers like the title track and "Sunlight Within" alternate with beautiful ballads like "Fearless" and "Take me away, Distant Shore" sung by Steve to perfection. By the way, it's time for an all-vocal album (I still remember his amazing cover of Buffalo Springfield's "For What it's worth"), the talent is there and it should be an interesting experience given the right tunes. This album provides a well crafted set of songs and different styles where the listener will enjoy the exquisite talent of this brilliant musician.

Charlie Trece, Amazon.com

Tracklist:

01. Fun in the Sun (03:50)
02. Global Kiss (04:12)
03. Long Road (04:21)
04. Barcelo (03:51)
05. Life Goes On (04:43)
06. Ba Aye (04:49)
07. Sunlight Within (04:35)
08. Fearless (04:18)
09. Another Place (interlude) (01:02)
10. True Vision (04:09)
11. Take Me Away (Distant Shore) (04:17)
12. Angel Amore (03:57)


Exact Audio Copy V1.0 beta 3 from 29. August 2011

Отчёт EAC об извлечении, выполненном 15. июня 2014, 15:28

Steve Oliver / Global Kiss

Дисковод: PLEXTOR DVDR PX-880SA Adapter: 1 ID: 0

Режим чтения : Достоверность
Использование точного потока : Да
Отключение кэша аудио : Да
Использование указателей C2 : Нет

Коррекция смещения при чтении : 6
Способность читать области Lead-in и Lead-out : Нет
Заполнение пропущенных сэмплов тишиной : Да
Удаление блоков с тишиной в начале и конце : Нет
При вычислениях CRC использовались нулевые сэмплы : Да
Интерфейс : Установленный внешний ASPI-интерфейс

Выходной формат : Пользовательский кодировщик
Выбранный битрейт : 1024 kBit/s
Качество : Высокий
Добавление ID3-тега : Нет
Утилита сжатия : C:\Program Files\Exact Audio Copy\FLAC\FLAC.EXE
Дополнительные параметры : -10 -V -T "ARTIST=%artist%" -T "ALBUM=%albumtitle%" -T "DATE=%year%" -T "GENRE=%genre%" -T "COMMENT=ripped by izia1956" %source%


TOC извлечённого CD

Трек | Старт | Длительность | Начальный сектор | Конечный сектор
––––––––––––––––––––––––––––––––––-
1 | 0:00.00 | 3:50.19 | 0 | 17268
2 | 3:50.19 | 4:12.64 | 17269 | 36232
3 | 8:03.08 | 4:21.65 | 36233 | 55872
4 | 12:24.73 | 3:51.60 | 55873 | 73257
5 | 16:16.58 | 4:43.17 | 73258 | 94499
6 | 21:00.00 | 4:49.65 | 94500 | 116239
7 | 25:49.65 | 4:35.42 | 116240 | 136906
8 | 30:25.32 | 4:18.71 | 136907 | 156327
9 | 34:44.28 | 1:02.21 | 156328 | 160998
10 | 35:46.49 | 4:09.15 | 160999 | 179688
11 | 39:55.64 | 4:17.16 | 179689 | 198979
12 | 44:13.05 | 3:57.11 | 198980 | 216765


Характеристики диапазона извлечения и сообщения об ошибках

Выбранный диапазон

Имя файла D:\BitComet\Steve Oliver(flac)\2010 - Global Kiss\Steve Oliver - Global Kiss.wav

Пиковый уровень 97.7 %
Скорость извлечения 2.9 X
Качество диапазона 100.0 %
CRC теста 457831F3
CRC копии 457831F3
Копирование… OK

Ошибок не произошло


AccurateRip: сводка

Трек 1 : извлечено точно (доверие 3) [3367CDCA] (AR v2)
Трек 2 : извлечено точно (доверие 3) [9C78E692] (AR v2)
Трек 3 : извлечено точно (доверие 3) [F25FAA90] (AR v2)
Трек 4 : извлечено точно (доверие 3) [0D33919D] (AR v2)
Трек 5 : извлечено точно (доверие 3) [A97EE9CE] (AR v2)
Трек 6 : извлечено точно (доверие 3) [C62F2938] (AR v2)
Трек 7 : извлечено точно (доверие 3) [D59876EF] (AR v2)
Трек 8 : извлечено точно (доверие 3) [266D171B] (AR v2)
Трек 9 : извлечено точно (доверие 3) [6938809C] (AR v2)
Трек 10 : извлечено точно (доверие 3) [D1261ABE] (AR v2)
Трек 11 : извлечено точно (доверие 3) [25994643] (AR v2)
Трек 12 : извлечено точно (доверие 3) [9018E28F] (AR v2)

Все треки извлечены точно

Конец отчёта

==== Контрольная сумма отчёта 8912A6CE6FAEE3FC4BB0AAA09B8B294AD82E5B1B9C9F3CFBC1584C65EE9044C8 ====

foobar2000 1.2 / Dynamic Range Meter 1.1.1
log date: 2014-12-24 16:44:55

––––––––––––––––––––––––––––––––––––––––
Analyzed: Steve Oliver / Global Kiss
––––––––––––––––––––––––––––––––––––––––

DR Peak RMS Duration Track
––––––––––––––––––––––––––––––––––––––––
DR7 -0.20 dB -8.94 dB 3:50 01-Fun in the Sun
DR9 -0.20 dB -10.68 dB 4:13 02-Global Kiss
DR9 -0.20 dB -10.19 dB 4:22 03-Long Road
DR8 -0.20 dB -10.04 dB 3:52 04-Barcelo
DR8 -0.20 dB -10.77 dB 4:43 05-Life Goes On
DR10 -0.20 dB -12.24 dB 4:50 06-Ba Aye
DR9 -0.20 dB -11.97 dB 4:36 07-Sunlight Within
DR9 -0.20 dB -10.64 dB 4:19 08-Fearless
DR12 -2.10 dB -16.90 dB 1:02 09-Another Place (interlude)
DR8 -0.20 dB -10.20 dB 4:09 10-True Vision
DR7 -0.20 dB -8.81 dB 4:17 11-Take Me Away (Distant Shore)
DR8 -0.20 dB -10.15 dB 3:57 12-Angel Amore
––––––––––––––––––––––––––––––––––––––––

Number of tracks: 12
Official DR value: DR9

Samplerate: 44100 Hz
Channels: 2
Bits per sample: 16
Bitrate: 947 kbps
Codec: FLAC
================================================================================




Steve Oliver - Albums Collection 1999-2016 (10CD + DVD5)

Steve Oliver - World Citizen (2012)
EAC | FLAC | Image (Cue&Log) ~ 358 Mb | Mp3 (CBR320) ~ 137 Mb
Label: SOM | # none | Time: 00:51:17 | Scans included

Steve Oliver blew a passionate Global Kiss to fans everywhere on his 2010 album release, scoring two number 1 hits (Global Kiss and Fun In The Sun) on the Billboard chart. Further defining his unique role as a musical World Citizen. On his latest collection, the dynamic guitarist and vocalist keeps the universal spirit alive. On World Citizen, Oliver creates an amazing array of sounds with his guitar, guitar synth and voice (singing three lead vocals and many wordless passages), and introduces his skills on the violin on Fiesta. He invites along several of the key musicians who made Global Kiss an invigorating triumph, including longtime collaborator, keyboardist Tom Schuman, and Trinidad born drummer/percussionist Bonny B (both from Spyro Gyra). Also making notable appearances are saxophonists Paul Taylor, Andrew Neu and Will Donato. Bassists Eddie Reddick, Donald Philips, KT Tyler and Billy Sherwood (from the legendary band Yes); and Moody Blues keyboardist Alan Hewitt on the Hammond B-3 organ on the funky and bluesy, brass splashed opening track Watching The World, which is the album s first single. No Oliver recording would be complete without a batch of high energy tunes showcasing his infectious, husky lead vocals, which he delivers on World Citizen via How Will You Know (an incisive powerful song which questions 'know it all types' who speak of things they have never experienced themselves). The empowering soul-jazz anthem New Possibilities (featuring optimistic lyrics co-written by Oliver and Grammy winning singer/songwriter Jim Peterik, of Ides of March and Survivor fame). I came up with the title World Citizen while I was recording Global Kiss and felt that the concept would lend itself to an expansive musical landscape and where I could really explore a lot of exciting and fertile territory as a composer. Steve has scored numerous airplay hits and nominations for Best New Artist and Best Guitar Player, both in the US and Canada. World Citizen is an amazing statement from a passionate Artist.

Almazon.com

Tracklist:

01. Watching The World (03:30)
02. Fiesta (03:35)
03. World Citizen (04:34)
04. How Will You Know (04:45)
05. Up Front (03:51)
06. Design (05:02)
07. New Possibilities (04:04)
08. One Big Smile (03:22)
09. Pure Spirit (05:30)
10. Time Never Goes Away (04:11)
11. Desert Traveler (04:32)
12. Wide Open View (04:15)


Exact Audio Copy V1.0 beta 3 from 29. August 2011

Отчёт EAC об извлечении, выполненном 15. июня 2014, 17:22

Steve Oliver / World Citizen

Дисковод: PLEXTOR DVDR PX-880SA Adapter: 1 ID: 0

Режим чтения : Достоверность
Использование точного потока : Да
Отключение кэша аудио : Да
Использование указателей C2 : Нет

Коррекция смещения при чтении : 6
Способность читать области Lead-in и Lead-out : Нет
Заполнение пропущенных сэмплов тишиной : Да
Удаление блоков с тишиной в начале и конце : Нет
При вычислениях CRC использовались нулевые сэмплы : Да
Интерфейс : Установленный внешний ASPI-интерфейс

Выходной формат : Пользовательский кодировщик
Выбранный битрейт : 1024 kBit/s
Качество : Высокий
Добавление ID3-тега : Нет
Утилита сжатия : C:\Program Files\Exact Audio Copy\FLAC\FLAC.EXE
Дополнительные параметры : -10 -V -T "ARTIST=%artist%" -T "ALBUM=%albumtitle%" -T "DATE=%year%" -T "GENRE=%genre%" -T "COMMENT=ripped by izia1956" %source%


TOC извлечённого CD

Трек | Старт | Длительность | Начальный сектор | Конечный сектор
––––––––––––––––––––––––––––––––––-
1 | 0:00.00 | 3:30.72 | 0 | 15821
2 | 3:30.72 | 3:35.04 | 15822 | 31950
3 | 7:06.01 | 4:34.62 | 31951 | 52562
4 | 11:40.63 | 4:45.64 | 52563 | 74001
5 | 16:26.52 | 3:51.25 | 74002 | 91351
6 | 20:18.02 | 5:02.64 | 91352 | 114065
7 | 25:20.66 | 4:04.35 | 114066 | 132400
8 | 29:25.26 | 3:22.03 | 132401 | 147553
9 | 32:47.29 | 5:30.45 | 147554 | 172348
10 | 38:17.74 | 4:11.45 | 172349 | 191218
11 | 42:29.44 | 4:32.46 | 191219 | 211664
12 | 47:02.15 | 4:15.16 | 211665 | 230805


Характеристики диапазона извлечения и сообщения об ошибках

Выбранный диапазон

Имя файла D:\BitComet\Steve Oliver(flac)\2012 - World Citizen\Steve Oliver - World Citizen.wav

Пиковый уровень 97.7 %
Скорость извлечения 2.9 X
Качество диапазона 100.0 %
CRC теста 52559724
CRC копии 52559724
Копирование… OK

Ошибок не произошло


AccurateRip: сводка

Трек 1 : извлечено точно (доверие 2) [0E500602] (AR v2)
Трек 2 : извлечено точно (доверие 2) [A802A016] (AR v2)
Трек 3 : извлечено точно (доверие 2) [237F3A41] (AR v2)
Трек 4 : извлечено точно (доверие 2) [0700045F] (AR v2)
Трек 5 : извлечено точно (доверие 2) [E62B57BA] (AR v2)
Трек 6 : извлечено точно (доверие 2) [44D6A003] (AR v2)
Трек 7 : извлечено точно (доверие 2) [2D2646DC] (AR v2)
Трек 8 : извлечено точно (доверие 2) [41DD76BE] (AR v2)
Трек 9 : извлечено точно (доверие 2) [F650E4DD] (AR v2)
Трек 10 : извлечено точно (доверие 2) [A5F50EB6] (AR v2)
Трек 11 : извлечено точно (доверие 2) [AB6EA936] (AR v2)
Трек 12 : извлечено точно (доверие 2) [47CE7201] (AR v2)

Все треки извлечены точно

Конец отчёта

==== Контрольная сумма отчёта 9E54CA706A2FDF670729B79634DB9C173DDF2BD8A96CC88256D3579656AD7B19 ====

foobar2000 1.2 / Dynamic Range Meter 1.1.1
log date: 2014-12-24 16:45:12

––––––––––––––––––––––––––––––––––––––––
Analyzed: Steve Oliver / World Citizen
––––––––––––––––––––––––––––––––––––––––

DR Peak RMS Duration Track
––––––––––––––––––––––––––––––––––––––––
DR8 -0.20 dB -9.65 dB 3:31 01-Watching The World
DR8 -0.20 dB -8.80 dB 3:35 02-Fiesta
DR9 -0.20 dB -10.56 dB 4:35 03-World Citizen
DR8 -0.20 dB -10.32 dB 4:46 04-How Will You Know
DR8 -0.20 dB -9.32 dB 3:51 05-Up Front
DR8 -0.20 dB -11.33 dB 5:03 06-Design
DR9 -0.20 dB -9.97 dB 4:04 07-New Possibilities
DR9 -0.20 dB -10.73 dB 3:22 08-One Big Smile
DR9 -0.20 dB -11.52 dB 5:31 09-Pure Spirit
DR9 -0.20 dB -11.07 dB 4:12 10-Time Never Goes Away
DR10 -0.20 dB -11.24 dB 4:33 11-Desert Traveler
DR8 -3.37 dB -13.58 dB 4:15 12-Wide Open View
––––––––––––––––––––––––––––––––––––––––

Number of tracks: 12
Official DR value: DR8

Samplerate: 44100 Hz
Channels: 2
Bits per sample: 16
Bitrate: 919 kbps
Codec: FLAC
================================================================================




Steve Oliver - Albums Collection 1999-2016 (10CD + DVD5)

Steve Oliver - Best Of So far (2014)
EAC | FLAC | Image (Cue&Log) ~ 468 Mb | Mp3 (CBR320) ~ 167 Mb
Label: SOM | # none | Time: 01:04:29 | Scans included

Celebrate a milestone in the musical career of Steve Oliver. With eight albums over the last 15 years, Steve's 'Best Of so far' gathers multiple #1 Billboard hits and fan favorites including 2 brand new songs. From 1999's First View, Oliver recaptures the magic of that first album by re-recording 'West End' and 'I Know' for this compilation. Concert and radio favorites like 'High Noon', 'Chips and Salsa' and 'Fun in the Sun' will keep listeners on their feet. 'Calling You' and 'Hello Mornin' are wonderful new songs that feel right at home among this collection of hits. The title suggests these are the best so far, and as a collection, it definitely reflects the consistent energy and great songwriting skills that has kept Steve Oliver a chart topping name, a great guitarist/vocalist and producer. Here's to the next 15 Steve!

Amazon.com

Tracklist:

01. High Noon (03:52)
02. Fun in the Sun (03:51)
03. Chips and Salsa (03:56)
04. Calling You (New Song 2014) (04:09)
05. I Know (New Recording) (05:13)
06. Global Kiss (04:12)
07. West End (New Recording) (04:39)
08. Tradewinds (04:21)
09. Watching the World (03:32)
10. Hello Mornin' (New Song 2014) (04:22)
11. Fearless (04:18)
12. World Citizen (04:35)
13. Feeling Good (04:58)
14. Positive Energy (03:59)
15. Wings of Spring (04:25)


Exact Audio Copy V1.0 beta 3 from 29. August 2011

Отчёт EAC об извлечении, выполненном 15. июня 2014, 19:17

Steve Oliver / Best Of so far

Дисковод: PLEXTOR DVDR PX-880SA Adapter: 1 ID: 0

Режим чтения : Достоверность
Использование точного потока : Да
Отключение кэша аудио : Да
Использование указателей C2 : Нет

Коррекция смещения при чтении : 6
Способность читать области Lead-in и Lead-out : Нет
Заполнение пропущенных сэмплов тишиной : Да
Удаление блоков с тишиной в начале и конце : Нет
При вычислениях CRC использовались нулевые сэмплы : Да
Интерфейс : Установленный внешний ASPI-интерфейс

Выходной формат : Пользовательский кодировщик
Выбранный битрейт : 1024 kBit/s
Качество : Высокий
Добавление ID3-тега : Нет
Утилита сжатия : C:\Program Files\Exact Audio Copy\FLAC\FLAC.EXE
Дополнительные параметры : -10 -V -T "ARTIST=%artist%" -T "ALBUM=%albumtitle%" -T "DATE=%year%" -T "GENRE=%genre%" -T "COMMENT=ripped by izia1956" %source%


TOC извлечённого CD

Трек | Старт | Длительность | Начальный сектор | Конечный сектор
––––––––––––––––––––––––––––––––––-
1 | 0:00.00 | 3:52.34 | 0 | 17433
2 | 3:52.34 | 3:51.16 | 17434 | 34774
3 | 7:43.50 | 3:56.28 | 34775 | 52502
4 | 11:40.03 | 4:09.41 | 52503 | 71218
5 | 15:49.44 | 5:13.24 | 71219 | 94717
6 | 21:02.68 | 4:12.50 | 94718 | 113667
7 | 25:15.43 | 4:39.52 | 113668 | 134644
8 | 29:55.20 | 4:21.05 | 134645 | 154224
9 | 34:16.25 | 3:32.31 | 154225 | 170155
10 | 37:48.56 | 4:22.28 | 170156 | 189833
11 | 42:11.09 | 4:18.52 | 189834 | 209235
12 | 46:29.61 | 4:35.48 | 209236 | 229908
13 | 51:05.34 | 4:58.45 | 229909 | 252303
14 | 56:04.04 | 3:59.26 | 252304 | 270254
15 | 60:03.30 | 4:25.63 | 270255 | 290192


Характеристики диапазона извлечения и сообщения об ошибках

Выбранный диапазон

Имя файла D:\BitComet\Steve Oliver(flac)\2014 - Best Of so far\Steve Oliver - Best Of so far.wav

Пиковый уровень 97.7 %
Скорость извлечения 2.9 X
Качество диапазона 100.0 %
CRC теста 571C8DC0
CRC копии 571C8DC0
Копирование… OK

Ошибок не произошло


AccurateRip: сводка

Трек 1 отсутствует в базе данных
Трек 2 отсутствует в базе данных
Трек 3 отсутствует в базе данных
Трек 4 отсутствует в базе данных
Трек 5 отсутствует в базе данных
Трек 6 отсутствует в базе данных
Трек 7 отсутствует в базе данных
Трек 8 отсутствует в базе данных
Трек 9 отсутствует в базе данных
Трек 10 отсутствует в базе данных
Трек 11 отсутствует в базе данных
Трек 12 отсутствует в базе данных
Трек 13 отсутствует в базе данных
Трек 14 отсутствует в базе данных
Трек 15 отсутствует в базе данных

Ни одного трека нет в базе AccurateRip

Конец отчёта

==== Контрольная сумма отчёта A8409BF92D10EFCAD0E663186EBBA8840D458A1B0427CB16FEAA07126631F912 ====

foobar2000 1.2 / Dynamic Range Meter 1.1.1
log date: 2014-12-24 16:45:32

––––––––––––––––––––––––––––––––––––––––
Analyzed: Steve Oliver / Best Of so far
––––––––––––––––––––––––––––––––––––––––

DR Peak RMS Duration Track
––––––––––––––––––––––––––––––––––––––––
DR9 -0.20 dB -10.56 dB 3:52 01-High Noon
DR8 -0.20 dB -9.91 dB 3:51 02-Fun in the Sun
DR10 -0.36 dB -11.41 dB 3:56 03-Chips and Salsa
DR8 -0.20 dB -9.97 dB 4:10 04-Calling You (New Song 2014)
DR7 -0.45 dB -9.76 dB 5:13 05-I Know (New Recording)
DR9 -0.20 dB -11.22 dB 4:13 06-Global Kiss
DR7 -0.20 dB -8.60 dB 4:40 07-West End (New Recording)
DR7 -0.20 dB -8.59 dB 4:21 08-Tradewinds
DR9 -0.20 dB -10.14 dB 3:32 09-Watching the World
DR7 -0.20 dB -9.01 dB 4:22 10-Hello Mornin' (New Song 2014)
DR9 -0.20 dB -10.65 dB 4:19 11-Fearless
DR9 -0.20 dB -10.73 dB 4:36 12-World Citizen
DR9 -0.20 dB -10.04 dB 4:59 13-Feeling Good
DR8 -0.20 dB -10.08 dB 3:59 14-Positive Energy
DR8 -0.20 dB -9.02 dB 4:26 15-Wings of Spring
––––––––––––––––––––––––––––––––––––––––

Number of tracks: 15
Official DR value: DR8

Samplerate: 44100 Hz
Channels: 2
Bits per sample: 16
Bitrate: 972 kbps
Codec: FLAC
================================================================================




Steve Oliver - Albums Collection 1999-2016 (10CD + DVD5)

Steve Oliver - Pictures and Frames (2016)
EAC | FLAC | Image (Cue&Log) ~ 327 Mb | Mp3 (CBR320) ~ 109 Mb
Label: SOM | # 29264-SO | Time: 00:47:37 | Scans included

After a decade and a half of #1 Billboard Jazz Instrumental Hits, the multi talented singer, songwriter and guitarist goes full on adult contemporary with Pictures and Frames, his first ever all vocal album. Recorded at the legendary Capitol Studios in Hollywood, the John Mayer, Sting and Steely Dan influenced Pictures and Frames features the exotic soundscaping of Steve Reid, former percussionist of contemporary jazz powerhouse The Rippingtons and the all star rhythm section of bassist Lee Sklar whose 2,000 studio sessions include multiple albums with James Taylor, Phil Collins and Linda Ronstadt and legendary jazz/rock drummer Vinnie Colaiuta, known for his work with Sting, Frank Zappa, Eric Clapton and Herbie Hancock, among hundreds of others. As a songwriter, Oliver runs the gamut from pointed social observations like Instant Gratification, about the lack of human communication due to our collective obsession with cell phones in our demanding, push button society, to lush romantic expressions like A Waltz To You, and the lighthearted Long Time Comin , which showcases Oliver's trademark a capella virtuosity and energizing vocal percussion. Everyone is always asking Why, the first radio single. Not only does Pictures and Frames highlight his songwriting abilities but also his great vocals and dynamic guitar playing.

Tracklist:

01. Why (03:33)
02. Pictures and Frames (04:26)
03. Instant Gratification (03:39)
04. Waltz to You (05:51)
05. A Piece of Me (03:59)
06. We Are (03:49)
07. Last Night (04:05)
08. Long Time Comin' (03:03)
09. Gave Me an Offer (05:54)
10. Forever and a Day (05:06)
11. Why (Bonus Track) (04:07)


Exact Audio Copy V1.0 beta 3 from 29. August 2011

Отчёт EAC об извлечении, выполненном 28. мая 2016, 17:40

Steve Oliver / Pictures and Frames

Дисковод: ATAPI iHAS424 A Adapter: 0 ID: 0

Режим чтения : Достоверность
Использование точного потока : Да
Отключение кэша аудио : Да
Использование указателей C2 : Нет

Коррекция смещения при чтении : 6
Способность читать области Lead-in и Lead-out : Нет
Заполнение пропущенных сэмплов тишиной : Да
Удаление блоков с тишиной в начале и конце : Нет
При вычислениях CRC использовались нулевые сэмплы : Да
Интерфейс : Установленный внешний ASPI-интерфейс

Выходной формат : Пользовательский кодировщик
Выбранный битрейт : 1024 kBit/s
Качество : Высокий
Добавление ID3-тега : Нет
Утилита сжатия : C:\Program Files\Exact Audio Copy\FLAC\FLAC.EXE
Дополнительные параметры : -8 -V -T "ARTIST=%artist%" -T "ALBUM=%albumtitle%" -T "DATE=%year%" -T "GENRE=%genre%" -T "COMMENT=ripped by izia1956" %source%


TOC извлечённого CD

Трек | Старт | Длительность | Начальный сектор | Конечный сектор
––––––––––––––––––––––––––––––––––-
1 | 0:01.62 | 3:33.56 | 137 | 16167
2 | 3:35.43 | 4:26.25 | 16168 | 36142
3 | 8:01.68 | 3:39.11 | 36143 | 52578
4 | 11:41.04 | 5:51.28 | 52579 | 78931
5 | 17:32.32 | 3:59.46 | 78932 | 96902
6 | 21:32.03 | 3:49.55 | 96903 | 114132
7 | 25:21.58 | 4:05.57 | 114133 | 132564
8 | 29:27.40 | 3:03.23 | 132565 | 146312
9 | 32:30.63 | 5:54.69 | 146313 | 172931
10 | 38:25.57 | 5:06.04 | 172932 | 195885
11 | 43:31.61 | 4:07.29 | 195886 | 214439


Характеристики диапазона извлечения и сообщения об ошибках

Выбранный диапазон

Имя файла D:\BitComet\Steve Oliver(flac)\2016 - Pictures and Frames\Steve Oliver - Pictures and Frames.wav

Пиковый уровень 97.6 %
Скорость извлечения 5.7 X
Качество диапазона 99.9 %
CRC теста 2843F58B
CRC копии 2843F58B
Копирование… OK

Ошибок не произошло


AccurateRip: сводка

Трек 1 отсутствует в базе данных
Трек 2 отсутствует в базе данных
Трек 3 отсутствует в базе данных
Трек 4 отсутствует в базе данных
Трек 5 отсутствует в базе данных
Трек 6 отсутствует в базе данных
Трек 7 отсутствует в базе данных
Трек 8 отсутствует в базе данных
Трек 9 отсутствует в базе данных
Трек 10 отсутствует в базе данных
Трек 11 отсутствует в базе данных

Ни одного трека нет в базе AccurateRip

Конец отчёта

==== Контрольная сумма отчёта 08D93B9FC8D267F04A4B3A08DDA4928395C1E6A72F3ED0909184D4CFD5D1C5F5 ====

foobar2000 1.2 / Dynamic Range Meter 1.1.1
log date: 2016-06-05 12:45:39

––––––––––––––––––––––––––––––––––––––––
Analyzed: Steve Oliver / Pictures and Frames
––––––––––––––––––––––––––––––––––––––––

DR Peak RMS Duration Track
––––––––––––––––––––––––––––––––––––––––
DR8 -0.21 dB -9.73 dB 3:34 01-Why
DR9 -0.21 dB -11.30 dB 4:26 02-Pictures and Frames
DR8 -0.21 dB -9.48 dB 3:39 03-Instant Gratification
DR7 -0.21 dB -9.79 dB 5:51 04-Waltz to You
DR9 -0.21 dB -10.93 dB 4:00 05-A Piece of Me
DR8 -0.21 dB -9.40 dB 3:50 06-We Are
DR8 -0.21 dB -10.45 dB 4:06 07-Last Night
DR8 -0.21 dB -10.93 dB 3:03 08-Long Time Comin'
DR9 -0.21 dB -10.84 dB 5:55 09-Gave Me an Offer
DR8 -1.10 dB -10.87 dB 5:06 10-Forever and a Day
DR7 -0.21 dB -9.66 dB 4:07 11-Why (Bonus Track)
––––––––––––––––––––––––––––––––––––––––

Number of tracks: 11
Official DR value: DR8

Samplerate: 44100 Hz
Channels: 2
Bits per sample: 16
Bitrate: 863 kbps
Codec: FLAC
================================================================================




All thanks to original releaser - izia1956

More interesting music in My Blog