Subcategories

Steve Young - Rock Salt & Nails (1969) [Reissue 2010]

Posted By: Designol
Steve Young - Rock Salt & Nails (1969) [Reissue 2010]

Steve Young - Rock Salt & Nails (1969) [Reissue 2010]
EAC | FLAC | Tracks (Cue&Log) ~ 219 Mb | Mp3 (CBR320) ~ 98 Mb | Scans included | 00:38:00
Singer/Songwriter, Country-Rock, Outlaw Country, Country-Folk | Label: Big Pink | # BIG PINK 68

Rock Salt & Nails is the debut album by Steve Young. It is a pioneering Country rock/Outlaw country album that was recorded in 1969, with guest musicians Gram Parsons, Gene Clark and James Burton.

Rock Salt and Nails is a highly regarded cult country-rock-folk record, in part because some of the supporting musicians are highly regarded pioneers of the form: Gram Parsons, Chris Hillman, and Gene Clark all appear on the album. While it is not among the very best of such late-'60s hybrids, it is pretty good, though too low-key to command the kind of wide interest (by cult standards, anyway) that someone like Clark or Parsons does. Steve Young has an unusually convincing reedy voice, never overdoing the melodramatics yet establishing a dramatic atmosphere that admits hints of blues, soul, and swamp pop. When distant, mournful strings are added to his more anguished and somber songs, like "Seven Bridges Road," "Holler in the Swamp," and "Kenny's Song," there's an effective multi-dimensionality rare in early country-rock. Other songs, particularly the covers of old country tunes, are less striking. It's an interesting release, though, that's quite rewarding for fans of more adventurous country-rock fusions.

Review by Richie Unterberger, Allmusic.com

Steve Young at Allmusic
Steve Young at Wiki

Tracklist:

01. That's How Strong My Love Is (3:43)
02. Rock, Salt & Nails (3:44)
03. I'm a One Woman Man (2:15)
04. Coyote (4:18)
05. Gonna Find Me a Bluebird (2:43)
06. Love in My Time (2:17)
07. Seven Bridges Road (3:40)
08. Kenny's Song (4:12)
09. Holler in the Swamp (3:53)
10. Hoboin' (4:18)
11. My Sweet Love Ain't Around (2:56)


Exact Audio Copy V1.0 beta 2 from 29. April 2011

EAC extraction logfile from 21. September 2011, 20:26

Steve Young / Rock Salt and Nails

Used drive : ASUS SDRW-08D2S-U Adapter: 1 ID: 0

Read mode : Secure
Utilize accurate stream : Yes
Defeat audio cache : Yes
Make use of C2 pointers : No

Read offset correction : 103
Overread into Lead-In and Lead-Out : No
Fill up missing offset samples with silence : Yes
Delete leading and trailing silent blocks : No
Null samples used in CRC calculations : Yes
Used interface : Installed external ASPI interface
Gap handling : Appended to previous track

Used output format : User Defined Encoder
Selected bitrate : 320 kBit/s
Quality : High
Add ID3 tag : No
Command line compressor : C:\Program Files\Exact Audio Copy\Flac\flac.exe
Additional command line options : -V -8 -T "artist=%artist%" -T "title=%title%" -T "album=%albumtitle%" -T "date=%year%" -T "tracknumber=%tracknr%" -T "genre=%genre%" %source%


TOC of the extracted CD

Track | Start | Length | Start sector | End sector
––––––––––––––––––––––––––––-
1 | 0:00.00 | 3:43.18 | 0 | 16742
2 | 3:43.18 | 3:44.37 | 16743 | 33579
3 | 7:27.55 | 2:15.30 | 33580 | 43734
4 | 9:43.10 | 4:18.23 | 43735 | 63107
5 | 14:01.33 | 2:43.35 | 63108 | 75367
6 | 16:44.68 | 2:16.70 | 75368 | 85637
7 | 19:01.63 | 3:40.17 | 85638 | 102154
8 | 22:42.05 | 4:11.60 | 102155 | 121039
9 | 26:53.65 | 3:53.05 | 121040 | 138519
10 | 30:46.70 | 4:17.50 | 138520 | 157844
11 | 35:04.45 | 2:55.53 | 157845 | 171022


Track 1

Filename Z:\rip\Steve Young - Rock Salt and Nails () (FLAC)\01 - That's How Strong My Love Is.wav

Pre-gap length 0:00:02.00

Peak level 100.0 %
Extraction speed 1.2 X
Track quality 100.0 %
Test CRC A315A4B8
Copy CRC A315A4B8
Accurately ripped (confidence 2) [0012029C] (AR v1)
Copy OK

Track 2

Filename Z:\rip\Steve Young - Rock Salt and Nails () (FLAC)\02 - Rock Salt and Nails.wav

Pre-gap length 0:00:02.00

Peak level 100.0 %
Extraction speed 1.3 X
Track quality 100.0 %
Test CRC 50FCD67E
Copy CRC 50FCD67E
Accurately ripped (confidence 2) [996BF39E] (AR v1)
Copy OK

Track 3

Filename Z:\rip\Steve Young - Rock Salt and Nails () (FLAC)\03 - I'm a One Woman Man.wav

Pre-gap length 0:00:02.00

Peak level 100.0 %
Extraction speed 1.3 X
Track quality 100.0 %
Test CRC 37B91222
Copy CRC 37B91222
Accurately ripped (confidence 2) [303A0374] (AR v1)
Copy OK

Track 4

Filename Z:\rip\Steve Young - Rock Salt and Nails () (FLAC)\04 - Coyote.wav

Pre-gap length 0:00:02.00

Peak level 74.8 %
Extraction speed 1.4 X
Track quality 99.9 %
Test CRC F90026C4
Copy CRC F90026C4
Accurately ripped (confidence 2) [2E46F195] (AR v1)
Copy OK

Track 5

Filename Z:\rip\Steve Young - Rock Salt and Nails () (FLAC)\05 - Gonna Find Me a Bluebird.wav

Pre-gap length 0:00:02.00

Peak level 100.0 %
Extraction speed 1.5 X
Track quality 100.0 %
Test CRC DA45F739
Copy CRC DA45F739
Accurately ripped (confidence 2) [726F1F61] (AR v1)
Copy OK

Track 6

Filename Z:\rip\Steve Young - Rock Salt and Nails () (FLAC)\06 - Love in My Time.wav

Pre-gap length 0:00:02.00

Peak level 89.0 %
Extraction speed 1.5 X
Track quality 100.0 %
Test CRC C6C6A511
Copy CRC C6C6A511
Accurately ripped (confidence 2) [665D6815] (AR v1)
Copy OK

Track 7

Filename Z:\rip\Steve Young - Rock Salt and Nails () (FLAC)\07 - Seven Bridges Road.wav

Pre-gap length 0:00:02.00

Peak level 89.2 %
Extraction speed 1.8 X
Track quality 100.0 %
Test CRC 4633EECB
Copy CRC 4633EECB
Accurately ripped (confidence 2) [866AEA43] (AR v1)
Copy OK

Track 8

Filename Z:\rip\Steve Young - Rock Salt and Nails () (FLAC)\08 - Kenny's Song.wav

Pre-gap length 0:00:02.00

Peak level 77.2 %
Extraction speed 1.9 X
Track quality 100.0 %
Test CRC 0FD5EE35
Copy CRC 0FD5EE35
Accurately ripped (confidence 2) [CF49C542] (AR v1)
Copy OK

Track 9

Filename Z:\rip\Steve Young - Rock Salt and Nails () (FLAC)\09 - Holler in the Swamp.wav

Pre-gap length 0:00:02.00

Peak level 86.7 %
Extraction speed 1.7 X
Track quality 99.9 %
Test CRC 11371EFE
Copy CRC 11371EFE
Accurately ripped (confidence 2) [2F08DC0C] (AR v1)
Copy OK

Track 10

Filename Z:\rip\Steve Young - Rock Salt and Nails () (FLAC)\10 - Hoboin'.wav

Pre-gap length 0:00:02.00

Peak level 78.9 %
Extraction speed 2.1 X
Track quality 100.0 %
Test CRC F1B4C843
Copy CRC F1B4C843
Accurately ripped (confidence 2) [1589DFEA] (AR v1)
Copy OK

Track 11

Filename Z:\rip\Steve Young - Rock Salt and Nails () (FLAC)\11 - My Sweet Love Ain't Around.wav

Pre-gap length 0:00:02.00

Peak level 81.6 %
Extraction speed 2.0 X
Track quality 100.0 %
Test CRC 19EE25A2
Copy CRC 19EE25A2
Accurately ripped (confidence 2) [87CD9835] (AR v1)
Copy OK


All tracks accurately ripped

No errors occurred

End of status report

==== Log checksum A59BB5D63D5BD73F8966B98C8C39CCD432192A7B91AD289112FB0BC6737A035A ====

[CUETools log; Date: 29.10.2017 4:52:21; Version: 2.1.4]
[CTDB TOCID: Y.1ZjyBArsT2nmtavPCVWAbN1KI-] found.
Track | CTDB Status
1 | (2/2) Accurately ripped
2 | (2/2) Accurately ripped
3 | (2/2) Accurately ripped
4 | (2/2) Accurately ripped
5 | (2/2) Accurately ripped
6 | (2/2) Accurately ripped
7 | (2/2) Accurately ripped
8 | (2/2) Accurately ripped
9 | (2/2) Accurately ripped
10 | (2/2) Accurately ripped
11 | (2/2) Accurately ripped
[AccurateRip ID: 000f6473-00859e10-8608e80b] found.
Track [ CRC | V2 ] Status
01 [0012029c|b5a2ce89] (2+0/2) Accurately ripped
02 [996bf39e|da879e2a] (2+0/2) Accurately ripped
03 [303a0374|10b3c1f4] (2+0/2) Accurately ripped
04 [2e46f195|86538292] (2+0/2) Accurately ripped
05 [726f1f61|00dc3afc] (2+0/2) Accurately ripped
06 [665d6815|506f3894] (2+0/2) Accurately ripped
07 [866aea43|76a16036] (2+0/2) Accurately ripped
08 [cf49c542|60d509f6] (2+0/2) Accurately ripped
09 [2f08dc0c|be447f36] (2+0/2) Accurately ripped
10 [1589dfea|0e87926c] (2+0/2) Accurately ripped
11 [87cd9835|8345de84] (2+0/2) Accurately ripped

Track Peak [ CRC32 ] [W/O NULL] [ LOG ]
– 100,0 [DFD590C2] [8F3521BB]
01 100,0 [A315A4B8] [DC7BA0C2] CRC32
02 100,0 [50FCD67E] [B40124CF] CRC32
03 100,0 [37B91222] [8A45123B] CRC32
04 74,8 [F90026C4] [D9B3798B] CRC32
05 100,0 [DA45F739] [7DB5D1C9] CRC32
06 89,0 [C6C6A511] [0D4B4736] CRC32
07 89,2 [4633EECB] [F6853D92] CRC32
08 77,2 [0FD5EE35] [BF9E4EBB] CRC32
09 86,7 [11371EFE] [333D3E06] CRC32
10 78,9 [F1B4C843] [A3B138F5] CRC32
11 81,6 [19EE25A2] [E2E66030] CRC32

foobar2000 1.2 / Dynamic Range Meter 1.1.1
log date: 2017-10-29 04:55:49

––––––––––––––––––––––––––––––––––––––––
Analyzed: Steve Young / Rock Salt & Nails
––––––––––––––––––––––––––––––––––––––––

DR Peak RMS Duration Track
––––––––––––––––––––––––––––––––––––––––
DR13 0.00 dB -16.42 dB 3:43 01-That's How Strong My Love Is
DR12 0.00 dB -16.28 dB 3:44 02-Rock, Salt & Nails
DR13 0.00 dB -15.09 dB 2:15 03-I'm a One Woman Man
DR10 -2.52 dB -16.95 dB 4:18 04-Coyote
DR13 0.00 dB -15.79 dB 2:43 05-Gonna Find Me a Bluebird
DR13 -1.01 dB -16.18 dB 2:17 06-Love in My Time
DR13 -0.99 dB -17.58 dB 3:40 07-Seven Bridges Road
DR12 -2.24 dB -18.31 dB 4:12 08-Kenny's Song
DR12 -1.24 dB -17.16 dB 3:53 09-Holler in the Swamp
DR13 -2.06 dB -19.70 dB 4:18 10-Hoboin'
DR13 -1.76 dB -18.06 dB 2:56 11-My Sweet Love Ain't Around
––––––––––––––––––––––––––––––––––––––––

Number of tracks: 11
Official DR value: DR12

Samplerate: 44100 Hz
Channels: 2
Bits per sample: 16
Bitrate: 780 kbps
Codec: FLAC
================================================================================

Steve Young - Rock Salt & Nails (1969) [Reissue 2010]

Steve Young - Rock Salt & Nails (1969) [Reissue 2010]

All thanks to original uploader

More interesting music in My Blog