Tags
Language
Tags
June 2024
Su Mo Tu We Th Fr Sa
26 27 28 29 30 31 1
2 3 4 5 6 7 8
9 10 11 12 13 14 15
16 17 18 19 20 21 22
23 24 25 26 27 28 29
30 1 2 3 4 5 6

Stevie Ray Vaughan and Double Trouble - The Essential (2002) 2CD Limited Edition

Posted By: Designol
Stevie Ray Vaughan and Double Trouble - The Essential (2002) 2CD Limited Edition

Stevie Ray Vaughan and Double Trouble - The Essential (2002) 2CD Limited Edition
EAC | FLAC | Tracks (Cue&Log) ~ 1 Gb | Mp3 (CBR320) ~ 359 Mb | Scans ~ 322 Mb
Blues-Rock, Electric Texas Blues | Label: Epic/Legacy | # E2K 86423 | Time: 02:38:36

Epic's The Essential Stevie Ray Vaughan and Double Trouble gathers two discs' worth of the late blues guitarist's work, including many live performances and a few tracks with the Vaughan Brothers. The collection presents Vaughan's material in roughly chronological order, from the 1980 live recording "Shake for Me" to 1989's "Life by the Drop." It also touches on most of Vaughan's definitive songs and performances, including "Tightrope," "Wall of Denial," "Couldn't Stand the Weather," and "Cold Shot," and live versions of "The Sky Is Crying," "Superstition," and "Rude Mood/Hide Away." Though this album doesn't offer anything that hasn't already been released in some form or another, it does go into slightly more depth than several of the other Stevie Ray Vaughan retrospectives by presenting both his greatest studio hits and some of his best live work.

Review by Heather Phares, Allmusic.com

Stevie Ray Vaughan and Double Trouble - The Essential (2002) 2CD Limited Edition



Tracklist:

CD1:

01. Shake For Me (Live) (03:51)
02. Rude Mood/Hide Away (Live) (04:58)
03. Love Struck Baby (02:22)
04. Pride And Joy (03:40)
05. Texas Flood (05:21)
06. Mary Had A Little Lamb (02:47)
07. Lenny (04:57)
08. Scuttle Buttin' (01:51)
09. Couldn't Stand The Weather (04:41)
10. The Things (That) I Used To Do (04:54)
11. Cold Shot (04:01)
12. Tin Pan Alley (aka Roughest Place In Town) (09:11)
13. Give Me Back My Wig (04:07)
14. Empty Arms (03:29)
15. The Sky Is Crying (Live) (07:19)
16. Voodoo Child (Slight Return) (Live) (11:52)

CD2:

01. Say What! (05:24)
02. Look At Little Sister (03:08)
03. Change It (03:57)
04. Come On (Part III) (04:31)
05. Life Without You (04:18)
06. Little Wing (06:47)
07. Willie The Wimp (Live) (04:34)
08. Superstition (Live) (04:41)
09. Leave My Girl Alone (Live) (04:47)
10. The House Is Rockin' (02:24)
11. Crossfire (04:10)
12. Tightrope (04:40)
13. Wall Of Denial (05:36)
14. Riviera Paradise (08:50)
15. Telephone Song (The Vaughan Bros.) (03:29)
16. Long Way From Home (The Vaughan Bros.) (03:17)
17. Life By The Drop (02:27)


Exact Audio Copy V1.0 beta 3 from 29. August 2011

Отчёт EAC об извлечении, выполненном 10. января 2013, 19:57

Stevie Ray Vaughan And Double Trouble / The Essential Stevie Ray Vaughan And Double Trouble (CD 1)

Дисковод: PIONEER DVD-RW DVR-218L Adapter: 0 ID: 0

Режим чтения : Достоверность
Использование точного потока : Да
Отключение кэша аудио : Да
Использование указателей C2 : Нет

Коррекция смещения при чтении : 6
Способность читать области Lead-in и Lead-out : Нет
Заполнение пропущенных сэмплов тишиной : Да
Удаление блоков с тишиной в начале и конце : Нет
При вычислениях CRC использовались нулевые сэмплы : Да
Интерфейс : Встроенный Win32-интерфейс для Win NT/2000
Обработка зазоров : Добавлено к предыдущему треку

Выходной формат : Пользовательский кодировщик
Выбранный битрейт : 128 kBit/s
Качество : Высокий
Добавление ID3-тега : Нет
Утилита сжатия : C:\Program Files (x86)\Exact Audio Copy\Flac\flac.exe
Дополнительные параметры : -V -7 -T "Genre=%genre%" -T "Artist=%artist%" -T "Title=%title%" -T "Album=%albumtitle%" -T "Date=%year%" -T "Tracknumber=%tracknr%" -T "Comment=%comment%" %source%


TOC извлечённого CD

Трек | Старт | Длительность | Начальный сектор | Конечный сектор
––––––––––––––––––––––––––––––––––-
1 | 0:00.00 | 3:51.20 | 0 | 17344
2 | 3:51.20 | 4:58.72 | 17345 | 39766
3 | 8:50.17 | 2:22.58 | 39767 | 50474
4 | 11:13.00 | 3:40.17 | 50475 | 66991
5 | 14:53.17 | 5:21.28 | 66992 | 91094
6 | 20:14.45 | 2:47.15 | 91095 | 103634
7 | 23:01.60 | 4:57.17 | 103635 | 125926
8 | 27:59.02 | 1:51.43 | 125927 | 134294
9 | 29:50.45 | 4:41.62 | 134295 | 155431
10 | 34:32.32 | 4:54.43 | 155432 | 177524
11 | 39:27.00 | 4:01.05 | 177525 | 195604
12 | 43:28.05 | 9:11.70 | 195605 | 236999
13 | 52:40.00 | 4:07.47 | 237000 | 255571
14 | 56:47.47 | 3:29.28 | 255572 | 271274
15 | 60:17.00 | 7:19.52 | 271275 | 304251
16 | 67:36.52 | 11:52.53 | 304252 | 357704


Трек 1

Имя файла F:\_МУЗЫКА\The Essential Stevie Ray Vaughan and Double Trouble [Limited Edition 2xCD] (2002)\2002 The Essential Stevie Ray Vaughan And Double Trouble (CD 1)\01 Shake For Me (Live).wav

Длина предзазора 0:00:02.00

Пиковый уровень 97.3 %
Скорость извлечения 1.2 X
Качество трека 100.0 %
CRC теста 48BA415C
CRC копии 48BA415C
Точное извлечение (достоверность 3) [67039575] (AR v1)
Копирование… OK

Трек 2

Имя файла F:\_МУЗЫКА\The Essential Stevie Ray Vaughan and Double Trouble [Limited Edition 2xCD] (2002)\2002 The Essential Stevie Ray Vaughan And Double Trouble (CD 1)\02 Rude Mood,Hide Away (Live).wav

Длина предзазора 0:00:02.08

Пиковый уровень 99.8 %
Скорость извлечения 1.4 X
Качество трека 100.0 %
CRC теста 96D31F9A
CRC копии 96D31F9A
Точное извлечение (достоверность 2) [8AECCFDE] (AR v1)
Копирование… OK

Трек 3

Имя файла F:\_МУЗЫКА\The Essential Stevie Ray Vaughan and Double Trouble [Limited Edition 2xCD] (2002)\2002 The Essential Stevie Ray Vaughan And Double Trouble (CD 1)\03 Love Struck Baby.wav

Длина предзазора 0:00:01.40

Пиковый уровень 99.8 %
Скорость извлечения 1.1 X
Качество трека 99.9 %
CRC теста A848729C
CRC копии A848729C
Точное извлечение (достоверность 3) [A19F94C1] (AR v1)
Копирование… OK

Трек 4

Имя файла F:\_МУЗЫКА\The Essential Stevie Ray Vaughan and Double Trouble [Limited Edition 2xCD] (2002)\2002 The Essential Stevie Ray Vaughan And Double Trouble (CD 1)\04 Pride And Joy.wav

Длина предзазора 0:00:01.13

Пиковый уровень 99.8 %
Скорость извлечения 1.5 X
Качество трека 100.0 %
CRC теста 93B5B38F
CRC копии 93B5B38F
Точное извлечение (достоверность 3) [F39F442A] (AR v1)
Копирование… OK

Трек 5

Имя файла F:\_МУЗЫКА\The Essential Stevie Ray Vaughan and Double Trouble [Limited Edition 2xCD] (2002)\2002 The Essential Stevie Ray Vaughan And Double Trouble (CD 1)\05 Texas Flood.wav

Длина предзазора 0:00:00.60

Пиковый уровень 99.8 %
Скорость извлечения 1.5 X
Качество трека 99.9 %
CRC теста DBB4B9AC
CRC копии DBB4B9AC
Точное извлечение (достоверность 3) [572CB1A7] (AR v1)
Копирование… OK

Трек 6

Имя файла F:\_МУЗЫКА\The Essential Stevie Ray Vaughan and Double Trouble [Limited Edition 2xCD] (2002)\2002 The Essential Stevie Ray Vaughan And Double Trouble (CD 1)\06 Mary Had A Little Lamb.wav

Длина предзазора 0:00:00.48

Пиковый уровень 99.8 %
Скорость извлечения 1.6 X
Качество трека 100.0 %
CRC теста 7F802E2F
CRC копии 7F802E2F
Точное извлечение (достоверность 3) [2B4BEFBB] (AR v1)
Копирование… OK

Трек 7

Имя файла F:\_МУЗЫКА\The Essential Stevie Ray Vaughan and Double Trouble [Limited Edition 2xCD] (2002)\2002 The Essential Stevie Ray Vaughan And Double Trouble (CD 1)\07 Lenny.wav

Длина предзазора 0:00:00.30

Пиковый уровень 99.8 %
Скорость извлечения 1.8 X
Качество трека 100.0 %
CRC теста 075BA165
CRC копии 075BA165
Точное извлечение (достоверность 2) [51EE9217] (AR v1)
Копирование… OK

Трек 8

Имя файла F:\_МУЗЫКА\The Essential Stevie Ray Vaughan and Double Trouble [Limited Edition 2xCD] (2002)\2002 The Essential Stevie Ray Vaughan And Double Trouble (CD 1)\08 Scuttle Buttin'.wav

Пиковый уровень 99.8 %
Скорость извлечения 1.3 X
Качество трека 99.9 %
CRC теста 201EC10C
CRC копии 201EC10C
Точное извлечение (достоверность 2) [78F6F91F] (AR v1)
Копирование… OK

Трек 9

Имя файла F:\_МУЗЫКА\The Essential Stevie Ray Vaughan and Double Trouble [Limited Edition 2xCD] (2002)\2002 The Essential Stevie Ray Vaughan And Double Trouble (CD 1)\09 Couldn't Stand The Weather.wav

Пиковый уровень 99.8 %
Скорость извлечения 1.7 X
Качество трека 99.9 %
CRC теста 5AA66642
CRC копии 5AA66642
Точное извлечение (достоверность 2) [FA4EF8CE] (AR v1)
Копирование… OK

Трек 10

Имя файла F:\_МУЗЫКА\The Essential Stevie Ray Vaughan and Double Trouble [Limited Edition 2xCD] (2002)\2002 The Essential Stevie Ray Vaughan And Double Trouble (CD 1)\10 The Things (That) I Used To Do.wav

Длина предзазора 0:00:00.55

Пиковый уровень 99.8 %
Скорость извлечения 2.0 X
Качество трека 100.0 %
CRC теста 9C48A652
CRC копии 9C48A652
Точное извлечение (достоверность 2) [67BB225C] (AR v1)
Копирование… OK

Трек 11

Имя файла F:\_МУЗЫКА\The Essential Stevie Ray Vaughan and Double Trouble [Limited Edition 2xCD] (2002)\2002 The Essential Stevie Ray Vaughan And Double Trouble (CD 1)\11 Cold Shot.wav

Длина предзазора 0:00:00.13

Пиковый уровень 99.8 %
Скорость извлечения 2.1 X
Качество трека 100.0 %
CRC теста 59D42128
CRC копии 59D42128
Точное извлечение (достоверность 3) [7A513C6A] (AR v1)
Копирование… OK

Трек 12

Имя файла F:\_МУЗЫКА\The Essential Stevie Ray Vaughan and Double Trouble [Limited Edition 2xCD] (2002)\2002 The Essential Stevie Ray Vaughan And Double Trouble (CD 1)\12 Tin Pan Alley (aka Roughest Place In Town).wav

Длина предзазора 0:00:00.20

Пиковый уровень 99.8 %
Скорость извлечения 2.4 X
Качество трека 100.0 %
CRC теста D7CF22B6
CRC копии D7CF22B6
Точное извлечение (достоверность 2) [46AB1973] (AR v1)
Копирование… OK

Трек 13

Имя файла F:\_МУЗЫКА\The Essential Stevie Ray Vaughan and Double Trouble [Limited Edition 2xCD] (2002)\2002 The Essential Stevie Ray Vaughan And Double Trouble (CD 1)\13 Give Me Back My Wig.wav

Длина предзазора 0:00:00.23

Пиковый уровень 99.8 %
Скорость извлечения 2.0 X
Качество трека 99.9 %
CRC теста E0733EA8
CRC копии E0733EA8
Точное извлечение (достоверность 3) [4ABADE93] (AR v1)
Копирование… OK

Трек 14

Имя файла F:\_МУЗЫКА\The Essential Stevie Ray Vaughan and Double Trouble [Limited Edition 2xCD] (2002)\2002 The Essential Stevie Ray Vaughan And Double Trouble (CD 1)\14 Empty Arms.wav

Длина предзазора 0:00:00.30

Пиковый уровень 99.8 %
Скорость извлечения 2.3 X
Качество трека 100.0 %
CRC теста 8FD85CF6
CRC копии 8FD85CF6
Точное извлечение (достоверность 3) [6D229C89] (AR v1)
Копирование… OK

Трек 15

Имя файла F:\_МУЗЫКА\The Essential Stevie Ray Vaughan and Double Trouble [Limited Edition 2xCD] (2002)\2002 The Essential Stevie Ray Vaughan And Double Trouble (CD 1)\15 The Sky Is Crying (Live).wav

Длина предзазора 0:00:00.15

Пиковый уровень 99.8 %
Скорость извлечения 2.6 X
Качество трека 100.0 %
CRC теста CE1ED1DB
CRC копии CE1ED1DB
Точное извлечение (достоверность 2) [DAB76FB3] (AR v1)
Копирование… OK

Трек 16

Имя файла F:\_МУЗЫКА\The Essential Stevie Ray Vaughan and Double Trouble [Limited Edition 2xCD] (2002)\2002 The Essential Stevie Ray Vaughan And Double Trouble (CD 1)\16 Voodoo Child (Slight Return) (Live).wav

Пиковый уровень 99.8 %
Скорость извлечения 2.8 X
Качество трека 100.0 %
CRC теста F14DD3C9
CRC копии F14DD3C9
Точное извлечение (достоверность 2) [57748496] (AR v1)
Копирование… OK


Все треки извлечены точно

Ошибок не произошло

Конец отчёта

==== Контрольная сумма отчёта 24656DD5B63FE27D828D5790CD772B2FA9ABA3D9BE87B7FE071E0D6075529993 ====

foobar2000 1.2.1 / Dynamic Range Meter 1.1.1
log date: 2013-01-25 13:36:51

––––––––––––––––––––––––––––––––––––––––
Analyzed: Stevie Ray Vaughan And Double Trouble / The Essential Stevie Ray Vaughan And Double Trouble (CD 1)
––––––––––––––––––––––––––––––––––––––––

DR Peak RMS Duration Track
––––––––––––––––––––––––––––––––––––––––
DR11 -0.23 dB -12.64 dB 3:51 01-Shake For Me (Live)
DR12 -0.01 dB -12.96 dB 4:59 02-Rude Mood/Hide Away (Live)
DR10 -0.01 dB -11.13 dB 2:23 03-Love Struck Baby
DR11 -0.01 dB -11.85 dB 3:40 04-Pride And Joy
DR11 -0.01 dB -12.05 dB 5:21 05-Texas Flood
DR11 -0.01 dB -12.07 dB 2:47 06-Mary Had A Little Lamb
DR14 -0.01 dB -15.31 dB 4:57 07-Lenny
DR11 -0.01 dB -12.05 dB 1:52 08-Scuttle Buttin'
DR11 -0.01 dB -12.38 dB 4:42 09-Couldn't Stand The Weather
DR10 -0.01 dB -10.80 dB 4:55 10-The Things (That) I Used To Do
DR11 -0.01 dB -12.49 dB 4:01 11-Cold Shot
DR15 -0.01 dB -16.69 dB 9:12 12-Tin Pan Alley (aka Roughest Place In Town)
DR11 -0.01 dB -11.35 dB 4:08 13-Give Me Back My Wig
DR12 -0.01 dB -12.94 dB 3:29 14-Empty Arms
DR12 -0.01 dB -13.60 dB 7:20 15-The Sky Is Crying (Live)
DR11 -0.01 dB -11.97 dB 11:53 16-Voodoo Child (Slight Return) (Live)
––––––––––––––––––––––––––––––––––––––––

Number of tracks: 16
Official DR value: DR12

Samplerate: 44100 Hz
Channels: 2
Bits per sample: 16
Bitrate: 906 kbps
Codec: FLAC
================================================================================

Exact Audio Copy V1.0 beta 3 from 29. August 2011

Отчёт EAC об извлечении, выполненном 10. января 2013, 21:26

Stevie Ray Vaughan And Double Trouble / The Essential Stevie Ray Vaughan And Double Trouble (CD 2)

Дисковод: PIONEER DVD-RW DVR-218L Adapter: 0 ID: 0

Режим чтения : Достоверность
Использование точного потока : Да
Отключение кэша аудио : Да
Использование указателей C2 : Нет

Коррекция смещения при чтении : 6
Способность читать области Lead-in и Lead-out : Нет
Заполнение пропущенных сэмплов тишиной : Да
Удаление блоков с тишиной в начале и конце : Нет
При вычислениях CRC использовались нулевые сэмплы : Да
Интерфейс : Встроенный Win32-интерфейс для Win NT/2000
Обработка зазоров : Добавлено к предыдущему треку

Выходной формат : Пользовательский кодировщик
Выбранный битрейт : 128 kBit/s
Качество : Высокий
Добавление ID3-тега : Нет
Утилита сжатия : C:\Program Files (x86)\Exact Audio Copy\Flac\flac.exe
Дополнительные параметры : -V -7 -T "Genre=%genre%" -T "Artist=%artist%" -T "Title=%title%" -T "Album=%albumtitle%" -T "Date=%year%" -T "Tracknumber=%tracknr%" -T "Comment=%comment%" %source%


TOC извлечённого CD

Трек | Старт | Длительность | Начальный сектор | Конечный сектор
––––––––––––––––––––––––––––––––––-
1 | 0:00.00 | 5:24.30 | 0 | 24329
2 | 5:24.30 | 3:08.35 | 24330 | 38464
3 | 8:32.65 | 3:57.70 | 38465 | 56309
4 | 12:30.60 | 4:31.02 | 56310 | 76636
5 | 17:01.62 | 4:18.43 | 76637 | 96029
6 | 21:20.30 | 6:47.47 | 96030 | 126601
7 | 28:08.02 | 4:34.60 | 126602 | 147211
8 | 32:42.62 | 4:41.65 | 147212 | 168351
9 | 37:24.52 | 4:47.55 | 168352 | 189931
10 | 42:12.32 | 2:24.20 | 189932 | 200751
11 | 44:36.52 | 4:10.53 | 200752 | 219554
12 | 48:47.30 | 4:40.02 | 219555 | 240556
13 | 53:27.32 | 5:36.35 | 240557 | 265791
14 | 59:03.67 | 8:50.40 | 265792 | 305581
15 | 67:54.32 | 3:29.60 | 305582 | 321316
16 | 71:24.17 | 3:17.35 | 321317 | 336126
17 | 74:41.52 | 2:27.28 | 336127 | 347179


Трек 1

Имя файла F:\_МУЗЫКА\The Essential Stevie Ray Vaughan and Double Trouble [Limited Edition 2xCD] (2002)\2002 The Essential Stevie Ray Vaughan And Double Trouble (CD 2)\01 Say What!.wav

Длина предзазора 0:00:02.00

Пиковый уровень 99.8 %
Скорость извлечения 1.3 X
Качество трека 100.0 %
CRC теста 82E0D639
CRC копии 82E0D639
Точное извлечение (достоверность 8) [B357920F] (AR v1)
Копирование… OK

Трек 2

Имя файла F:\_МУЗЫКА\The Essential Stevie Ray Vaughan and Double Trouble [Limited Edition 2xCD] (2002)\2002 The Essential Stevie Ray Vaughan And Double Trouble (CD 2)\02 Look At Little Sister.wav

Пиковый уровень 99.8 %
Скорость извлечения 1.3 X
Качество трека 100.0 %
CRC теста 91ED9CD0
CRC копии 91ED9CD0
Точное извлечение (достоверность 10) [FF05EAE8] (AR v1)
Копирование… OK

Трек 3

Имя файла F:\_МУЗЫКА\The Essential Stevie Ray Vaughan and Double Trouble [Limited Edition 2xCD] (2002)\2002 The Essential Stevie Ray Vaughan And Double Trouble (CD 2)\03 Change It.wav

Пиковый уровень 99.8 %
Скорость извлечения 1.4 X
Качество трека 100.0 %
CRC теста B2628E66
CRC копии B2628E66
Точное извлечение (достоверность 9) [BED50777] (AR v1)
Копирование… OK

Трек 4

Имя файла F:\_МУЗЫКА\The Essential Stevie Ray Vaughan and Double Trouble [Limited Edition 2xCD] (2002)\2002 The Essential Stevie Ray Vaughan And Double Trouble (CD 2)\04 Come On (Part III).wav

Пиковый уровень 99.8 %
Скорость извлечения 1.6 X
Качество трека 100.0 %
CRC теста 9D6AE790
CRC копии 9D6AE790
Точное извлечение (достоверность 10) [DEF45B40] (AR v1)
Копирование… OK

Трек 5

Имя файла F:\_МУЗЫКА\The Essential Stevie Ray Vaughan and Double Trouble [Limited Edition 2xCD] (2002)\2002 The Essential Stevie Ray Vaughan And Double Trouble (CD 2)\05 Life Without You.wav

Пиковый уровень 98.1 %
Скорость извлечения 1.7 X
Качество трека 100.0 %
CRC теста 394705F6
CRC копии 394705F6
Точное извлечение (достоверность 9) [580FF775] (AR v1)
Копирование… OK

Трек 6

Имя файла F:\_МУЗЫКА\The Essential Stevie Ray Vaughan and Double Trouble [Limited Edition 2xCD] (2002)\2002 The Essential Stevie Ray Vaughan And Double Trouble (CD 2)\06 Little Wing.wav

Пиковый уровень 99.8 %
Скорость извлечения 1.9 X
Качество трека 100.0 %
CRC теста 000300CF
CRC копии 000300CF
Точное извлечение (достоверность 9) [2015400E] (AR v1)
Копирование… OK

Трек 7

Имя файла F:\_МУЗЫКА\The Essential Stevie Ray Vaughan and Double Trouble [Limited Edition 2xCD] (2002)\2002 The Essential Stevie Ray Vaughan And Double Trouble (CD 2)\07 Willie The Wimp (Live).wav

Пиковый уровень 99.8 %
Скорость извлечения 1.9 X
Качество трека 100.0 %
CRC теста B7B1203D
CRC копии B7B1203D
Точное извлечение (достоверность 10) [C0F493C6] (AR v1)
Копирование… OK

Трек 8

Имя файла F:\_МУЗЫКА\The Essential Stevie Ray Vaughan and Double Trouble [Limited Edition 2xCD] (2002)\2002 The Essential Stevie Ray Vaughan And Double Trouble (CD 2)\08 Superstition (Live).wav

Пиковый уровень 99.8 %
Скорость извлечения 1.8 X
Качество трека 99.9 %
CRC теста 6732A96D
CRC копии 6732A96D
Точное извлечение (достоверность 9) [F0232C49] (AR v1)
Копирование… OK

Трек 9

Имя файла F:\_МУЗЫКА\The Essential Stevie Ray Vaughan and Double Trouble [Limited Edition 2xCD] (2002)\2002 The Essential Stevie Ray Vaughan And Double Trouble (CD 2)\09 Leave My Girl Alone (Live).wav

Пиковый уровень 100.0 %
Скорость извлечения 2.1 X
Качество трека 100.0 %
CRC теста 0A2118D3
CRC копии 0A2118D3
Точное извлечение (достоверность 9) [D1671645] (AR v1)
Копирование… OK

Трек 10

Имя файла F:\_МУЗЫКА\The Essential Stevie Ray Vaughan and Double Trouble [Limited Edition 2xCD] (2002)\2002 The Essential Stevie Ray Vaughan And Double Trouble (CD 2)\10 The House Is Rockin'.wav

Пиковый уровень 99.8 %
Скорость извлечения 1.9 X
Качество трека 100.0 %
CRC теста D43DC9A8
CRC копии D43DC9A8
Точное извлечение (достоверность 10) [C24023C3] (AR v1)
Копирование… OK

Трек 11

Имя файла F:\_МУЗЫКА\The Essential Stevie Ray Vaughan and Double Trouble [Limited Edition 2xCD] (2002)\2002 The Essential Stevie Ray Vaughan And Double Trouble (CD 2)\11 Crossfire.wav

Пиковый уровень 99.8 %
Скорость извлечения 2.2 X
Качество трека 100.0 %
CRC теста 0EA940A6
CRC копии 0EA940A6
Точное извлечение (достоверность 10) [0FA029C2] (AR v1)
Копирование… OK

Трек 12

Имя файла F:\_МУЗЫКА\The Essential Stevie Ray Vaughan and Double Trouble [Limited Edition 2xCD] (2002)\2002 The Essential Stevie Ray Vaughan And Double Trouble (CD 2)\12 Tightrope.wav

Пиковый уровень 99.8 %
Скорость извлечения 2.3 X
Качество трека 100.0 %
CRC теста D99EE6A9
CRC копии D99EE6A9
Точное извлечение (достоверность 9) [27E99E80] (AR v1)
Копирование… OK

Трек 13

Имя файла F:\_МУЗЫКА\The Essential Stevie Ray Vaughan and Double Trouble [Limited Edition 2xCD] (2002)\2002 The Essential Stevie Ray Vaughan And Double Trouble (CD 2)\13 Wall Of Denial.wav

Пиковый уровень 99.8 %
Скорость извлечения 2.4 X
Качество трека 100.0 %
CRC теста 230A5F61
CRC копии 230A5F61
Точное извлечение (достоверность 10) [F1F51A3A] (AR v1)
Копирование… OK

Трек 14

Имя файла F:\_МУЗЫКА\The Essential Stevie Ray Vaughan and Double Trouble [Limited Edition 2xCD] (2002)\2002 The Essential Stevie Ray Vaughan And Double Trouble (CD 2)\14 Riviera Paradise.wav

Пиковый уровень 99.8 %
Скорость извлечения 2.4 X
Качество трека 99.9 %
CRC теста D0FE9360
CRC копии D0FE9360
Точное извлечение (достоверность 2) [02824EFB] (AR v2)
Копирование… OK

Трек 15

Имя файла F:\_МУЗЫКА\The Essential Stevie Ray Vaughan and Double Trouble [Limited Edition 2xCD] (2002)\2002 The Essential Stevie Ray Vaughan And Double Trouble (CD 2)\15 Telephone Song (The Vaughan Bros.).wav

Пиковый уровень 99.8 %
Скорость извлечения 2.1 X
Качество трека 99.9 %
CRC теста 7BC46467
CRC копии 7BC46467
Точное извлечение (достоверность 9) [DCB337E1] (AR v1)
Копирование… OK

Трек 16

Имя файла F:\_МУЗЫКА\The Essential Stevie Ray Vaughan and Double Trouble [Limited Edition 2xCD] (2002)\2002 The Essential Stevie Ray Vaughan And Double Trouble (CD 2)\16 Long Way From Home (The Vaughan Bros.).wav

Длина предзазора 0:00:01.00

Пиковый уровень 99.8 %
Скорость извлечения 2.5 X
Качество трека 100.0 %
CRC теста A53BCE25
CRC копии A53BCE25
Точное извлечение (достоверность 2) [02E4F01E] (AR v2)
Копирование… OK

Трек 17

Имя файла F:\_МУЗЫКА\The Essential Stevie Ray Vaughan and Double Trouble [Limited Edition 2xCD] (2002)\2002 The Essential Stevie Ray Vaughan And Double Trouble (CD 2)\17 Life By The Drop.wav

Длина предзазора 0:00:02.05

Пиковый уровень 91.3 %
Скорость извлечения 1.9 X
Качество трека 99.9 %
CRC теста A26A8894
CRC копии A26A8894
Точное извлечение (достоверность 2) [08135471] (AR v2)
Копирование… OK


Все треки извлечены точно

Ошибок не произошло

Конец отчёта

==== Контрольная сумма отчёта 65D24AD208C853CC3BA51675A89DE7CBC0F350AD18E9FD19242D5C1B6528407F ====

foobar2000 1.2.1 / Dynamic Range Meter 1.1.1
log date: 2013-01-25 13:38:01

––––––––––––––––––––––––––––––––––––––––
Analyzed: Stevie Ray Vaughan And Double Trouble / The Essential Stevie Ray Vaughan And Double Trouble (CD 2)
––––––––––––––––––––––––––––––––––––––––

DR Peak RMS Duration Track
––––––––––––––––––––––––––––––––––––––––
DR11 -0.01 dB -11.72 dB 5:24 01-Say What!
DR10 -0.01 dB -11.45 dB 3:08 02-Look At Little Sister
DR11 -0.01 dB -11.38 dB 3:58 03-Change It
DR11 -0.01 dB -12.11 dB 4:31 04-Come On (Part III)
DR12 -0.16 dB -15.17 dB 4:19 05-Life Without You
DR12 -0.01 dB -15.34 dB 6:48 06-Little Wing
DR11 -0.01 dB -13.09 dB 4:35 07-Willie The Wimp (Live)
DR12 -0.01 dB -12.93 dB 4:42 08-Superstition (Live)
DR10 0.00 dB -12.47 dB 4:48 09-Leave My Girl Alone (Live)
DR12 -0.01 dB -12.64 dB 2:24 10-The House Is Rockin'
DR12 -0.01 dB -12.55 dB 4:11 11-Crossfire
DR13 -0.01 dB -14.06 dB 4:40 12-Tightrope
DR11 -0.01 dB -12.38 dB 5:36 13-Wall Of Denial
DR15 -0.01 dB -17.62 dB 8:51 14-Riviera Paradise
DR12 -0.01 dB -12.75 dB 3:30 15-Telephone Song (The Vaughan Bros.)
DR12 -0.01 dB -12.74 dB 3:17 16-Long Way From Home (The Vaughan Bros.)
DR11 -0.79 dB -15.34 dB 2:27 17-Life By The Drop
––––––––––––––––––––––––––––––––––––––––

Number of tracks: 17
Official DR value: DR12

Samplerate: 44100 Hz
Channels: 2
Bits per sample: 16
Bitrate: 787 kbps
Codec: FLAC
================================================================================

Stevie Ray Vaughan and Double Trouble - The Essential (2002) 2CD Limited Edition

Stevie Ray Vaughan and Double Trouble - The Essential (2002) 2CD Limited Edition

All thanks to original releaser

More interesting music in My Blog