Tags
Language
Tags

Stick McGhee with Brownie McGhee & Sonny Terry - New York Blues and R&B 1947-1955 (2007) 4CD Box Set

Posted By:
Stick McGhee with Brownie McGhee & Sonny Terry - New York Blues and R&B 1947-1955 (2007) 4CD Box Set

Stick McGhee with Brownie McGhee & Sonny Terry:
New York Blues and R&B 1947-1955 (2007) 4CD Box Set

EAC | FLAC | Tracks (Cue&Log) ~ 697 Mb | Mp3 (CBR320) ~ 662 Mb | Scans ~ 53 Mb
Blues, Early R&B | Label: JSP Records | # JSP7763 | Time: 04:49:14

Brownie's brother Stick McGhee had a hit or two to his name, and the two brothers split the 105 tracks on this boxed set between them (with some tracks from Brownie's longtime partner Sonny Terry)! Includes Drinkin' Wine Spo-Dee-O-Dee; Tennessee Waltz Blues; Wee Wee Hours Pts. 1 & 2; Little Things We Used to Do Stick McGhee; Mean Ole Frisco; Key to the Highway; C.C. Rider, Where Did She Go Brownie McGhee; Mad Man Blues; Harmonica Train Sonny Terry, and more.

This fascinating set is really the story of two brothers, Stick McGhee and Brownie McGhee, both of whom were guitarists (Brownie being good enough to actually work regularly as a session player). Stick recorded a song he had written, "Drinkin' Wine Spo-Dee-O-Dee," in 1947 (with his brother Brownie sitting in on guitar) for J. Mayo Williams' tiny Harlem Records label. The issued record had no immediate impact, but became an unlikely underground favorite, enough so that Ahmet Ertegun at Atlantic Records decided to cut a remake a couple of years later. Ertegun contacted Brownie McGhee about remaking "Drinkin' Wine," unaware that Brownie's brother was the original singer on the song. A lively remake was tracked for Atlantic in 1949, again with Stick singing and Brownie adding guitar. This time the song broke big, and Decca Records, smelling cash, licensed the original Harlem cut and both versions of the song ended up on the R&B charts. This four-disc package includes both versions of the song, as well as some 40 tracks by Stick, many of which follow the booze-soaked template of "Drinkin' Wine." There are close to 50 tracks by Brownie here, too, most of them in an electric R&B vein, which was a far cry from the folk-blues material that Brownie became famous for when he was paired with harmonica wiz Sonny Terry in the late '50s. Terry also has 16 tracks here, and while there are a handful of cuts where Brownie and Sonny work together, they were essentially separate solo artists during the era covered by this anthology. Virtually everything Stick McGhee recorded is included here, as well as a good deal of Brownie McGhee's R&B material (since he was an active session musician at the time, what's here really only scratches the surface), and a small sampling of Sonny Terry as a solo artist, making this an incredibly interesting historical collection that, mostly because of the familial and professional connections between Stick, Brownie, and Sonny, has its own internal logic.

Review by Steve Leggett, Allmusic.com

Stick McGhee with Brownie McGhee & Sonny Terry - New York Blues and R&B 1947-1955 (2007) 4CD Box Set



Stick McGhee with Brownie McGhee & Sonny Terry - New York Blues and R&B 1947-1955 (2007) 4CD Box Set



Stick McGhee with Brownie McGhee & Sonny Terry - New York Blues and R&B 1947-1955 (2007) 4CD Box Set



Tracklist:

Disc A:

01. Stick McGhee - Drinkin' Wine Spo-Dee-O-Dee (02:19)
02. Stick McGhee - Baby Baby Blues (02:25)
03. Stick McGhee - Drinkin' Wine Spo-Dee-O-Dee (03:14)
04. Stick McGhee - Tall Pretty Woman (03:09)
05. Stick McGhee - Lonesome Road Blues (03:05)
06. Stick McGhee - Blue Mixture (02:52)
07. Stick McGhee - I'll Always Remember (02:42)
08. Stick McGhee - Blue And Brokenhearted (02:51)
09. Stick McGhee - My Baby's Comin' Back (02:38)
10. Stick McGhee - Drank Up All The Wine Last Night (02:55)
11. Stick McGhee - Venus Blues (02:31)
12. Stick McGhee - Southern Menu (03:00)
13. Stick McGhee - Let's Do It (02:57)
14. Stick McGhee - She's Gone Rock Away Blues (02:45)
15. Stick McGhee - House Warmin' Boogie (03:11)
16. Stick McGhee - Blue Barrelhouse (02:38)
17. Stick McGhee - One Monkey Don't Stop The Show (02:41)
18. Stick McGhee - Tennessee Waltz Blues (03:11)
19. Stick McGhee - You Gotta Have Something On The Ball (02:55)
20. Stick McGhee - Oh What A Face (02:32)
21. Stick McGhee - Wee Wee Hours (Pt. 1) (02:41)
22. Stick McGhee - Wee Wee Hours (Pt. 2) (02:29)
23. Stick McGhee - New Found Love (02:51)
24. Stick McGhee - Meet You In The Morning (02:17)
25. Stick McGhee - My Little Rose (02:31)
26. Stick McGhee - No More Reveille (02:29)

Disc B:

01. Stick McGhee - Little Things We Used To Do (02:39)
02. Stick McGhee - Blues In My Heart & Tears In My Eyes (02:15)
03. Stick McGhee - Whiskey Women And Loaded Dice (02:38)
04. Stick McGhee - Head Happy With Wine (02:24)
05. Stick McGhee - I'm Doin' All This Time (And You Put Me Down) (02:34)
06. Stick McGhee - Dealin' From The Bottom (02:41)
07. Stick McGhee - The Wiggle Waggle Woo (02:18)
08. Stick McGhee - Jungle Juice (02:23)
09. Stick McGhee - Ease My Worried Mind (02:38)
10. Stick McGhee - Things Have Changed (02:32)
11. Stick McGhee - Travelin' On (02:21)
12. Stick McGhee - Help Me, Baby (02:23)
13. Stick McGhee - Double Crossin' Liquor (02:42)
14. Stick McGhee - Six To Eight (02:33)
15. Stick McGhee - Get Your Mind Out Of The Gutter (02:43)
16. Stick McGhee - Sad, Bad, Glad (02:53)
17. Brownie McGhee - Bad Nerves (02:44)
18. Brownie McGhee - Sweet Baby Blues (02:23)
19. Brownie McGhee - Don't Mistreat Me (02:37)
20. Brownie McGhee - Four O'Clock In The Morning (02:49)
21. Brownie McGhee - Sweet Lover (02:35)
22. Brownie McGhee - Brownie's New Worried Life Blues (02:34)
23. Brownie McGhee - I Was Fooled (02:37)
24. Brownie McGhee - Confused (02:32)
25. Brownie McGhee - It Hurts Me Too (02:32)
26. Brownie McGhee - Contact Me (02:20)

Disc C:

01. Brownie McGhee - Yellow Moon (02:12)
02. Brownie McGhee - It's Over (02:43)
03. Brownie McGhee & Harry Van Walls - True Blues (02:59)
04. Brownie McGhee & Harry Van Walls - My Consolation (02:58)
05. Brownie McGhee & Harry Van Walls - New Sporting Life Blues (02:49)
06. Brownie McGhee & Harry Van Walls - C.C. Baby (02:45)
07. Brownie McGhee & Harry Van Walls - You Got To Love Me Baby Too (02:53)
08. Brownie McGhee & Harry Van Walls - My Other Home (02:44)
09. Brownie McGhee & Harry Van Walls - Weeping Willow (02:32)
10. Brownie McGhee & Harry Van Walls - Feed Me Baby (02:42)
11. Brownie McGhee & His Jook Block Busters - Meet You In The Morning (02:40)
12. Brownie McGhee & His Jook Block Busters - I Feel So Good (02:32)
13. Brownie McGhee & His Jook Block Busters - Key To The Highway (02:16)
14. Brownie McGhee & His Jook Block Busters - Stranger's Blues (02:24)
15. Brownie McGhee & His Jook Block Busters - Sittin' On Top Of The World (02:46)
16. Brownie McGhee & His Jook Block Busters - Mean Old Frisco (02:36)
17. Brownie McGhee & His Jook Block Busters - Mean Old Frisco (Alt. Take) (02:42)
18. Brownie McGhee & His Jook Block Busters - New Bad Blood Blues (03:19)
19. Brownie McGhee & His Sugar Men - Lover (Ease My Worried Mind) (02:49)
20. Brownie McGhee & His Jook Block Busters - Dissatisfied Woman (02:27)
21. Brownie McGhee & His Jook Block Busters - Pawn Shop Blues (02:38)
22. Brownie McGhee & His Jook Block Busters - Forgive Me (02:19)
23. Brownie McGhee & His Jook Block Busters - C.C. Rider, Where Did She Go (02:14)
24. Big Tom Collins & Brownie McGhee - Heartache Blues (02:41)
25. Big Tom Collins & Brownie McGhee - Real Good Feelin' (03:04)
26. Brownie McGhee & His Jook Block Busters - A Letter To Lightnin' Hopkins (03:07)
27. Brownie McGhee & His Jook Block Busters - Smiling And Crying The Blues (03:08)

Disc D:

01. Brownie McGhee - I'm Gonna Move Cross The River (02:53)
02. Brownie McGhee - Heart In Sorrow (03:01)
03. Brownie McGhee - Dissatisfied Blues (02:52)
04. Brownie McGhee - Diamond Ring (03:18)
05. Brownie McGhee - The Way I Feel (02:54)
06. Brownie McGhee - So Much Trouble (02:53)
07. Brownie McGhee - Gone Baby, Gone (02:59)
08. Brownie McGhee - Tell Me, Baby (02:56)
09. Brownie McGhee - Sittin' Pretty (02:32)
10. Brownie McGhee - Bottom Blues (02:48)
11. Sonny Terry - Keys To The Highway (02:59)
12. Sonny Terry - I Have Had My Fun (03:05)
13. Sonny Terry - Airplane Blues (02:49)
14. Sonny Terry - Telephone Blues (03:26)
15. Sonny Terry - Mad Man Blues (03:34)
16. Sonny Terry - Dirty Mistreater, Don't You Know (02:45)
17. Sonny Terry & His Night Owls - Women Is Killing Me (02:47)
18. Sonny Terry & His Night Owls - Harmonica Train (02:54)
19. Sonny Terry - Going Down Slow (03:23)
20. Sonny Terry - Man Ain't Nothin' But A Fool (03:05)
21. Sonny Terry - Baby, Let's Have Some Fun (02:25)
22. Sonny Terry - 4 O'Clock Blues (03:06)
23. Sonny Terry - Lonesome Room (02:57)
24. Sonny Terry - No Love Blues (02:55)
25. Sonny Terry - Wine Headed Woman (02:40)
26. Sonny Terry - Bad Luck Blues (03:18)


Exact Audio Copy V1.0 beta 1 from 15. November 2010

EAC extraction logfile from 23. March 2011, 18:37

Various / New York Blues and R&B 1947-1955 - Disc A

Used drive : LITE-ON CD-RW SOHR-5238S Adapter: 6 ID: 3

Read mode : Secure
Utilize accurate stream : Yes
Defeat audio cache : Yes
Make use of C2 pointers : No

Read offset correction : 6
Overread into Lead-In and Lead-Out : No
Fill up missing offset samples with silence : Yes
Delete leading and trailing silent blocks : No
Null samples used in CRC calculations : Yes
Used interface : Installed external ASPI interface
Gap handling : Appended to previous track

Used output format : Internal WAV Routines
Sample format : 44.100 Hz; 16 Bit; Stereo


TOC of the extracted CD

Track | Start | Length | Start sector | End sector
––––––––––––––––––––––––––––-
1 | 0:00.00 | 2:19.35 | 0 | 10459
2 | 2:19.35 | 2:25.34 | 10460 | 21368
3 | 4:44.69 | 3:14.21 | 21369 | 35939
4 | 7:59.15 | 3:09.51 | 35940 | 50165
5 | 11:08.66 | 3:05.48 | 50166 | 64088
6 | 14:14.39 | 2:52.03 | 64089 | 76991
7 | 17:06.42 | 2:42.61 | 76992 | 89202
8 | 19:49.28 | 2:51.03 | 89203 | 102030
9 | 22:40.31 | 2:38.69 | 102031 | 113949
10 | 25:19.25 | 2:55.07 | 113950 | 127081
11 | 28:14.32 | 2:31.15 | 127082 | 138421
12 | 30:45.47 | 3:00.64 | 138422 | 151985
13 | 33:46.36 | 2:57.29 | 151986 | 165289
14 | 36:43.65 | 2:45.26 | 165290 | 177690
15 | 39:29.16 | 3:11.08 | 177691 | 192023
16 | 42:40.24 | 2:38.07 | 192024 | 203880
17 | 45:18.31 | 2:41.58 | 203881 | 216013
18 | 48:00.14 | 3:11.70 | 216014 | 230408
19 | 51:12.09 | 2:55.27 | 230409 | 243560
20 | 54:07.36 | 2:32.45 | 243561 | 255005
21 | 56:40.06 | 2:41.27 | 255006 | 267107
22 | 59:21.33 | 2:29.71 | 267108 | 278353
23 | 61:51.29 | 2:51.01 | 278354 | 291179
24 | 64:42.30 | 2:17.26 | 291180 | 301480
25 | 66:59.56 | 2:31.48 | 301481 | 312853
26 | 69:31.29 | 2:29.22 | 312854 | 324050


Track 1

Filename F:\eac\Stick McGhee\Disc A\01 - Stick McGhee - Drinkin' Wine Spo-Dee-O-Dee.wav

Pre-gap length 0:00:02.00

Peak level 94.3 %
Extraction speed 4.2 X
Track quality 99.9 %
Test CRC 42F02065
Copy CRC 42F02065
Track not present in AccurateRip database
Copy OK

Track 2

Filename F:\eac\Stick McGhee\Disc A\02 - Stick McGhee - Baby Baby Blues.wav

Pre-gap length 0:00:02.41

Peak level 94.3 %
Extraction speed 4.5 X
Track quality 99.9 %
Test CRC 30B35E6D
Copy CRC 30B35E6D
Track not present in AccurateRip database
Copy OK

Track 3

Filename F:\eac\Stick McGhee\Disc A\03 - Stick McGhee - Drinkin' Wine Spo-Dee-O-Dee.wav

Pre-gap length 0:00:02.41

Peak level 94.3 %
Extraction speed 5.3 X
Track quality 99.9 %
Test CRC 4CD92926
Copy CRC 4CD92926
Track not present in AccurateRip database
Copy OK

Track 4

Filename F:\eac\Stick McGhee\Disc A\04 - Stick McGhee - Tall Pretty Woman.wav

Pre-gap length 0:00:02.41

Peak level 94.3 %
Extraction speed 6.4 X
Track quality 100.0 %
Test CRC 99E772CC
Copy CRC 99E772CC
Track not present in AccurateRip database
Copy OK

Track 5

Filename F:\eac\Stick McGhee\Disc A\05 - Stick McGhee - Lonesome Road Blues.wav

Pre-gap length 0:00:02.41

Peak level 94.3 %
Extraction speed 5.9 X
Track quality 99.9 %
Test CRC 2BDB9066
Copy CRC 2BDB9066
Track not present in AccurateRip database
Copy OK

Track 6

Filename F:\eac\Stick McGhee\Disc A\06 - Stick McGhee - Blue Mixture.wav

Pre-gap length 0:00:02.41

Peak level 94.3 %
Extraction speed 7.0 X
Track quality 100.0 %
Test CRC 484F3353
Copy CRC 484F3353
Track not present in AccurateRip database
Copy OK

Track 7

Filename F:\eac\Stick McGhee\Disc A\07 - Stick McGhee - I'll Always Remember.wav

Pre-gap length 0:00:02.41

Peak level 89.0 %
Extraction speed 7.3 X
Track quality 100.0 %
Test CRC 158B14A4
Copy CRC 158B14A4
Track not present in AccurateRip database
Copy OK

Track 8

Filename F:\eac\Stick McGhee\Disc A\08 - Stick McGhee - Blue And Brokenhearted.wav

Pre-gap length 0:00:02.41

Peak level 94.3 %
Extraction speed 7.5 X
Track quality 100.0 %
Test CRC A05BB0AB
Copy CRC A05BB0AB
Track not present in AccurateRip database
Copy OK

Track 9

Filename F:\eac\Stick McGhee\Disc A\09 - Stick McGhee - My Baby's Comin' Back.wav

Pre-gap length 0:00:02.41

Peak level 84.0 %
Extraction speed 7.8 X
Track quality 100.0 %
Test CRC 9EE3192D
Copy CRC 9EE3192D
Track not present in AccurateRip database
Copy OK

Track 10

Filename F:\eac\Stick McGhee\Disc A\10 - Stick McGhee - Drank Up All The Wine Last Night.wav

Pre-gap length 0:00:02.41

Peak level 94.3 %
Extraction speed 8.1 X
Track quality 100.0 %
Test CRC 9114D117
Copy CRC 9114D117
Track not present in AccurateRip database
Copy OK

Track 11

Filename F:\eac\Stick McGhee\Disc A\11 - Stick McGhee - Venus Blues.wav

Pre-gap length 0:00:02.41

Peak level 88.9 %
Extraction speed 8.3 X
Track quality 100.0 %
Test CRC 0B875276
Copy CRC 0B875276
Track not present in AccurateRip database
Copy OK

Track 12

Filename F:\eac\Stick McGhee\Disc A\12 - Stick McGhee - Southern Menu.wav

Pre-gap length 0:00:02.41

Peak level 94.3 %
Extraction speed 8.7 X
Track quality 100.0 %
Test CRC 183AFDE6
Copy CRC 183AFDE6
Track not present in AccurateRip database
Copy OK

Track 13

Filename F:\eac\Stick McGhee\Disc A\13 - Stick McGhee - Let's Do It.wav

Pre-gap length 0:00:02.41

Peak level 94.2 %
Extraction speed 8.9 X
Track quality 100.0 %
Test CRC 95966BDF
Copy CRC 95966BDF
Track not present in AccurateRip database
Copy OK

Track 14

Filename F:\eac\Stick McGhee\Disc A\14 - Stick McGhee - She's Gone Rock Away Blues.wav

Pre-gap length 0:00:02.41

Peak level 94.3 %
Extraction speed 7.7 X
Track quality 99.9 %
Test CRC 4FDD1442
Copy CRC 4FDD1442
Track not present in AccurateRip database
Copy OK

Track 15

Filename F:\eac\Stick McGhee\Disc A\15 - Stick McGhee - House Warmin' Boogie.wav

Pre-gap length 0:00:02.41

Peak level 92.8 %
Extraction speed 9.6 X
Track quality 100.0 %
Test CRC CA11AF97
Copy CRC CA11AF97
Track not present in AccurateRip database
Copy OK

Track 16

Filename F:\eac\Stick McGhee\Disc A\16 - Stick McGhee - Blue Barrelhouse.wav

Pre-gap length 0:00:02.41

Peak level 94.2 %
Extraction speed 9.3 X
Track quality 100.0 %
Test CRC 9B9B1EAB
Copy CRC 9B9B1EAB
Track not present in AccurateRip database
Copy OK

Track 17

Filename F:\eac\Stick McGhee\Disc A\17 - Stick McGhee - One Monkey Don't Stop The Show.wav

Pre-gap length 0:00:02.41

Peak level 94.3 %
Extraction speed 9.6 X
Track quality 100.0 %
Test CRC AD367D13
Copy CRC AD367D13
Track not present in AccurateRip database
Copy OK

Track 18

Filename F:\eac\Stick McGhee\Disc A\18 - Stick McGhee - Tennessee Waltz Blues.wav

Pre-gap length 0:00:02.41

Peak level 94.3 %
Extraction speed 8.8 X
Track quality 99.9 %
Test CRC B7FB18A2
Copy CRC B7FB18A2
Track not present in AccurateRip database
Copy OK

Track 19

Filename F:\eac\Stick McGhee\Disc A\19 - Stick McGhee - You Gotta Have Something On The Ball.wav

Pre-gap length 0:00:02.41

Peak level 94.3 %
Extraction speed 10.1 X
Track quality 100.0 %
Test CRC E776BC9E
Copy CRC E776BC9E
Track not present in AccurateRip database
Copy OK

Track 20

Filename F:\eac\Stick McGhee\Disc A\20 - Stick McGhee - Oh What A Face.wav

Pre-gap length 0:00:02.41

Peak level 94.2 %
Extraction speed 10.0 X
Track quality 100.0 %
Test CRC A128C822
Copy CRC A128C822
Track not present in AccurateRip database
Copy OK

Track 21

Filename F:\eac\Stick McGhee\Disc A\21 - Stick McGhee - Wee Wee Hours (Pt. 1).wav

Pre-gap length 0:00:02.41

Peak level 84.5 %
Extraction speed 8.5 X
Track quality 99.9 %
Test CRC 17CF952F
Copy CRC 17CF952F
Track not present in AccurateRip database
Copy OK

Track 22

Filename F:\eac\Stick McGhee\Disc A\22 - Stick McGhee - Wee Wee Hours (Pt. 2).wav

Pre-gap length 0:00:02.41

Peak level 83.8 %
Extraction speed 10.2 X
Track quality 100.0 %
Test CRC 0C5DD36A
Copy CRC 0C5DD36A
Track not present in AccurateRip database
Copy OK

Track 23

Filename F:\eac\Stick McGhee\Disc A\23 - Stick McGhee - New Found Love.wav

Pre-gap length 0:00:02.41

Peak level 94.2 %
Extraction speed 9.0 X
Track quality 99.9 %
Test CRC 0F0FDBB4
Copy CRC 0F0FDBB4
Track not present in AccurateRip database
Copy OK

Track 24

Filename F:\eac\Stick McGhee\Disc A\24 - Stick McGhee - Meet You In The Morning.wav

Pre-gap length 0:00:02.36

Peak level 86.8 %
Extraction speed 9.0 X
Track quality 100.0 %
Test CRC 8EB4A563
Copy CRC 8EB4A563
Track not present in AccurateRip database
Copy OK

Track 25

Filename F:\eac\Stick McGhee\Disc A\25 - Stick McGhee - My Little Rose.wav

Pre-gap length 0:00:02.41

Peak level 84.0 %
Extraction speed 7.3 X
Track quality 100.0 %
Test CRC 89547D44
Copy CRC 89547D44
Track not present in AccurateRip database
Copy OK

Track 26

Filename F:\eac\Stick McGhee\Disc A\26 - Stick McGhee - No More Reveille.wav

Pre-gap length 0:00:02.41

Peak level 91.6 %
Extraction speed 7.2 X
Track quality 100.0 %
Test CRC 690004AA
Copy CRC 690004AA
Track not present in AccurateRip database
Copy OK


None of the tracks are present in the AccurateRip database

No errors occurred

End of status report

==== Log checksum 32E708FBFD2D07418AD7876BD1F06F14513D096D42A7E13F2FBF6813AB7A2528 ====

foobar2000 1.2 / Dynamic Range Meter 1.1.1
log date: 2013-11-18 16:26:24

––––––––––––––––––––––––––––––––––––––––
Analyzed: Stick McGhee / New York Blues and R&B - Disc A
––––––––––––––––––––––––––––––––––––––––

DR Peak RMS Duration Track
––––––––––––––––––––––––––––––––––––––––
DR14 -0.51 dB -16.57 dB 2:19 01-Drinkin' Wine Spo-Dee-O-Dee
DR15 -0.51 dB -18.69 dB 2:25 02-Baby Baby Blues
DR12 -0.51 dB -13.66 dB 3:14 03-Drinkin' Wine Spo-Dee-O-Dee
DR10 -0.51 dB -11.70 dB 3:10 04-Tall Pretty Woman
DR12 -0.51 dB -14.88 dB 3:06 05-Lonesome Road Blues
DR12 -0.51 dB -14.54 dB 2:52 06-Blue Mixture
DR13 -1.01 dB -16.56 dB 2:43 07-I'll Always Remember
DR15 -0.51 dB -18.71 dB 2:51 08-Blue And Brokenhearted
DR9 -1.51 dB -12.17 dB 2:39 09-My Baby's Comin' Back
DR12 -0.51 dB -14.28 dB 2:55 10-Drank Up All The Wine Last Night
DR10 -1.02 dB -13.13 dB 2:31 11-Venus Blues
DR12 -0.51 dB -15.86 dB 3:01 12-Southern Menu
DR13 -0.51 dB -15.65 dB 2:57 13-Let's Do It
DR11 -0.51 dB -13.75 dB 2:45 14-She's Gone Rock Away Blues
DR12 -0.65 dB -15.20 dB 3:11 15-House Warmin' Boogie
DR11 -0.51 dB -14.98 dB 2:38 16-Blue Barrelhouse
DR11 -0.51 dB -14.09 dB 2:42 17-One Monkey Don't Stop The Show
DR11 -0.51 dB -13.95 dB 3:12 18-Tennessee Waltz Blues
DR12 -0.51 dB -15.07 dB 2:55 19-You Gotta Have Something On The Ball
DR12 -0.51 dB -14.70 dB 2:33 20-Oh What A Face
DR10 -1.46 dB -13.86 dB 2:41 21-Wee Wee Hours (Pt. 1)
DR9 -1.53 dB -12.85 dB 2:30 22-Wee Wee Hours (Pt. 2)
DR10 -0.51 dB -11.99 dB 2:51 23-New Found Love
DR9 -1.22 dB -12.10 dB 2:17 24-Meet You In The Morning
DR10 -1.51 dB -15.14 dB 2:32 25-My Little Rose
DR11 -0.75 dB -14.21 dB 2:29 26-No More Reveille
––––––––––––––––––––––––––––––––––––––––

Number of tracks: 26
Official DR value: DR11

Samplerate: 44100 Hz
Channels: 2
Bits per sample: 16
Bitrate: 271 kbps
Codec: FLAC
================================================================================


Exact Audio Copy V1.0 beta 1 from 15. November 2010

EAC extraction logfile from 23. March 2011, 19:12

Various / New York Blues and R&B 1947-1955 - Disc B

Used drive : LITE-ON CD-RW SOHR-5238S Adapter: 6 ID: 3

Read mode : Secure
Utilize accurate stream : Yes
Defeat audio cache : Yes
Make use of C2 pointers : No

Read offset correction : 6
Overread into Lead-In and Lead-Out : No
Fill up missing offset samples with silence : Yes
Delete leading and trailing silent blocks : No
Null samples used in CRC calculations : Yes
Used interface : Installed external ASPI interface
Gap handling : Appended to previous track

Used output format : Internal WAV Routines
Sample format : 44.100 Hz; 16 Bit; Stereo


TOC of the extracted CD

Track | Start | Length | Start sector | End sector
––––––––––––––––––––––––––––-
1 | 0:00.00 | 2:39.66 | 0 | 11990
2 | 2:39.66 | 2:15.36 | 11991 | 22151
3 | 4:55.27 | 2:38.46 | 22152 | 34047
4 | 7:33.73 | 2:24.64 | 34048 | 44911
5 | 9:58.62 | 2:34.11 | 44912 | 56472
6 | 12:32.73 | 2:41.13 | 56473 | 68560
7 | 15:14.11 | 2:18.62 | 68561 | 78972
8 | 17:32.73 | 2:23.26 | 78973 | 89723
9 | 19:56.24 | 2:38.25 | 89724 | 101598
10 | 22:34.49 | 2:32.54 | 101599 | 113052
11 | 25:07.28 | 2:21.12 | 113053 | 123639
12 | 27:28.40 | 2:23.60 | 123640 | 134424
13 | 29:52.25 | 2:42.36 | 134425 | 146610
14 | 32:34.61 | 2:33.64 | 146611 | 158149
15 | 35:08.50 | 2:43.00 | 158150 | 170374
16 | 37:51.50 | 2:53.46 | 170375 | 183395
17 | 40:45.21 | 2:44.51 | 183396 | 195746
18 | 43:29.72 | 2:23.41 | 195747 | 206512
19 | 45:53.38 | 2:37.17 | 206513 | 218304
20 | 48:30.55 | 2:49.28 | 218305 | 231007
21 | 51:20.08 | 2:35.71 | 231008 | 242703
22 | 53:56.04 | 2:34.73 | 242704 | 254326
23 | 56:31.02 | 2:37.44 | 254327 | 266145
24 | 59:08.46 | 2:32.48 | 266146 | 277593
25 | 61:41.19 | 2:32.03 | 277594 | 288996
26 | 64:13.22 | 2:20.19 | 288997 | 299515


Track 1

Filename F:\eac\Stick McGhee\Disc B\01 - Stick McGhee - Little Things We Used To Do.wav

Pre-gap length 0:00:02.00

Peak level 93.4 %
Extraction speed 5.2 X
Track quality 100.0 %
Test CRC 7B92DB96
Copy CRC 7B92DB96
Track not present in AccurateRip database
Copy OK

Track 2

Filename F:\eac\Stick McGhee\Disc B\02 - Stick McGhee - Blues In My Heart & Tears In My Eyes.wav

Pre-gap length 0:00:02.41

Peak level 94.3 %
Extraction speed 4.5 X
Track quality 99.9 %
Test CRC 2E333FE4
Copy CRC 2E333FE4
Track not present in AccurateRip database
Copy OK

Track 3

Filename F:\eac\Stick McGhee\Disc B\03 - Stick McGhee - Whiskey Women And Loaded Dice.wav

Pre-gap length 0:00:02.41

Peak level 94.2 %
Extraction speed 6.0 X
Track quality 100.0 %
Test CRC 60A70345
Copy CRC 60A70345
Track not present in AccurateRip database
Copy OK

Track 4

Filename F:\eac\Stick McGhee\Disc B\04 - Stick McGhee - Head Happy With Wine.wav

Pre-gap length 0:00:02.41

Peak level 94.2 %
Extraction speed 6.2 X
Track quality 100.0 %
Test CRC DD0BE3E2
Copy CRC DD0BE3E2
Track not present in AccurateRip database
Copy OK

Track 5

Filename F:\eac\Stick McGhee\Disc B\05 - Stick McGhee - I'm Doin' All This Time (And You Put Me Down).wav

Pre-gap length 0:00:02.41

Peak level 88.9 %
Extraction speed 6.5 X
Track quality 100.0 %
Test CRC 83F6E5B2
Copy CRC 83F6E5B2
Track not present in AccurateRip database
Copy OK

Track 6

Filename F:\eac\Stick McGhee\Disc B\06 - Stick McGhee - Dealin' From The Bottom.wav

Pre-gap length 0:00:02.41

Peak level 94.3 %
Extraction speed 6.8 X
Track quality 100.0 %
Test CRC B1EB9CEE
Copy CRC B1EB9CEE
Track not present in AccurateRip database
Copy OK

Track 7

Filename F:\eac\Stick McGhee\Disc B\07 - Stick McGhee - The Wiggle Waggle Woo.wav

Pre-gap length 0:00:02.41

Peak level 94.3 %
Extraction speed 5.7 X
Track quality 99.9 %
Test CRC A9FC7786
Copy CRC A9FC7786
Track not present in AccurateRip database
Copy OK

Track 8

Filename F:\eac\Stick McGhee\Disc B\08 - Stick McGhee - Jungle Juice.wav

Pre-gap length 0:00:02.41

Peak level 94.2 %
Extraction speed 7.4 X
Track quality 100.0 %
Test CRC 6914AAC6
Copy CRC 6914AAC6
Track not present in AccurateRip database
Copy OK

Track 9

Filename F:\eac\Stick McGhee\Disc B\09 - Stick McGhee - Ease My Worried Mind.wav

Pre-gap length 0:00:02.41

Peak level 88.9 %
Extraction speed 7.6 X
Track quality 100.0 %
Test CRC E14AF5E0
Copy CRC E14AF5E0
Track not present in AccurateRip database
Copy OK

Track 10

Filename F:\eac\Stick McGhee\Disc B\10 - Stick McGhee - Things Have Changed.wav

Pre-gap length 0:00:02.41

Peak level 94.2 %
Extraction speed 7.8 X
Track quality 100.0 %
Test CRC 83EF4509
Copy CRC 83EF4509
Track not present in AccurateRip database
Copy OK

Track 11

Filename F:\eac\Stick McGhee\Disc B\11 - Stick McGhee - Travelin' On.wav

Pre-gap length 0:00:02.41

Peak level 94.3 %
Extraction speed 8.0 X
Track quality 100.0 %
Test CRC 6DED9C9F
Copy CRC 6DED9C9F
Track not present in AccurateRip database
Copy OK

Track 12

Filename F:\eac\Stick McGhee\Disc B\12 - Stick McGhee - Help Me, Baby.wav

Pre-gap length 0:00:02.41

Peak level 94.3 %
Extraction speed 6.9 X
Track quality 99.9 %
Test CRC AFF2E5E1
Copy CRC AFF2E5E1
Track not present in AccurateRip database
Copy OK

Track 13

Filename F:\eac\Stick McGhee\Disc B\13 - Stick McGhee - Double Crossin' Liquor.wav

Pre-gap length 0:00:02.41

Peak level 94.2 %
Extraction speed 8.6 X
Track quality 100.0 %
Test CRC 04C472D2
Copy CRC 04C472D2
Track not present in AccurateRip database
Copy OK

Track 14

Filename F:\eac\Stick McGhee\Disc B\14 - Stick McGhee - Six To Eight.wav

Pre-gap length 0:00:02.41

Peak level 94.2 %
Extraction speed 8.7 X
Track quality 100.0 %
Test CRC 66802114
Copy CRC 66802114
Track not present in AccurateRip database
Copy OK

Track 15

Filename F:\eac\Stick McGhee\Disc B\15 - Stick McGhee - Get Your Mind Out Of The Gutter.wav

Pre-gap length 0:00:02.41

Peak level 84.0 %
Extraction speed 9.1 X
Track quality 100.0 %
Test CRC 42C4CCFA
Copy CRC 42C4CCFA
Track not present in AccurateRip database
Copy OK

Track 16

Filename F:\eac\Stick McGhee\Disc B\16 - Stick McGhee - Sad, Bad, Glad.wav

Pre-gap length 0:00:02.41

Peak level 88.9 %
Extraction speed 9.4 X
Track quality 100.0 %
Test CRC 2228B1ED
Copy CRC 2228B1ED
Track not present in AccurateRip database
Copy OK

Track 17

Filename F:\eac\Stick McGhee\Disc B\17 - Brownie McGhee - Bad Nerves.wav

Pre-gap length 0:00:02.41

Peak level 88.3 %
Extraction speed 8.1 X
Track quality 99.9 %
Test CRC 42A6BC72
Copy CRC 42A6BC72
Track not present in AccurateRip database
Copy OK

Track 18

Filename F:\eac\Stick McGhee\Disc B\18 - Brownie McGhee - Sweet Baby Blues.wav

Pre-gap length 0:00:02.41

Peak level 94.2 %
Extraction speed 9.5 X
Track quality 100.0 %
Test CRC 21A6D74E
Copy CRC 21A6D74E
Track not present in AccurateRip database
Copy OK

Track 19

Filename F:\eac\Stick McGhee\Disc B\19 - Brownie McGhee - Don't Mistreat Me.wav

Pre-gap length 0:00:02.41

Peak level 94.2 %
Extraction speed 9.9 X
Track quality 100.0 %
Test CRC 1F97E71B
Copy CRC 1F97E71B
Track not present in AccurateRip database
Copy OK

Track 20

Filename F:\eac\Stick McGhee\Disc B\20 - Brownie McGhee - Four O'Clock In The Morning.wav

Pre-gap length 0:00:02.41

Peak level 94.3 %
Extraction speed 10.0 X
Track quality 100.0 %
Test CRC 518E07AA
Copy CRC 518E07AA
Track not present in AccurateRip database
Copy OK

Track 21

Filename F:\eac\Stick McGhee\Disc B\21 - Brownie McGhee - Sweet Lover.wav

Pre-gap length 0:00:02.41

Peak level 94.2 %
Extraction speed 10.1 X
Track quality 100.0 %
Test CRC C3763AB4
Copy CRC C3763AB4
Track not present in AccurateRip database
Copy OK

Track 22

Filename F:\eac\Stick McGhee\Disc B\22 - Brownie McGhee - Brownie's New Worried Life Blues.wav

Pre-gap length 0:00:02.41

Peak level 94.2 %
Extraction speed 10.2 X
Track quality 100.0 %
Test CRC 1DA08A78
Copy CRC 1DA08A78
Track not present in AccurateRip database
Copy OK

Track 23

Filename F:\eac\Stick McGhee\Disc B\23 - Brownie McGhee - I Was Fooled.wav

Pre-gap length 0:00:02.41

Peak level 94.2 %
Extraction speed 10.5 X
Track quality 100.0 %
Test CRC F55B3738
Copy CRC F55B3738
Track not present in AccurateRip database
Copy OK

Track 24

Filename F:\eac\Stick McGhee\Disc B\24 - Brownie McGhee - Confused.wav

Pre-gap length 0:00:02.41

Peak level 94.3 %
Extraction speed 10.6 X
Track quality 100.0 %
Test CRC 9776916C
Copy CRC 9776916C
Track not present in AccurateRip database
Copy OK

Track 25

Filename F:\eac\Stick McGhee\Disc B\25 - Brownie McGhee - It Hurts Me Too.wav

Pre-gap length 0:00:02.41

Peak level 88.9 %
Extraction speed 10.7 X
Track quality 100.0 %
Test CRC 56A6F812
Copy CRC 56A6F812
Track not present in AccurateRip database
Copy OK

Track 26

Filename F:\eac\Stick McGhee\Disc B\26 - Brownie McGhee - Contact Me.wav

Pre-gap length 0:00:02.41

Peak level 94.2 %
Extraction speed 10.5 X
Track quality 100.0 %
Test CRC 5FED0874
Copy CRC 5FED0874
Track not present in AccurateRip database
Copy OK


None of the tracks are present in the AccurateRip database

No errors occurred

End of status report

==== Log checksum B921A5F096B1FEB417175EE8B499EEF395F27E102E7DFDA9640EBD6BF3819364 ====

foobar2000 1.2 / Dynamic Range Meter 1.1.1
log date: 2013-11-18 16:26:39

––––––––––––––––––––––––––––––––––––––––
Analyzed: Brownie McGhee / New York Blues and R&B - Disc B (1-10)
Stick McGhee / New York Blues and R&B - Disc B (11-26)
––––––––––––––––––––––––––––––––––––––––

DR Peak RMS Duration Track
––––––––––––––––––––––––––––––––––––––––
DR11 -1.07 dB -14.60 dB 2:45 17-Bad Nerves
DR11 -0.51 dB -14.80 dB 2:24 18-Sweet Baby Blues
DR11 -0.51 dB -14.41 dB 2:37 19-Don't Mistreat Me
DR11 -0.51 dB -15.22 dB 2:49 20-Four O'Clock In The Morning
DR11 -0.51 dB -12.30 dB 2:36 21-Sweet Lover
DR11 -0.51 dB -12.99 dB 2:35 22-Brownie's New Worried Life Blues
DR12 -0.51 dB -14.23 dB 2:38 23-I Was Fooled
DR13 -0.51 dB -14.71 dB 2:33 24-Confused
DR11 -1.01 dB -14.10 dB 2:32 25-It Hurts Me Too
DR10 -0.51 dB -12.40 dB 2:20 26-Contact Me
DR11 -0.59 dB -13.28 dB 2:40 01-Little Things We Used To Do
DR10 -0.51 dB -12.86 dB 2:15 02-Blues In My Heart & Tears In My Eyes
DR11 -0.51 dB -12.40 dB 2:39 03-Whiskey Women And Loaded Dice
DR11 -0.51 dB -13.52 dB 2:25 04-Head Happy With Wine
DR9 -1.01 dB -12.10 dB 2:34 05-I'm Doin' All This Time (And You Put Me Down)
DR11 -0.51 dB -13.36 dB 2:41 06-Dealin' From The Bottom
DR11 -0.51 dB -13.18 dB 2:19 07-The Wiggle Waggle Woo
DR11 -0.51 dB -13.26 dB 2:23 08-Jungle Juice
DR10 -1.01 dB -11.74 dB 2:38 09-Ease My Worried Mind
DR9 -0.51 dB -11.31 dB 2:33 10-Things Have Changed
DR9 -0.51 dB -11.00 dB 2:21 11-Travelin' On
DR10 -0.51 dB -11.90 dB 2:24 12-Help Me, Baby
DR11 -0.51 dB -13.27 dB 2:42 13-Double Crossin' Liquor
DR11 -0.51 dB -14.62 dB 2:34 14-Six To Eight
DR10 -1.51 dB -13.35 dB 2:43 15-Get Your Mind Out Of The Gutter
DR11 -1.01 dB -13.51 dB 2:54 16-Sad, Bad, Glad
––––––––––––––––––––––––––––––––––––––––

Number of tracks: 26
Official DR value: DR11

Samplerate: 44100 Hz
Channels: 2
Bits per sample: 16
Bitrate: 385 kbps
Codec: FLAC
================================================================================


Exact Audio Copy V1.0 beta 1 from 15. November 2010

EAC extraction logfile from 21. March 2011, 17:14

Various / New York Blues and R&B 1947-1955 - Disc C

Used drive : LITE-ON CD-RW SOHR-5238S Adapter: 6 ID: 3

Read mode : Secure
Utilize accurate stream : Yes
Defeat audio cache : Yes
Make use of C2 pointers : No

Read offset correction : 6
Overread into Lead-In and Lead-Out : No
Fill up missing offset samples with silence : Yes
Delete leading and trailing silent blocks : No
Null samples used in CRC calculations : Yes
Used interface : Installed external ASPI interface
Gap handling : Appended to previous track

Used output format : Internal WAV Routines
Sample format : 44.100 Hz; 16 Bit; Stereo


TOC of the extracted CD

Track | Start | Length | Start sector | End sector
––––––––––––––––––––––––––––-
1 | 0:00.00 | 2:12.46 | 0 | 9945
2 | 2:12.46 | 2:43.68 | 9946 | 22238
3 | 4:56.39 | 2:59.13 | 22239 | 35676
4 | 7:55.52 | 2:58.12 | 35677 | 49038
5 | 10:53.64 | 2:49.39 | 49039 | 61752
6 | 13:43.28 | 2:45.27 | 61753 | 74154
7 | 16:28.55 | 2:53.09 | 74155 | 87138
8 | 19:21.64 | 2:44.62 | 87139 | 99500
9 | 22:06.51 | 2:32.66 | 99501 | 110966
10 | 24:39.42 | 2:42.40 | 110967 | 123156
11 | 27:22.07 | 2:40.00 | 123157 | 135156
12 | 30:02.07 | 2:32.21 | 135157 | 146577
13 | 32:34.28 | 2:16.72 | 146578 | 156849
14 | 34:51.25 | 2:24.37 | 156850 | 167686
15 | 37:15.62 | 2:46.13 | 167687 | 180149
16 | 40:02.00 | 2:36.50 | 180150 | 191899
17 | 42:38.50 | 2:42.65 | 191900 | 204114
18 | 45:21.40 | 3:19.62 | 204115 | 219101
19 | 48:41.27 | 2:49.36 | 219102 | 231812
20 | 51:30.63 | 2:27.38 | 231813 | 242875
21 | 53:58.26 | 2:38.45 | 242876 | 254770
22 | 56:36.71 | 2:19.38 | 254771 | 265233
23 | 58:56.34 | 2:14.41 | 265234 | 275324
24 | 61:11.00 | 2:41.31 | 275325 | 287430
25 | 63:52.31 | 3:04.03 | 287431 | 301233
26 | 66:56.34 | 3:07.24 | 301234 | 315282
27 | 70:03.58 | 3:08.14 | 315283 | 329396


Track 1

Filename F:\eac\Stick McGhee\Disc C\01 - Brownie McGhee - Yellow Moon.wav

Pre-gap length 0:00:02.00

Peak level 94.1 %
Extraction speed 5.0 X
Track quality 100.0 %
Test CRC 43A48700
Copy CRC 43A48700
Track not present in AccurateRip database
Copy OK

Track 2

Filename F:\eac\Stick McGhee\Disc C\02 - Brownie McGhee - It's Over.wav

Pre-gap length 0:00:02.41

Peak level 94.3 %
Extraction speed 5.6 X
Track quality 100.0 %
Test CRC E41F2DA7
Copy CRC E41F2DA7
Track not present in AccurateRip database
Copy OK

Track 3

Filename F:\eac\Stick McGhee\Disc C\03 - Brownie McGhee & Harry Van Walls - True Blues.wav

Pre-gap length 0:00:02.41

Peak level 94.3 %
Extraction speed 6.1 X
Track quality 100.0 %
Test CRC B53C6FF8
Copy CRC B53C6FF8
Track not present in AccurateRip database
Copy OK

Track 4

Filename F:\eac\Stick McGhee\Disc C\04 - Brownie McGhee & Harry Van Walls - My Consolation.wav

Pre-gap length 0:00:02.41

Peak level 82.4 %
Extraction speed 6.4 X
Track quality 100.0 %
Test CRC A4BE8471
Copy CRC A4BE8471
Track not present in AccurateRip database
Copy OK

Track 5

Filename F:\eac\Stick McGhee\Disc C\05 - Brownie McGhee & Harry Van Walls - New Sporting Life Blues.wav

Pre-gap length 0:00:02.41

Peak level 88.9 %
Extraction speed 6.6 X
Track quality 100.0 %
Test CRC 17706653
Copy CRC 17706653
Track not present in AccurateRip database
Copy OK

Track 6

Filename F:\eac\Stick McGhee\Disc C\06 - Brownie McGhee & Harry Van Walls - C.C. Baby.wav

Pre-gap length 0:00:02.41

Peak level 94.3 %
Extraction speed 5.9 X
Track quality 99.9 %
Test CRC 038E520B
Copy CRC 038E520B
Track not present in AccurateRip database
Copy OK

Track 7

Filename F:\eac\Stick McGhee\Disc C\07 - Brownie McGhee & Harry Van Walls - You Got To Love Me Baby Too.wav

Pre-gap length 0:00:02.41

Peak level 94.2 %
Extraction speed 7.3 X
Track quality 100.0 %
Test CRC 122379B9
Copy CRC 122379B9
Track not present in AccurateRip database
Copy OK

Track 8

Filename F:\eac\Stick McGhee\Disc C\08 - Brownie McGhee & Harry Van Walls - My Other Home.wav

Pre-gap length 0:00:02.41

Peak level 94.3 %
Extraction speed 7.6 X
Track quality 100.0 %
Test CRC 0185AD4C
Copy CRC 0185AD4C
Track not present in AccurateRip database
Copy OK

Track 9

Filename F:\eac\Stick McGhee\Disc C\09 - Brownie McGhee & Harry Van Walls - Weeping Willow.wav

Pre-gap length 0:00:02.41

Peak level 89.0 %
Extraction speed 7.6 X
Track quality 100.0 %
Test CRC 94BB6F44
Copy CRC 94BB6F44
Track not present in AccurateRip database
Copy OK

Track 10

Filename F:\eac\Stick McGhee\Disc C\10 - Brownie McGhee & Harry Van Walls - Feed Me Baby.wav

Pre-gap length 0:00:02.41

Peak level 94.3 %
Extraction speed 7.9 X
Track quality 100.0 %
Test CRC 9CCDED9D
Copy CRC 9CCDED9D
Track not present in AccurateRip database
Copy OK

Track 11

Filename F:\eac\Stick McGhee\Disc C\11 - Brownie McGhee & His Jook Block Busters - Meet You In The Morning.wav

Pre-gap length 0:00:02.41

Peak level 92.0 %
Extraction speed 8.2 X
Track quality 100.0 %
Test CRC 183A3BE9
Copy CRC 183A3BE9
Track not present in AccurateRip database
Copy OK

Track 12

Filename F:\eac\Stick McGhee\Disc C\12 - Brownie McGhee & His Jook Block Busters - I Feel So Good.wav

Pre-gap length 0:00:02.41

Peak level 87.0 %
Extraction speed 8.3 X
Track quality 100.0 %
Test CRC 0D26D81A
Copy CRC 0D26D81A
Track not present in AccurateRip database
Copy OK

Track 13

Filename F:\eac\Stick McGhee\Disc C\13 - Brownie McGhee & His Jook Block Busters - Key To The Highway.wav

Pre-gap length 0:00:02.41

Peak level 89.8 %
Extraction speed 8.4 X
Track quality 100.0 %
Test CRC FF34C30B
Copy CRC FF34C30B
Track not present in AccurateRip database
Copy OK

Track 14

Filename F:\eac\Stick McGhee\Disc C\14 - Brownie McGhee & His Jook Block Busters - Stranger's Blues.wav

Pre-gap length 0:00:02.41

Peak level 94.3 %
Extraction speed 8.6 X
Track quality 100.0 %
Test CRC 240CAA5E
Copy CRC 240CAA5E
Track not present in AccurateRip database
Copy OK

Track 15

Filename F:\eac\Stick McGhee\Disc C\15 - Brownie McGhee & His Jook Block Busters - Sittin' On Top Of The World.wav

Pre-gap length 0:00:02.41

Peak level 94.2 %
Extraction speed 9.0 X
Track quality 100.0 %
Test CRC 5396398F
Copy CRC 5396398F
Track not present in AccurateRip database
Copy OK

Track 16

Filename F:\eac\Stick McGhee\Disc C\16 - Brownie McGhee & His Jook Block Busters - Mean Old Frisco.wav

Pre-gap length 0:00:02.41

Peak level 94.3 %
Extraction speed 9.1 X
Track quality 100.0 %
Test CRC 64B5C633
Copy CRC 64B5C633
Track not present in AccurateRip database
Copy OK

Track 17

Filename F:\eac\Stick McGhee\Disc C\17 - Brownie McGhee & His Jook Block Busters - Mean Old Frisco (Alt. Take).wav

Pre-gap length 0:00:02.41

Peak level 94.2 %
Extraction speed 9.4 X
Track quality 100.0 %
Test CRC 5560F7A8
Copy CRC 5560F7A8
Track not present in AccurateRip database
Copy OK

Track 18

Filename F:\eac\Stick McGhee\Disc C\18 - Brownie McGhee & His Jook Block Busters - New Bad Blood Blues.wav

Pre-gap length 0:00:02.41

Peak level 94.3 %
Extraction speed 9.9 X
Track quality 100.0 %
Test CRC BCCFF161
Copy CRC BCCFF161
Track not present in AccurateRip database
Copy OK

Track 19

Filename F:\eac\Stick McGhee\Disc C\19 - Brownie McGhee & His Sugar Men - Lover (Ease My Worried Mind).wav

Pre-gap length 0:00:02.41

Peak level 94.3 %
Extraction speed 9.8 X
Track quality 100.0 %
Test CRC 2E4E7647
Copy CRC 2E4E7647
Track not present in AccurateRip database
Copy OK

Track 20

Filename F:\eac\Stick McGhee\Disc C\20 - Brownie McGhee & His Jook Block Busters - Dissatisfied Woman.wav

Pre-gap length 0:00:02.41

Peak level 74.9 %
Extraction speed 9.6 X
Track quality 100.0 %
Test CRC B6786BAD
Copy CRC B6786BAD
Track not present in AccurateRip database
Copy OK

Track 21

Filename F:\eac\Stick McGhee\Disc C\21 - Brownie McGhee & His Jook Block Busters - Pawn Shop Blues.wav

Pre-gap length 0:00:02.41

Peak level 94.3 %
Extraction speed 9.9 X
Track quality 100.0 %
Test CRC BA8F709C
Copy CRC BA8F709C
Track not present in AccurateRip database
Copy OK

Track 22

Filename F:\eac\Stick McGhee\Disc C\22 - Brownie McGhee & His Jook Block Busters - Forgive Me.wav

Pre-gap length 0:00:02.41

Peak level 89.0 %
Extraction speed 9.7 X
Track quality 100.0 %
Test CRC 59C93144
Copy CRC 59C93144
Track not present in AccurateRip database
Copy OK

Track 23

Filename F:\eac\Stick McGhee\Disc C\23 - Brownie McGhee & His Jook Block Busters - C.C. Rider, Where Did She Go.wav

Pre-gap length 0:00:02.41

Peak level 94.3 %
Extraction speed 9.7 X
Track quality 100.0 %
Test CRC C97FEE0F
Copy CRC C97FEE0F
Track not present in AccurateRip database
Copy OK

Track 24

Filename F:\eac\Stick McGhee\Disc C\24 - Big Tom Collins & Brownie McGhee - Heartache Blues.wav

Pre-gap length 0:00:02.41

Peak level 94.3 %
Extraction speed 10.3 X
Track quality 100.0 %
Test CRC 8C5B59C5
Copy CRC 8C5B59C5
Track not present in AccurateRip database
Copy OK

Track 25

Filename F:\eac\Stick McGhee\Disc C\25 - Big Tom Collins & Brownie McGhee - Real Good Feelin'.wav

Pre-gap length 0:00:02.41

Peak level 89.0 %
Extraction speed 10.7 X
Track quality 100.0 %
Test CRC 793E97E8
Copy CRC 793E97E8
Track not present in AccurateRip database
Copy OK

Track 26

Filename F:\eac\Stick McGhee\Disc C\26 - Brownie McGhee & His Jook Block Busters - A Letter To Lightnin' Hopkins.wav

Pre-gap length 0:00:02.41

Peak level 94.3 %
Extraction speed 10.4 X
Track quality 100.0 %
Test CRC 17A58B07
Copy CRC 17A58B07
Track not present in AccurateRip database
Copy OK

Track 27

Filename F:\eac\Stick McGhee\Disc C\27 - Brownie McGhee & His Jook Block Busters - Smiling And Crying The Blues.wav

Pre-gap length 0:00:02.41

Peak level 89.8 %
Extraction speed 10.1 X
Track quality 100.0 %
Test CRC A2694FEA
Copy CRC A2694FEA
Track not present in AccurateRip database
Copy OK


None of the tracks are present in the AccurateRip database

No errors occurred

End of status report

==== Log checksum 57F491B298CA784CB926C6B95E61DE3D7157B85A37887AE08F69E3E9A3D95BE8 ====

foobar2000 1.2 / Dynamic Range Meter 1.1.1
log date: 2013-11-18 16:26:55

––––––––––––––––––––––––––––––––––––––––
Analyzed: Big Tom Collins & Brownie McGhee / New York Blues and R&B - Disc C (1-2)
Brownie McGhee & Harry Van Walls / New York Blues and R&B - Disc C (3-10)
Brownie McGhee & His Jook Block Busters / New York Blues and R&B - Disc C (11-24)
Brownie McGhee & His Sugar Men / New York Blues and R&B - Disc C (25)
Brownie McGhee / New York Blues and R&B - Disc C (26-27)
––––––––––––––––––––––––––––––––––––––––

DR Peak RMS Duration Track
––––––––––––––––––––––––––––––––––––––––
DR12 -0.51 dB -14.63 dB 2:41 24-Heartache Blues
DR11 -1.01 dB -13.74 dB 3:04 25-Real Good Feelin'
DR13 -0.51 dB -16.09 dB 2:59 03-True Blues
DR13 -1.67 dB -17.37 dB 2:58 04-My Consolation
DR11 -1.01 dB -15.56 dB 2:50 05-New Sporting Life Blues
DR12 -0.51 dB -15.31 dB 2:45 06-C.C. Baby
DR13 -0.51 dB -16.01 dB 2:53 07-You Got To Love Me Baby Too
DR13 -0.51 dB -16.79 dB 2:45 08-My Other Home
DR13 -1.01 dB -16.08 dB 2:33 09-Weeping Willow
DR13 -0.51 dB -16.04 dB 2:43 10-Feed Me Baby
DR11 -0.72 dB -14.01 dB 2:40 11-Meet You In The Morning
DR11 -1.20 dB -14.07 dB 2:32 12-I Feel So Good
DR10 -0.93 dB -14.57 dB 2:17 13-Key To The Highway
DR11 -0.51 dB -14.37 dB 2:24 14-Stranger's Blues
DR11 -0.51 dB -14.92 dB 2:46 15-Sittin' On Top Of The World
DR11 -0.51 dB -14.46 dB 2:37 16-Mean Old Frisco
DR13 -0.51 dB -17.04 dB 2:43 17-Mean Old Frisco (Alt. Take)
DR12 -0.51 dB -14.77 dB 3:20 18-New Bad Blood Blues
DR11 -2.51 dB -14.97 dB 2:28 20-Dissatisfied Woman
DR11 -0.51 dB -13.66 dB 2:39 21-Pawn Shop Blues
DR11 -1.01 dB -14.91 dB 2:20 22-Forgive Me
DR12 -0.51 dB -15.83 dB 2:15 23-C.C. Rider, Where Did She Go
DR10 -0.51 dB -13.21 dB 3:07 26-A Letter To Lightnin' Hopkins
DR12 -0.93 dB -15.67 dB 3:08 27-Smiling And Crying The Blues
DR12 -0.51 dB -16.46 dB 2:49 19-Lover (Ease My Worried Mind)
DR11 -0.52 dB -13.84 dB 2:13 01-Yellow Moon
DR11 -0.51 dB -13.75 dB 2:44 02-It's Over
––––––––––––––––––––––––––––––––––––––––

Number of tracks: 27
Official DR value: DR12

Samplerate: 44100 Hz
Channels: 2
Bits per sample: 16
Bitrate: 343 kbps
Codec: FLAC
================================================================================


Exact Audio Copy V1.0 beta 1 from 15. November 2010

EAC extraction logfile from 21. March 2011, 17:54

Various / New York Blues and R&B 1947-1955 - Disc D

Used drive : LITE-ON CD-RW SOHR-5238S Adapter: 6 ID: 3

Read mode : Secure
Utilize accurate stream : Yes
Defeat audio cache : Yes
Make use of C2 pointers : No

Read offset correction : 6
Overread into Lead-In and Lead-Out : No
Fill up missing offset samples with silence : Yes
Delete leading and trailing silent blocks : No
Null samples used in CRC calculations : Yes
Used interface : Installed external ASPI interface
Gap handling : Appended to previous track

Used output format : Internal WAV Routines
Sample format : 44.100 Hz; 16 Bit; Stereo


TOC of the extracted CD

Track | Start | Length | Start sector | End sector
––––––––––––––––––––––––––––-
1 | 0:00.00 | 2:53.61 | 0 | 13035
2 | 2:53.61 | 3:01.39 | 13036 | 26649
3 | 5:55.25 | 2:52.53 | 26650 | 39602
4 | 8:48.03 | 3:18.65 | 39603 | 54517
5 | 12:06.68 | 2:54.34 | 54518 | 67601
6 | 15:01.27 | 2:53.60 | 67602 | 80636
7 | 17:55.12 | 2:59.56 | 80637 | 94117
8 | 20:54.68 | 2:56.33 | 94118 | 107350
9 | 23:51.26 | 2:32.69 | 107351 | 118819
10 | 26:24.20 | 2:48.47 | 118820 | 131466
11 | 29:12.67 | 2:59.33 | 131467 | 144924
12 | 32:12.25 | 3:05.00 | 144925 | 158799
13 | 35:17.25 | 2:49.48 | 158800 | 171522
14 | 38:06.73 | 3:26.06 | 171523 | 186978
15 | 41:33.04 | 3:34.15 | 186979 | 203043
16 | 45:07.19 | 2:45.49 | 203044 | 215467
17 | 47:52.68 | 2:47.21 | 215468 | 228013
18 | 50:40.14 | 2:54.74 | 228014 | 241137
19 | 53:35.13 | 3:23.43 | 241138 | 256405
20 | 56:58.56 | 3:05.67 | 256406 | 270347
21 | 60:04.48 | 2:25.37 | 270348 | 281259
22 | 62:30.10 | 3:06.03 | 281260 | 295212
23 | 65:36.13 | 2:57.28 | 295213 | 308515
24 | 68:33.41 | 2:55.56 | 308516 | 321696
25 | 71:29.22 | 2:40.10 | 321697 | 333706
26 | 74:09.32 | 3:18.55 | 333707 | 348611


Track 1

Filename F:\eac\Stick McGhee\Disc D\01 - Brownie McGhee - I'm Gonna Move Cross The River.wav

Pre-gap length 0:00:02.00

Peak level 94.3 %
Extraction speed 5.6 X
Track quality 100.0 %
Test CRC 701912C5
Copy CRC 701912C5
Track not present in AccurateRip database
Copy OK

Track 2

Filename F:\eac\Stick McGhee\Disc D\02 - Brownie McGhee - Heart In Sorrow.wav

Pre-gap length 0:00:02.41

Peak level 79.3 %
Extraction speed 6.1 X
Track quality 100.0 %
Test CRC 7152FDA8
Copy CRC 7152FDA8
Track not present in AccurateRip database
Copy OK

Track 3

Filename F:\eac\Stick McGhee\Disc D\03 - Brownie McGhee - Dissatisfied Blues.wav

Pre-gap length 0:00:02.41

Peak level 70.7 %
Extraction speed 6.4 X
Track quality 100.0 %
Test CRC ADD8FBD3
Copy CRC ADD8FBD3
Track not present in AccurateRip database
Copy OK

Track 4

Filename F:\eac\Stick McGhee\Disc D\04 - Brownie McGhee - Diamond Ring.wav

Pre-gap length 0:00:02.41

Peak level 84.0 %
Extraction speed 7.0 X
Track quality 100.0 %
Test CRC B70FF209
Copy CRC B70FF209
Track not present in AccurateRip database
Copy OK

Track 5

Filename F:\eac\Stick McGhee\Disc D\05 - Brownie McGhee - The Way I Feel.wav

Pre-gap length 0:00:02.41

Peak level 94.2 %
Extraction speed 7.1 X
Track quality 100.0 %
Test CRC 0615E639
Copy CRC 0615E639
Track not present in AccurateRip database
Copy OK

Track 6

Filename F:\eac\Stick McGhee\Disc D\06 - Brownie McGhee - So Much Trouble.wav

Pre-gap length 0:00:02.41

Peak level 88.9 %
Extraction speed 7.4 X
Track quality 100.0 %
Test CRC E0CA1A69
Copy CRC E0CA1A69
Track not present in AccurateRip database
Copy OK

Track 7

Filename F:\eac\Stick McGhee\Disc D\07 - Brownie McGhee - Gone Baby, Gone.wav

Pre-gap length 0:00:02.41

Peak level 84.0 %
Extraction speed 7.8 X
Track quality 100.0 %
Test CRC 8ABF7D25
Copy CRC 8ABF7D25
Track not present in AccurateRip database
Copy OK

Track 8

Filename F:\eac\Stick McGhee\Disc D\08 - Brownie McGhee - Tell Me, Baby.wav

Pre-gap length 0:00:02.41

Peak level 88.9 %
Extraction speed 8.0 X
Track quality 100.0 %
Test CRC 69A34F45
Copy CRC 69A34F45
Track not present in AccurateRip database
Copy OK

Track 9

Filename F:\eac\Stick McGhee\Disc D\09 - Brownie McGhee - Sittin' Pretty.wav

Pre-gap length 0:00:02.41

Peak level 94.0 %
Extraction speed 8.1 X
Track quality 100.0 %
Test CRC 5A5F6389
Copy CRC 5A5F6389
Track not present in AccurateRip database
Copy OK

Track 10

Filename F:\eac\Stick McGhee\Disc D\10 - Brownie McGhee - Bottom Blues.wav

Pre-gap length 0:00:02.41

Peak level 88.9 %
Extraction speed 8.4 X
Track quality 100.0 %
Test CRC 12B23662
Copy CRC 12B23662
Track not present in AccurateRip database
Copy OK

Track 11

Filename F:\eac\Stick McGhee\Disc D\11 - Sonny Terry - Keys To The Highway.wav

Pre-gap length 0:00:02.41

Peak level 91.0 %
Extraction speed 8.9 X
Track quality 100.0 %
Test CRC 80E9823A
Copy CRC 80E9823A
Track not present in AccurateRip database
Copy OK

Track 12

Filename F:\eac\Stick McGhee\Disc D\12 - Sonny Terry - I Have Had My Fun.wav

Pre-gap length 0:00:02.41

Peak level 94.3 %
Extraction speed 9.1 X
Track quality 100.0 %
Test CRC 1A727731
Copy CRC 1A727731
Track not present in AccurateRip database
Copy OK

Track 13

Filename F:\eac\Stick McGhee\Disc D\13 - Sonny Terry - Airplane Blues.wav

Pre-gap length 0:00:02.41

Peak level 94.3 %
Extraction speed 9.2 X
Track quality 100.0 %
Test CRC 2FF57902
Copy CRC 2FF57902
Track not present in AccurateRip database
Copy OK

Track 14

Filename F:\eac\Stick McGhee\Disc D\14 - Sonny Terry - Telephone Blues.wav

Pre-gap length 0:00:02.41

Peak level 94.3 %
Extraction speed 9.8 X
Track quality 100.0 %
Test CRC D5A0ADF8
Copy CRC D5A0ADF8
Track not present in AccurateRip database
Copy OK

Track 15

Filename F:\eac\Stick McGhee\Disc D\15 - Sonny Terry - Mad Man Blues.wav

Pre-gap length 0:00:02.41

Peak level 94.3 %
Extraction speed 8.8 X
Track quality 99.9 %
Test CRC 9800C647
Copy CRC 9800C647
Track not present in AccurateRip database
Copy OK

Track 16

Filename F:\eac\Stick McGhee\Disc D\16 - Sonny Terry - Dirty Mistreater, Don't You Know.wav

Pre-gap length 0:00:02.41

Peak level 94.3 %
Extraction speed 9.9 X
Track quality 100.0 %
Test CRC 05487C7B
Copy CRC 05487C7B
Track not present in AccurateRip database
Copy OK

Track 17

Filename F:\eac\Stick McGhee\Disc D\17 - Sonny Terry & His Night Owls - Women Is Killing Me.wav

Pre-gap length 0:00:02.41

Peak level 94.3 %
Extraction speed 10.1 X
Track quality 100.0 %
Test CRC D4FA8329
Copy CRC D4FA8329
Track not present in AccurateRip database
Copy OK

Track 18

Filename F:\eac\Stick McGhee\Disc D\18 - Sonny Terry & His Night Owls - Harmonica Train.wav

Pre-gap length 0:00:02.41

Peak level 94.3 %
Extraction speed 8.5 X
Track quality 99.9 %
Test CRC 50B660E6
Copy CRC 50B660E6
Track not present in AccurateRip database
Copy OK

Track 19

Filename F:\eac\Stick McGhee\Disc D\19 - Sonny Terry - Going Down Slow.wav

Pre-gap length 0:00:02.41

Peak level 94.2 %
Extraction speed 10.5 X
Track quality 100.0 %
Test CRC 3D583AE3
Copy CRC 3D583AE3
Track not present in AccurateRip database
Copy OK

Track 20

Filename F:\eac\Stick McGhee\Disc D\20 - Sonny Terry - Man Ain't Nothin' But A Fool.wav

Pre-gap length 0:00:02.41

Peak level 94.2 %
Extraction speed 10.7 X
Track quality 100.0 %
Test CRC 9DCD65F5
Copy CRC 9DCD65F5
Track not present in AccurateRip database
Copy OK

Track 21

Filename F:\eac\Stick McGhee\Disc D\21 - Sonny Terry - Baby, Let's Have Some Fun.wav

Pre-gap length 0:00:02.41

Peak level 94.3 %
Extraction speed 10.4 X
Track quality 100.0 %
Test CRC AABA680E
Copy CRC AABA680E
Track not present in AccurateRip database
Copy OK

Track 22

Filename F:\eac\Stick McGhee\Disc D\22 - Sonny Terry - 4 O'Clock Blues.wav

Pre-gap length 0:00:02.41

Peak level 89.0 %
Extraction speed 11.1 X
Track quality 100.0 %
Test CRC A4F4FA1D
Copy CRC A4F4FA1D
Track not present in AccurateRip database
Copy OK

Track 23

Filename F:\eac\Stick McGhee\Disc D\23 - Sonny Terry - Lonesome Room.wav

Pre-gap length 0:00:02.41

Peak level 89.0 %
Extraction speed 11.0 X
Track quality 100.0 %
Test CRC 5E6311F4
Copy CRC 5E6311F4
Track not present in AccurateRip database
Copy OK

Track 24

Filename F:\eac\Stick McGhee\Disc D\24 - Sonny Terry - No Love Blues.wav

Pre-gap length 0:00:02.41

Peak level 94.3 %
Extraction speed 11.3 X
Track quality 100.0 %
Test CRC 043C80C5
Copy CRC 043C80C5
Track not present in AccurateRip database
Copy OK

Track 25

Filename F:\eac\Stick McGhee\Disc D\25 - Sonny Terry - Wine Headed Woman.wav

Pre-gap length 0:00:02.41

Peak level 94.2 %
Extraction speed 11.1 X
Track quality 100.0 %
Test CRC 6656EA87
Copy CRC 6656EA87
Track not present in AccurateRip database
Copy OK

Track 26

Filename F:\eac\Stick McGhee\Disc D\26 - Sonny Terry - Bad Luck Blues.wav

Pre-gap length 0:00:02.40

Peak level 94.2 %
Extraction speed 10.6 X
Track quality 100.0 %
Test CRC 58309626
Copy CRC 58309626
Track not present in AccurateRip database
Copy OK


None of the tracks are present in the AccurateRip database

No errors occurred

End of status report

==== Log checksum BD124A9326B05A2C12866F3A3583864AEAA6DF083DFBCA82737777049C5ACD94 ====

foobar2000 1.2 / Dynamic Range Meter 1.1.1
log date: 2013-11-18 16:27:14

––––––––––––––––––––––––––––––––––––––––
Analyzed: Brownie McGhee / New York Blues and R&B - Disc D (1-10)
Sonny Terry & His Night Owls / New York Blues and R&B - Disc D (11-12)
Sonny Terry / New York Blues and R&B - Disc D (13-26)
––––––––––––––––––––––––––––––––––––––––

DR Peak RMS Duration Track
––––––––––––––––––––––––––––––––––––––––
DR13 -0.51 dB -15.42 dB 2:54 01-I'm Gonna Move Cross The River
DR11 -2.01 dB -16.60 dB 3:02 02-Heart In Sorrow
DR10 -3.01 dB -14.99 dB 2:53 03-Dissatisfied Blues
DR9 -1.51 dB -14.37 dB 3:19 04-Diamond Ring
DR12 -0.51 dB -16.80 dB 2:54 05-The Way I Feel
DR11 -1.01 dB -13.40 dB 2:54 06-So Much Trouble
DR9 -1.51 dB -13.42 dB 3:00 07-Gone Baby, Gone
DR10 -1.01 dB -12.91 dB 2:56 08-Tell Me, Baby
DR11 -0.53 dB -13.10 dB 2:33 09-Sittin' Pretty
DR10 -1.01 dB -13.69 dB 2:49 10-Bottom Blues
DR8 -0.51 dB -11.14 dB 2:47 17-Women Is Killing Me
DR10 -0.51 dB -12.58 dB 2:55 18-Harmonica Train
DR11 -0.82 dB -16.45 dB 2:59 11-Keys To The Highway
DR13 -0.51 dB -17.74 dB 3:05 12-I Have Had My Fun
DR11 -0.51 dB -14.11 dB 2:50 13-Airplane Blues
DR12 -0.51 dB -15.66 dB 3:26 14-Telephone Blues
DR12 -0.51 dB -14.90 dB 3:34 15-Mad Man Blues
DR12 -0.51 dB -14.81 dB 2:46 16-Dirty Mistreater, Don't You Know
DR12 -0.51 dB -15.85 dB 3:24 19-Going Down Slow
DR11 -0.51 dB -15.61 dB 3:06 20-Man Ain't Nothin' But A Fool
DR13 -0.51 dB -15.72 dB 2:25 21-Baby, Let's Have Some Fun
DR10 -1.01 dB -15.17 dB 3:06 22-4 O'Clock Blues
DR12 -1.01 dB -15.70 dB 2:57 23-Lonesome Room
DR12 -0.51 dB -16.59 dB 2:56 24-No Love Blues
DR12 -0.51 dB -14.79 dB 2:40 25-Wine Headed Woman
DR13 -0.51 dB -16.38 dB 3:19 26-Bad Luck Blues
––––––––––––––––––––––––––––––––––––––––

Number of tracks: 26
Official DR value: DR11

Samplerate: 44100 Hz
Channels: 2
Bits per sample: 16
Bitrate: 300 kbps
Codec: FLAC
================================================================================

Stick McGhee with Brownie McGhee & Sonny Terry - New York Blues and R&B 1947-1955 (2007) 4CD Box Set

Stick McGhee with Brownie McGhee & Sonny Terry - New York Blues and R&B 1947-1955 (2007) 4CD Box Set

Stick McGhee with Brownie McGhee & Sonny Terry - New York Blues and R&B 1947-1955 (2007) 4CD Box Set

All thanks to original releaser - Flacmonster

More interesting music in My Blog