Tags
Language
Tags
June 2024
Su Mo Tu We Th Fr Sa
26 27 28 29 30 31 1
2 3 4 5 6 7 8
9 10 11 12 13 14 15
16 17 18 19 20 21 22
23 24 25 26 27 28 29
30 1 2 3 4 5 6

Stone The Crows - Studio Albums (1969-1972) 4CD [1996-1997 Repertoire Reissue]

Posted By: Designol
Stone The Crows - Studio Albums (1969-1972) 4CD [1996-1997 Repertoire Reissue]

Stone The Crows - Studio Albums (1969-1972) 4CD [1996-1997 Repertoire Reissue]
EAC | FLAC | Image (Cue&Log) ~ 1 Gb | Mp3 (CBR320) ~ 372 Mb | Scans ~ 390 Mb
Blues-Rock, Hard Rock, Boogie Rock | Label: Repertoire | Time: 02:42:05

Stone the Crows was a tough-luck, working class, progressive soul band that came out of the pubs of Scotland in the early '70s. They had everything going for them at the start: not one, but two gritty singers, a talented guitarist, a rhythm section that had played with John Mayall, and the name recognition of having Led Zeppelin manager Peter Grant as their producer. Despite favorable reviews by the critics, however, they never managed to sell their hybridized soul music to a large audience. In addition, they lost two of their key members early on, one of whom was tragically electrocuted, and the group broke up after four albums.

Their biggest contribution to rock was the immense vocal talent of one Maggie Bell. Winner of several Top Girl Singer awards in Britain, Bell had a raunchy, gutbucket voice that, although it fell short of the naked emotion and range of Janis Joplin's, came probably closer to her style than any other female singer. She first attracted notice when she jumped up on stage at a show in Glasgow to wail with Alex Harvey of the Sensational Alex Harvey Band. Impressed by her talent (and audacity), Harvey hooked her up with his guitar-playing younger brother Les, then fronting a local band called the Kinning Park Ramblers. After playing army bases in Europe for several years as Power, Bell, Harvey, bassist Jim Dewar, keyboardist Jon McGinnis, and drummer Colin Allen (who had played with future bass player Steve Thompson in John Mayall's band), came to the attention of Peter Grant and they changed their name to Stone the Crows, which supposedly is a Scottish variation of "the hell with it."

Both of their first two albums received good reviews upon release, but sold very meagerly. Then bassist/vocalist Jim Dewar quit the band to join Robin Trower's fledgling group, to be replaced by the non-singing Steve Thompson. Shortly after releasing Teenage Licks, guitarist Les Harvey was electrocuted onstage during a gig at Swansea University. This appeared to end the band, but they carried on, recruiting young Jimmy McCulloch from Thunderclap Newman and released "'Ontinuous Performance." Although the rock press lauded the singing of Bell, her group couldn't seem to emerge from the shadows and they broke up after this last album, with McCulloch flying away to join Paul McCartney in Wings.

Biography by Peter Kurtz, Allmusic.com

Stone The Crows - Studio Albums (1969-1972) 4CD [1996-1997 Repertoire Reissue]






Stone The Crows - Studio Albums (1969-1972) 4CD [1996-1997 Repertoire Reissue]

Stone The Crows - Stone The Crows (1969) Reissue 1997
EAC | FLAC | Image (Cue&Log) ~ 219 Mb | Mp3 (CBR320) ~ 87 Mb | Scans ~ 72 Mb
Label: Repertoire | # REP 4626-WY | Time: 00:37:53

A somewhat atypical debut rock release. Not only does the band deliver a soulful rendition of "Fool on the Hill," but the dreaded side-long track makes its appearance on side two of Stone the Crows. The tune is titled "I Saw America," and it pulls together the rock, blues, and soul elements that were splintered up on the first side. A spirited attempt was made to live up to the grandiose title, and there's some confident guitar by Les Harvey, but ultimately Stone the Crows are unable to meld together the progressive folk, boogie, jazz, and soul sections that comprise the piece. "A" for effort, though.

Review by Peter Kurtz, Allmusic.com

Tracklist:

01. The touch of your loving hand (06:03)
02. Raining in your heart (05:08)
03. Blind man (05:11)
04. Fool on the hill (04:08)
05. I saw America (17:20)


Exact Audio Copy V0.99 prebeta 4 from 23. January 2008

Отчёт EAC об извлечении, выполненном 23. апреля 2008, 21:31

Stone The Crows / Stone The Crows

Дисковод: _NEC DVD_RW ND-3520A Adapter: 1 ID: 1

Режим чтения : Достоверность
Использование точного потока : Да
Отключение кэша аудио : Да
Использование указателей C2 : Нет

Коррекция смещения при чтении : 48
Способность читать области Lead-in и Lead-out : Нет
Заполнение пропущенных сэмплов тишиной : Да
Удаление блоков с тишиной в начале и конце : Нет
При вычислениях CRC использовались нулевые сэмплы : Да
Интерфейс : Установленный внешний ASPI-интерфейс

Выходной формат : Внутренние WAV-операции
Формат сэмплов : 44.100 Гц; 16 бит; стерео


TOC извлечённого CD

Трек | Старт | Длительность | Начальный сектор | Конечный сектор
––––––––––––––––––––––––––––––––––-
1 | 0:00.00 | 6:03.27 | 0 | 27251
2 | 6:03.27 | 5:08.70 | 27252 | 50421
3 | 11:12.22 | 5:11.55 | 50422 | 73801
4 | 16:24.02 | 4:09.00 | 73802 | 92476
5 | 20:33.02 | 17:20.73 | 92477 | 170549


Характеристики диапазона извлечения и сообщения об ошибках

Выбранный диапазон

Имя файла D:\_1\Stone The Crows\Stone The Crows - Stone The Crows.wav

Пиковый уровень 98.4 %
Качество диапазона 100.0 %
CRC копии C135ED51
Копирование… OK

Ошибок не произошло

Конец отчёта

[CUETools log; Date: 06.10.2016 21:27:19; Version: 2.1.4]
[CTDB TOCID: E6UFY0NglanqzvCjbl_hz3B_M98-] found.
Track | CTDB Status
1 | (19/19) Accurately ripped
2 | (19/19) Accurately ripped
3 | (19/19) Accurately ripped
4 | (19/19) Accurately ripped
5 | (19/19) Accurately ripped
[AccurateRip ID: 00065327-001e5068-4308e205] found.
Track [ CRC | V2 ] Status
01 [fd6046b9|c23923ac] (12+12/24) Accurately ripped
02 [32b61e0f|b2cf45b0] (12+12/24) Accurately ripped
03 [b9977d05|0ec8e829] (12+12/24) Accurately ripped
04 [7e3ec3ab|514bafca] (13+12/25) Accurately ripped
05 [5c03be3f|58f8337d] (12+12/24) Accurately ripped

Track Peak [ CRC32 ] [W/O NULL] [ LOG ]
– 98,4 [C135ED51] [9524BF26] CRC32
01 98,4 [45B0DD4D] [BF001134]
02 98,4 [94CD099D] [59D8603A]
03 98,4 [22EED772] [21360CCB]
04 98,4 [AE3CDCD7] [C1543BE9]
05 92,1 [0C280FB1] [C2654494]

foobar2000 1.2 / Dynamic Range Meter 1.1.1
log date: 2016-10-06 21:30:00

––––––––––––––––––––––––––––––––––––––––
Analyzed: Stone The Crows / Stone The Crows
––––––––––––––––––––––––––––––––––––––––

DR Peak RMS Duration Track
––––––––––––––––––––––––––––––––––––––––
DR11 -0.14 dB -14.27 dB 6:03 01-The touch of your loving hand
DR11 -0.14 dB -12.14 dB 5:09 02-Raining in your heart
DR10 -0.14 dB -13.92 dB 5:12 03-Blind man
DR12 -0.14 dB -14.05 dB 4:09 04-Fool on the hill
DR11 -0.71 dB -15.53 dB 17:21 05-I saw America
––––––––––––––––––––––––––––––––––––––––

Number of tracks: 5
Official DR value: DR11

Samplerate: 44100 Hz
Channels: 2
Bits per sample: 16
Bitrate: 809 kbps
Codec: FLAC
================================================================================




Stone The Crows - Studio Albums (1969-1972) 4CD [1996-1997 Repertoire Reissue]

Stone The Crows - Ode To John Law (1970) Reissue 1996
EAC | FLAC | Image (Cue&Log) ~ 287 Mb | Mp3 (CBR320) ~ 105 Mb | Scans ~ 85 Mb
Label: Repertoire | # REP 4624-WY | Time: 00:45:54

In a way, you have to feel sorry for Stone the Crows. All the elements were there for them to have been one of the major bands, up there with Zeppelin – they even had the same management. But even on this, their second and best album, they could never quite put everything together. Live, they were an incendiary act, with singer Maggie Bell and guitarist Les Harvey true stars. Somehow, though, once they entered a recording studio, the magic seemed to come off with the overcoats. That's not to say this isn't a good album. "Sad Mary," "Friend," and "Love 74" are all showcases for Harvey's excellent guitar skills, while "Things Are Getting Better" and a cover of Curtis Mayfield's "Danger Zone" let Maggie Bell shine in her best Janis Joplin style (although it's a shame bassist Jim Dewar has his considerable vocal talents muffled). The good time, neo folk-rock of "Mad Dogs And Englishmen" offers some light relief. The biggest problem, really, was the songs – the original material simply wasn't strong enough to establish them as anything more than a cult act working the British college circuit. A hit single, or even a huge album track, would have lifted them out of the more. On this disc, "Love 74" was as close as they came, but instrumentals in 7/4 time were never usually commercial blockbusters. The reissue on Repertoire appends the shorter single version of "Things Are Getting Better."

Review by Chris Nickson, Allmusic.com

Tracklist:

01. Sad Mary (06:53)
02. Friend (06:28)
03. Love (06:35)
04. Mad Dog And Englishman (03:34)
05. Things Are Getting Better (06:10)
06. Ode To John Law (05:47)
07. Danger Zone (06:21)
Bonus track:
08. Things Are Getting Better - Single Version (04:04)


Exact Audio Copy V0.99 prebeta 4 from 23. January 2008

Отчёт EAC об извлечении, выполненном 23. апреля 2008, 22:15

Stone The Crows / Ode To John Law

Дисковод: _NEC DVD_RW ND-3520A Adapter: 1 ID: 1

Режим чтения : Достоверность
Использование точного потока : Да
Отключение кэша аудио : Да
Использование указателей C2 : Нет

Коррекция смещения при чтении : 48
Способность читать области Lead-in и Lead-out : Нет
Заполнение пропущенных сэмплов тишиной : Да
Удаление блоков с тишиной в начале и конце : Нет
При вычислениях CRC использовались нулевые сэмплы : Да
Интерфейс : Установленный внешний ASPI-интерфейс

Выходной формат : Внутренние WAV-операции
Формат сэмплов : 44.100 Гц; 16 бит; стерео


TOC извлечённого CD

Трек | Старт | Длительность | Начальный сектор | Конечный сектор
––––––––––––––––––––––––––––––––––-
1 | 0:00.00 | 6:53.62 | 0 | 31036
2 | 6:53.62 | 6:28.10 | 31037 | 60146
3 | 13:21.72 | 6:35.45 | 60147 | 89816
4 | 19:57.42 | 3:34.35 | 89817 | 105901
5 | 23:32.02 | 6:10.28 | 105902 | 133679
6 | 29:42.30 | 5:47.02 | 133680 | 159706
7 | 35:29.32 | 6:21.30 | 159707 | 188311
8 | 41:50.62 | 4:04.13 | 188312 | 206624


Характеристики диапазона извлечения и сообщения об ошибках

Выбранный диапазон

Имя файла D:\_1\Stone The Crows\Stone The Crows - Ode To John Law.wav

Пиковый уровень 98.4 %
Качество диапазона 99.9 %
CRC копии A08018AB
Копирование… OK

Ошибок не произошло

Конец отчёта

[CUETools log; Date: 06.10.2016 21:26:58; Version: 2.1.4]
[CTDB TOCID: NdrgxFD15uLh6T4Nz.a_ODRpgjo-] found.
Track | CTDB Status
1 | (20/21) Accurately ripped
2 | (20/21) Accurately ripped
3 | (19/21) Accurately ripped
4 | (20/21) Accurately ripped
5 | (19/21) Accurately ripped
6 | (20/21) Accurately ripped
7 | (19/21) Accurately ripped
8 | (20/21) Accurately ripped
[AccurateRip ID: 000ee17b-0061ec24-5a0ac308] found.
Track [ CRC | V2 ] Status
01 [59c7900d|444f13cf] (04+13/22) Accurately ripped
02 [6b76c8d0|8a36280d] (04+14/23) Accurately ripped
03 [39dfc03a|7ccc82be] (04+14/23) Accurately ripped
04 [8741a9e8|9ef38f8e] (04+14/23) Accurately ripped
05 [a6ca3ef0|fc2dec5a] (04+12/21) Accurately ripped
06 [613e96bf|74beaa01] (04+12/21) Accurately ripped
07 [3e60829c|3d3f9eb3] (04+14/23) Accurately ripped
08 [7d070b24|1c079822] (03+14/22) Accurately ripped
Offsetted by -29:
01 [50de549d] (03/22) Accurately ripped
02 [2a66a5f1] (03/23) Accurately ripped
03 [642b5482] (03/23) Accurately ripped
04 [bf69a51a] (03/23) Accurately ripped
05 [9aa39467] (03/21) Accurately ripped
06 [8be46bd1] (03/21) Accurately ripped
07 [bd3e943e] (03/23) Accurately ripped
08 [2ca5f4ab] (03/22) Accurately ripped

Track Peak [ CRC32 ] [W/O NULL] [ LOG ]
– 98,4 [A08018AB] [0FD26962] CRC32
01 98,4 [62F45B2A] [A08BAA25]
02 98,4 [3B202483] [0AC57670]
03 98,4 [3F67E35E] [A1A52609]
04 98,4 [D435F6F3] [12C8D5EF]
05 98,4 [CA0FEC1F] [B9553C70]
06 98,4 [E69E78F7] [D04826A7]
07 98,4 [9E864C80] [13FCF21B]
08 98,4 [5700343C] [77AEAE29]

foobar2000 1.2 / Dynamic Range Meter 1.1.1
log date: 2016-10-06 21:29:31

––––––––––––––––––––––––––––––––––––––––
Analyzed: Stone The Crows / Ode To John Law
––––––––––––––––––––––––––––––––––––––––

DR Peak RMS Duration Track
––––––––––––––––––––––––––––––––––––––––
DR11 -0.14 dB -12.35 dB 6:54 01-Sad Mary
DR11 -0.14 dB -13.79 dB 6:28 02-Friend
DR11 -0.14 dB -12.36 dB 6:36 03-Love
DR11 -0.14 dB -12.36 dB 3:34 04-Mad Dog And Englishman
DR12 -0.14 dB -14.49 dB 6:10 05-Things Are Getting Better
DR11 -0.14 dB -13.48 dB 5:47 06-Ode To John Law
DR12 -0.14 dB -14.56 dB 6:21 07-Danger Zone
DR11 -0.14 dB -12.33 dB 4:04 08-Things Are Getting Better - Single Version
––––––––––––––––––––––––––––––––––––––––

Number of tracks: 8
Official DR value: DR11

Samplerate: 44100 Hz
Channels: 2
Bits per sample: 16
Bitrate: 874 kbps
Codec: FLAC
================================================================================




Stone The Crows - Studio Albums (1969-1972) 4CD [1996-1997 Repertoire Reissue]

Stone The Crows - Teenage Licks (1971) Reissue 1996
EAC | FLAC | Image (Cue&Log) ~ 244 Mb | Mp3 (CBR320) ~ 89 Mb | Scans ~ 155 Mb
Label: Repertoire | # REP 4625-WY | Time: 00:38:47

This third album from Scotland's Stone the Crows was as close to hitting on all cylinders as they ever came in the studio. With some personnel changes following Ode to John Law (a new bassist and keyboard player), they powered through the disc, with "Big Jim Salter," "I May Be Right I May Be Wrong," and their version of Dylan's "Don't Think Twice" being the absolute standouts. The figureheads of vocalist Maggie Bell and guitarist Les Harvey had never sounded better as they worked in a pure rock vein, abandoning the blues aspect of their sound (Indeed, "Aileen Mochree" took them into Gaelic, a pleasant, brief side track) – check "Mr. Wizard" to get a good picture of where they were really headed. Of course, it wasn't a one-dimensional sound; the keyboard-dominated "Seven Lakes" was full of pseudo-classical portentousness, almost de rigeur for the period. But it was when they rocked that Stone the Crows were at their best, and with this album they seemed truly poised to move up to the big time.

Review by Chris Nickson, Allmusic.com

Tracklist:

01. Big Jim Salter (04:38)
02. Faces (04:41)
03. Mr Wizard (05:30)
04. Don't Think Twice (05:04)
05. 'Keep On Rollin' (03:53)
06. Ailen Mochree (00:24)
07. One Five Eight (06:27)
08. I May Be Right I May Be Wrong (05:04)
09. Seven Lakes (03:03)


Exact Audio Copy V0.99 prebeta 4 from 23. January 2008

Отчёт EAC об извлечении, выполненном 23. апреля 2008, 22:29

Stone The Crows / Teenage Licks

Дисковод: _NEC DVD_RW ND-3520A Adapter: 1 ID: 1

Режим чтения : Достоверность
Использование точного потока : Да
Отключение кэша аудио : Да
Использование указателей C2 : Нет

Коррекция смещения при чтении : 48
Способность читать области Lead-in и Lead-out : Нет
Заполнение пропущенных сэмплов тишиной : Да
Удаление блоков с тишиной в начале и конце : Нет
При вычислениях CRC использовались нулевые сэмплы : Да
Интерфейс : Установленный внешний ASPI-интерфейс

Выходной формат : Внутренние WAV-операции
Формат сэмплов : 44.100 Гц; 16 бит; стерео


TOC извлечённого CD

Трек | Старт | Длительность | Начальный сектор | Конечный сектор
––––––––––––––––––––––––––––––––––-
1 | 0:00.00 | 4:38.20 | 0 | 20869
2 | 4:38.20 | 4:41.12 | 20870 | 41956
3 | 9:19.32 | 5:30.53 | 41957 | 66759
4 | 14:50.10 | 5:04.07 | 66760 | 89566
5 | 19:54.17 | 3:53.13 | 89567 | 107054
6 | 23:47.30 | 0:24.57 | 107055 | 108911
7 | 24:12.12 | 6:27.38 | 108912 | 137974
8 | 30:39.50 | 5:04.52 | 137975 | 160826
9 | 35:44.27 | 3:03.48 | 160827 | 174599


Характеристики диапазона извлечения и сообщения об ошибках

Выбранный диапазон

Имя файла D:\_1\Stone The Crows\Stone The Crows - Teenage Licks.wav

Пиковый уровень 98.4 %
Качество диапазона 100.0 %
CRC копии F5297862
Копирование… OK

Ошибок не произошло

Конец отчёта

[CUETools log; Date: 06.10.2016 21:27:29; Version: 2.1.4]
[CTDB TOCID: SOhEe0a4PyivpOJDs3TasAmeVcU-] found.
Track | CTDB Status
1 | (19/19) Accurately ripped
2 | (19/19) Accurately ripped
3 | (19/19) Accurately ripped
4 | (19/19) Accurately ripped
5 | (19/19) Accurately ripped
6 | (19/19) Accurately ripped
7 | (19/19) Accurately ripped
8 | (19/19) Accurately ripped
9 | (19/19) Accurately ripped
[AccurateRip ID: 000ddceb-0064787c-75091809] found.
Track [ CRC | V2 ] Status
01 [58d13074|589825dc] (05+08/25) Accurately ripped
02 [d615b425|d5a9f863] (06+08/26) Accurately ripped
03 [0622cf04|12fd41a7] (05+08/25) Accurately ripped
04 [20bf2469|15b31f73] (06+08/26) Accurately ripped
05 [bb6593cc|a0e69497] (05+08/25) Accurately ripped
06 [573f2714|6fa218b6] (05+08/25) Accurately ripped
07 [0d68530a|9703d044] (06+08/26) Accurately ripped
08 [fa1b0dfb|023847dd] (05+08/25) Accurately ripped
09 [af499ecc|c24fe069] (06+08/26) Accurately ripped
Offsetted by -29:
01 [f205a22d] (07/25) Accurately ripped
02 [1971e3bd] (07/26) Accurately ripped
03 [5b3c5e64] (07/25) Accurately ripped
04 [ccb2d31b] (07/26) Accurately ripped
05 [bd427c12] (07/25) Accurately ripped
06 [61aff380] (07/25) Accurately ripped
07 [6f9ee4f2] (07/26) Accurately ripped
08 [57b47bab] (07/25) Accurately ripped
09 [254af9eb] (07/26) Accurately ripped

Track Peak [ CRC32 ] [W/O NULL] [ LOG ]
– 98,4 [F5297862] [D6D89D6A] CRC32
01 98,4 [647736DB] [70B20750]
02 98,4 [0F7F2F88] [59808D29]
03 98,4 [1E656FAB] [5A8AA161]
04 97,8 [DCEE746A] [ADFC897E]
05 91,6 [6DB27B41] [CBAF6FEF]
06 72,9 [2285015F] [2806DD20]
07 98,4 [4E27C392] [691E01ED]
08 98,4 [4F9317C3] [A179554B]
09 98,4 [E97ABF47] [3317F9EE]

foobar2000 1.2 / Dynamic Range Meter 1.1.1
log date: 2016-10-06 21:30:15

––––––––––––––––––––––––––––––––––––––––
Analyzed: Stone The Crows / Teenage Licks
––––––––––––––––––––––––––––––––––––––––

DR Peak RMS Duration Track
––––––––––––––––––––––––––––––––––––––––
DR9 -0.14 dB -10.46 dB 4:38 01-Big Jim Salter
DR11 -0.14 dB -12.71 dB 4:41 02-Faces
DR10 -0.14 dB -13.67 dB 5:31 03-Mr Wizard
DR11 -0.18 dB -14.94 dB 5:04 04-Don't Think Twice
DR9 -0.76 dB -11.41 dB 3:53 05-'Keep On Rollin'
DR9 -2.74 dB -15.99 dB 0:25 06-Ailen Mochree
DR10 -0.14 dB -12.05 dB 6:28 07-One Five Eight
DR11 -0.14 dB -12.68 dB 5:05 08-I May Be Right I May Be Wrong
DR10 -0.14 dB -11.99 dB 3:04 09-Seven Lakes
––––––––––––––––––––––––––––––––––––––––

Number of tracks: 9
Official DR value: DR10

Samplerate: 44100 Hz
Channels: 2
Bits per sample: 16
Bitrate: 880 kbps
Codec: FLAC
================================================================================




Stone The Crows - Studio Albums (1969-1972) 4CD [1996-1997 Repertoire Reissue]

Stone The Crows - Ontinuous Performance (1972) Reissue 1997
EAC | FLAC | Image (Cue&Log) ~ 240 Mb | Mp3 (CBR320) ~ 90 Mb | Scans ~ 87 Mb
Label: Repertoire | # REP 4627-WY | Time: 00:39:28

Much of Ontinuous Performance (and no, there's no C in there) was already in the can when guitarist Les Harvey was tragically electrocuted onstage on May 3, 1972. The band brought in young guitar wiz Jimmy McCullough (ex-Thunderclap Newman) to take his place, but really, in a band like this, no one could have filled his shoes – a listen to Harvey's guitar work on the instrumental "King Tut" shows how far he'd come, and how integral his particular style of playing was to the band's sound. Ironically, out of tragedy came a brief moment of success, as "Good Time Girl," released as a single (and, except for gender, it was a perfect Rod Stewart song) hit #12 on the U.K. singles chart. But there was also a return to their blues roots with the acoustic "Penicillin Blues," while "One More Chance" offered Maggie Bell an opportunity to show her soulful vocal chops. However, they blew it during the nine minutes of "Niagara," a piece that, it sounded, was never finished before release. It was would have impossible for the band to let go of Harvey without a song, and it comes at the end of the disc, the ballad "Sunset Cowboy," which is touching and heartfelt. After this disc the disheartened band broke up.

Review by Chris Nickson, Allmusic.com

Tracklist:

01. On The Highway (05:36)
02. One More Chance (06:13)
03. Penicillin Blues (05:34)
04. King Tut (02:40)
05. Good Time Girl (03:28)
06. Niagara (09:15)
07. Sunset Cowboy (06:41)


Exact Audio Copy V0.99 prebeta 4 from 23. January 2008

Отчёт EAC об извлечении, выполненном 23. апреля 2008, 22:42

Stone The Crows / Ontinuous Performance

Дисковод: _NEC DVD_RW ND-3520A Adapter: 1 ID: 1

Режим чтения : Достоверность
Использование точного потока : Да
Отключение кэша аудио : Да
Использование указателей C2 : Нет

Коррекция смещения при чтении : 48
Способность читать области Lead-in и Lead-out : Нет
Заполнение пропущенных сэмплов тишиной : Да
Удаление блоков с тишиной в начале и конце : Нет
При вычислениях CRC использовались нулевые сэмплы : Да
Интерфейс : Установленный внешний ASPI-интерфейс

Выходной формат : Внутренние WAV-операции
Формат сэмплов : 44.100 Гц; 16 бит; стерео


TOC извлечённого CD

Трек | Старт | Длительность | Начальный сектор | Конечный сектор
––––––––––––––––––––––––––––––––––-
1 | 0:00.00 | 5:36.10 | 0 | 25209
2 | 5:36.10 | 6:13.10 | 25210 | 53194
3 | 11:49.20 | 5:34.05 | 53195 | 78249
4 | 17:23.25 | 2:40.12 | 78250 | 90261
5 | 20:03.37 | 3:28.10 | 90262 | 105871
6 | 23:31.47 | 9:15.35 | 105872 | 147531
7 | 32:47.07 | 6:41.68 | 147532 | 177674


Характеристики диапазона извлечения и сообщения об ошибках

Выбранный диапазон

Имя файла D:\_1\Stone The Crows\Stone The Crows - Ontinuous Performance.wav

Пиковый уровень 98.4 %
Качество диапазона 100.0 %
CRC копии 53B0B54E
Копирование… OK

Ошибок не произошло

Конец отчёта

[CUETools log; Date: 06.10.2016 21:27:09; Version: 2.1.4]
[CTDB TOCID: QxHfJhaL14bZ1fU9raFoZJXgPbE-] found.
Track | CTDB Status
1 | (13/13) Accurately ripped
2 | (13/13) Accurately ripped
3 | (13/13) Accurately ripped
4 | (13/13) Accurately ripped
5 | (13/13) Accurately ripped
6 | (13/13) Accurately ripped
7 | (13/13) Accurately ripped
[AccurateRip ID: 000a586c-003e01b8-4d094107] found.
Track [ CRC | V2 ] Status
01 [e9698872|1f1f2167] (11+06/20) Accurately ripped
02 [24a6c77c|5c3207b8] (10+06/19) Accurately ripped
03 [6f498844|dcb0a502] (10+06/19) Accurately ripped
04 [240e49c1|ea458611] (10+06/19) Accurately ripped
05 [8cebef06|406e34fa] (10+06/19) Accurately ripped
06 [9471a950|f8359b25] (10+06/19) Accurately ripped
07 [df811a8e|785225c1] (10+06/19) Accurately ripped
Offsetted by -659:
01 [0fc1f8f7] (03/20) Accurately ripped
02 [38f24e28] (03/19) Accurately ripped
03 [88f324e2] (03/19) Accurately ripped
04 [940ec33e] (03/19) Accurately ripped
05 [9f19056b] (03/19) Accurately ripped
06 [947c856a] (03/19) Accurately ripped
07 [d310c49c] (03/19) Accurately ripped

Track Peak [ CRC32 ] [W/O NULL] [ LOG ]
– 98,4 [53B0B54E] [15C6CCD7] CRC32
01 98,4 [2144F4F3] [F024A1C6]
02 98,4 [897FA08E] [835988F0]
03 86,0 [C05FE72D] [DAAC7497]
04 66,4 [1E86A5BF] [7A332550]
05 98,4 [CD8F9DE1] [EFFF396A]
06 98,4 [765B9CDB] [831839B9]
07 98,4 [14605B7C] [E7782AA9]

foobar2000 1.2 / Dynamic Range Meter 1.1.1
log date: 2016-10-06 21:29:46

––––––––––––––––––––––––––––––––––––––––
Analyzed: Stone The Crows / Ontinuous Performance
––––––––––––––––––––––––––––––––––––––––

DR Peak RMS Duration Track
––––––––––––––––––––––––––––––––––––––––
DR10 -0.14 dB -11.29 dB 5:36 01-On The Highway
DR11 -0.14 dB -12.69 dB 6:13 02-One More Chance
DR10 -1.31 dB -13.70 dB 5:34 03-Penicillin Blues
DR10 -3.55 dB -16.58 dB 2:40 04-King Tut
DR11 -0.14 dB -12.33 dB 3:28 05-Good Time Girl
DR11 -0.14 dB -12.76 dB 9:15 06-Niagara
DR11 -0.14 dB -16.57 dB 6:42 07-Sunset Cowboy
––––––––––––––––––––––––––––––––––––––––

Number of tracks: 7
Official DR value: DR10

Samplerate: 44100 Hz
Channels: 2
Bits per sample: 16
Bitrate: 850 kbps
Codec: FLAC
================================================================================




All thanks to original releaser

More interesting music in My Blog