Tags
Language
Tags
April 2024
Su Mo Tu We Th Fr Sa
31 1 2 3 4 5 6
7 8 9 10 11 12 13
14 15 16 17 18 19 20
21 22 23 24 25 26 27
28 29 30 1 2 3 4

Sue Foley - New Used Car (2006)

Posted By: Designol
Sue Foley - New Used Car (2006)

Sue Foley - New Used Car (2006)
EAC | FLAC | Image (Cue&Log) ~ 288 Mb | Mp3 (CBR320) ~ 107 Mb | Scans included
Contemporary Blues, Roots Rock | Label: Ruf | # RUF 1116 | Time: 00:45:04

Sue Foley pretty much sticks to her guns on New Used Car – her tenth album and second for Germany's Ruf Records – resisting the urge to go pure pop and turning out instead another set of blues-inflected roots rock originals that prominently feature her laser-guided electric guitar leads. This is certainly good news, and things get off to a great start with the spunky opener and title tune "New Used Car," which cooks along on Foley's guitar and sharp lyrics that are fully aware that a car is just a metaphor for getting where you want to go and that the back seat is full of all the baggage a life brings. Unfortunately the opening momentum drops off quickly here, and the thinness of Foley's voice becomes obvious on much of what follows, which wouldn't really be a problem if the songs, all but one of which are Foley originals, were just a little bit better. "Sugar" has a nice, saucy feel, and the closing track, the closest thing to a straight blues on New Used Car, "Change Your Mind," is impressive, even if it is essentially a rewrite of the old folk-blues nugget "Baby Let Me Follow You Down." The one song Foley didn't have a hand in writing here, Terry Gillespie's "When I Come Back to Ya," is also arresting, and Foley's just-slightly-shaky vocal adds real dimension to the song. Elsewhere, though, the songs feel not quite whole, and although Foley's guitar playing is everywhere excellent and features her trademark biting tone, she just isn't a strong enough singer to carry weaker material. Don't count her out, though. Foley has a real vulnerability in her voice that she spends most of her time writing away from, and when she figures out how to write toward it, the real strength of this remarkable musician should emerge. Lord knows she can play guitar with the best of them. She just needs to figure out how to write the songs that only she could have written. Here's betting that she'll get there soon.

Review by Steve Leggett, Allmusic.com

Sue Foley at Allmusic
Sue Foley at Wiki

Tracklist:

01. New Used Car (4:06)
02. Make It Real (3:40)
03. When I Come Back To Ya (4:27)
04. Absolution (6:12)
05. Sugar (3:12)
06. Do It Again (3:10)
07. Mother (3:37)
08. Long Tomorrow (3:18)
09. Little Things (4:04)
10. Found My Love (3:01)
11. Deep Freeze (3:16)
12. Change Your Mind (3:03)


Exact Audio Copy V1.0 beta 3 from 29. August 2011

EAC extraction logfile from 3. August 2013, 21:36

Sue Foley / New Used Car

Used drive : Optiarc DVD RW AD-7240S Adapter: 1 ID: 1

Read mode : Secure
Utilize accurate stream : Yes
Defeat audio cache : Yes
Make use of C2 pointers : No

Read offset correction : 48
Overread into Lead-In and Lead-Out : No
Fill up missing offset samples with silence : Yes
Delete leading and trailing silent blocks : No
Null samples used in CRC calculations : Yes
Used interface : Native Win32 interface for Win NT & 2000

Used output format : User Defined Encoder
Selected bitrate : 896 kBit/s
Quality : High
Add ID3 tag : No
Command line compressor : C:\Program Files\Exact Audio Copy\FLAC\FLAC.EXE
Additional command line options : -V -8 -T "Date=%year%" -T "Genre=%genre%" %source%


TOC of the extracted CD

Track | Start | Length | Start sector | End sector
––––––––––––––––––––––––––––-
1 | 0:00.00 | 4:05.57 | 0 | 18431
2 | 4:05.57 | 3:40.00 | 18432 | 34931
3 | 7:45.57 | 4:26.51 | 34932 | 54932
4 | 12:12.33 | 6:12.22 | 54933 | 82854
5 | 18:24.55 | 3:11.53 | 82855 | 97232
6 | 21:36.33 | 3:09.68 | 97233 | 111475
7 | 24:46.26 | 3:36.68 | 111476 | 127743
8 | 28:23.19 | 3:18.06 | 127744 | 142599
9 | 31:41.25 | 4:03.42 | 142600 | 160866
10 | 35:44.67 | 3:00.39 | 160867 | 174405
11 | 38:45.31 | 3:16.07 | 174406 | 189112
12 | 42:01.38 | 3:02.64 | 189113 | 202826


Range status and errors

Selected range

Filename D:\My Docs 2\My Music 2\Sue Foley - New Used Car\Sue Foley - New Used Car.wav

Peak level 98.8 %
Extraction speed 3.7 X
Range quality 100.0 %
Test CRC B4AB8E26
Copy CRC B4AB8E26
Copy OK

No errors occurred


AccurateRip summary

Track 1 accurately ripped (confidence 7) [7107A172] (AR v2)
Track 2 accurately ripped (confidence 7) [0F9BDE69] (AR v2)
Track 3 accurately ripped (confidence 7) [BD5C7EB0] (AR v2)
Track 4 accurately ripped (confidence 7) [70C07526] (AR v2)
Track 5 accurately ripped (confidence 7) [8A66633E] (AR v2)
Track 6 accurately ripped (confidence 7) [99E256F5] (AR v2)
Track 7 accurately ripped (confidence 7) [C53DF72F] (AR v2)
Track 8 accurately ripped (confidence 7) [E8B92FB9] (AR v2)
Track 9 accurately ripped (confidence 7) [CC8145B7] (AR v2)
Track 10 accurately ripped (confidence 7) [957B14EC] (AR v2)
Track 11 accurately ripped (confidence 7) [1E84F07E] (AR v2)
Track 12 accurately ripped (confidence 7) [8304DCC3] (AR v2)

All tracks accurately ripped

End of status report

==== Log checksum 3D7C83D4F6F0A35E859C6BD7646E84CBEE69EF68FBF4E8EB5AAC1173DFC1A67F ====

foobar2000 1.2 / Dynamic Range Meter 1.1.1
log date: 2019-10-11 16:05:24

––––––––––––––––––––––––––––––––––––––––
Analyzed: Sue Foley / New Used Car
––––––––––––––––––––––––––––––––––––––––

DR Peak RMS Duration Track
––––––––––––––––––––––––––––––––––––––––
DR8 -0.10 dB -9.88 dB 4:06 01-New Used Car
DR8 -0.10 dB -9.49 dB 3:40 02-Make It Real
DR10 -0.10 dB -12.00 dB 4:27 03-When I Come Back To Ya
DR8 -0.10 dB -10.54 dB 6:12 04-Absolution
DR9 -0.10 dB -11.32 dB 3:12 05-Sugar
DR10 -0.10 dB -11.92 dB 3:10 06-Do It Again
DR8 -0.10 dB -10.06 dB 3:37 07-Mother
DR12 -0.10 dB -15.27 dB 3:18 08-Long Tomorrow
DR9 -0.10 dB -10.35 dB 4:04 09-Little Things
DR9 -0.10 dB -10.45 dB 3:01 10-Found My Love
DR8 -0.10 dB -9.25 dB 3:16 11-Deep Freeze
DR10 -0.10 dB -11.67 dB 3:03 12-Change Your Mind
––––––––––––––––––––––––––––––––––––––––

Number of tracks: 12
Official DR value: DR9

Samplerate: 44100 Hz
Channels: 2
Bits per sample: 16
Bitrate: 881 kbps
Codec: FLAC
================================================================================

Sue Foley - New Used Car (2006)

Sue Foley - New Used Car (2006)

All thanks to original releaser - funny_horse

More interesting music in My Blog