Subcategories

Sung-Soo Cho - Maximum, Minimum, Modern: Piano Music by American Composers (2016) [Re-Up]

Posted By: Designol
Sung-Soo Cho - Maximum, Minimum, Modern: Piano Music by American Composers (2016) [Re-Up]

Sung-Soo Cho - Maximum | Minimum | Modern: Piano Music by American Composers (2016)
John Adams, Steve Reich, Elliott Carter, David Rakowski, John Corigliano, Michael Ippolito

EAC | FLAC | Image (Cue&Log) ~ 230 Mb | Mp3 (CBR320) ~ 154 Mb | Scans included
Contemporary Classical, 20th Century, Minimalism | Label: Albany | # TROY1617 | 01:00:02

Korean pianist Sung-Soo Cho performs an intriguing recital of compositions by American composers that range from works with very progressive musical language to ones that integrate influences of folk and honky-tonk – in other words, the full spectrum of modern American classical music. The oldest work on the program was written in 1967 and the most recent in 2015. John Corigliano, Michael Ippolito, John Adams, Lowell Liebermann, Steve Reich, Elliott Carter, and David Rakowski are all represented on this recording. These composers have a strong advocate in Sung-Soo Cho, who was awarded "Best American Contemporary Performance: at the Cincinnati World Piano Competition and "Best Performance of the Commissioned Work: at the Texas State International Piano Competition. An award winner of numerous international competitions, Cho has appeared as a soloist in Asia, the U.S., and Europe. A graduate of Seoul National University and Manhattan School of Music, he is currently pursuing his D.M.A. degree at the Cleveland Institute of Music. He is on the faculty at Notre Dame College.

Sung-Soo Cho - Maximum, Minimum, Modern: Piano Music by American Composers (2016) [Re-Up]



Tracklist:

01. John Corigliano - Fantasia on an Ostinato (11:50)
02. Michael Ippolito - The Distance of the Moon (06:54)
03. John Adams - China Gates (04:55)
04. Lowell Liebermann - Nocturne No.7, Op.65 (07:30)
05. Steve Reich - Piano Phase (19:25)
06. Elliott Carter - Catenaires (03:39)
07. David Rakowski - Etude No.21 Twelve-Step Program (03:49)
08. David Rakowski - Etude No.30 A Gliss is Just a Gliss (01:56)


Exact Audio Copy V1.0 beta 4 from 7. December 2014

EAC extraction logfile from 27. April 2016, 0:09

Sung-Soo Cho / Maximum | Minimum | Modern

Used drive : TSSTcorpDVDWBD TS-LB23A Adapter: 1 ID: 0

Read mode : Secure
Utilize accurate stream : Yes
Defeat audio cache : Yes
Make use of C2 pointers : No

Read offset correction : 6
Overread into Lead-In and Lead-Out : No
Fill up missing offset samples with silence : Yes
Delete leading and trailing silent blocks : No
Null samples used in CRC calculations : Yes
Used interface : Native Win32 interface for Win NT & 2000

Used output format : User Defined Encoder
Selected bitrate : 128 kBit/s
Quality : High
Add ID3 tag : Yes
Command line compressor : C:\Program Files (x86)\Exact Audio Copy\Flac\flac.exe
Additional command line options : -T "COMMENT=Ripped by GFox" -V -8 %source%


TOC of the extracted CD

Track | Start | Length | Start sector | End sector
––––––––––––––––––––––––––––-
1 | 0:00.00 | 11:50.56 | 0 | 53305
2 | 11:50.56 | 6:54.67 | 53306 | 84422
3 | 18:45.48 | 4:55.14 | 84423 | 106561
4 | 23:40.62 | 7:30.44 | 106562 | 140355
5 | 31:11.31 | 19:25.16 | 140356 | 227746
6 | 50:36.47 | 3:39.04 | 227747 | 244175
7 | 54:15.51 | 3:49.59 | 244176 | 261409
8 | 58:05.35 | 1:56.51 | 261410 | 270160


Range status and errors

Selected range

Filename D:\Downloads\Sung-Soo Cho - Maximum ! Minimum ! Modern.wav

Peak level 100.0 %
Extraction speed 1.7 X
Range quality 100.0 %
Test CRC EFE81F80
Copy CRC EFE81F80
Copy OK

No errors occurred


AccurateRip summary

Track 1 not present in database
Track 2 not present in database
Track 3 not present in database
Track 4 not present in database
Track 5 not present in database
Track 6 not present in database
Track 7 not present in database
Track 8 not present in database

None of the tracks are present in the AccurateRip database

End of status report

==== Log checksum B3CD7BDA12CFF774D02A573E7EFD2287118EE61F591276975989E946BE032738 ====

foobar2000 1.2 / Dynamic Range Meter 1.1.1
log date: 2016-05-02 14:38:16

––––––––––––––––––––––––––––––––––––––––
Analyzed: Sung-Soo Cho / Maximum | Minimum | Modern
––––––––––––––––––––––––––––––––––––––––

DR Peak RMS Duration Track
––––––––––––––––––––––––––––––––––––––––
DR16 0.00 dB -23.10 dB 11:51 01-John Corigliano - Fantasia on an Ostinato
DR16 -0.17 dB -24.43 dB 6:55 02-Michael Ippolito - The Distance of the Moon
DR12 -5.44 dB -22.43 dB 4:55 03-John Adams - China Gates
DR16 -0.14 dB -22.97 dB 7:31 04-Lowell Liebermann - Nocturne No.7, Op.65
DR11 -4.26 dB -17.36 dB 19:25 05-Steve Reich - Piano Phase
DR14 -0.14 dB -19.24 dB 3:39 06-Elliott Carter - Catenaires
DR14 -0.05 dB -20.16 dB 3:50 07-David Rakowski - Etude No.21 Twelve-Step Program
DR12 -0.01 dB -16.73 dB 1:57 08-David Rakowski - Etude No.30 A Gliss is Just a Gliss
––––––––––––––––––––––––––––––––––––––––

Number of tracks: 8
Official DR value: DR14

Samplerate: 44100 Hz
Channels: 2
Bits per sample: 16
Bitrate: 497 kbps
Codec: FLAC
================================================================================

Sung-Soo Cho - Maximum, Minimum, Modern: Piano Music by American Composers (2016) [Re-Up]

All thanks to original releaser - GFox

More interesting music in My Blog