Tags
Language
Tags

Super Furry Animals - Rings Around the World (20th Anniversary Edition) (2021) [Deluxe Edition]

Posted By: JET 1
Super Furry Animals - Rings Around the World (20th Anniversary Edition) (2021) [Deluxe Edition]

Super Furry Animals - Rings Around the World (20th Anniversary Edition) (2021) [Deluxe Edition]
EAC Rip | FLAC (Tracks) +CUE, LOG | 1.43 GB
Genre: Britpop, Indie Rock | Label: BMG Records | Catalog Number: BMGCAT510DCD

The fifth studio album from Welsh quintet Super Furry Animals was their most commercially successful to date. A musically eclectic record, incorporating pop, prog, punk, jungle, electronica, techno and death metal, the album was shortlisted for the Mercury Music Prize in 2001 and named as Mojo's best album in the same year. Their major label debut album peaked at #3 on the UK album chart on release, supported by singles '(Running) Rings Around The World', 'It's Not The End of the World' and 'Juxtapozed With You'. Paul McCartney and John Cale make cameo appearances on the album too. This 20th anniversary reissued has been remastered from the original master tapes. The double-LP format is on heavyweight vinyl, while the 3CD set boasts 40 previously unreleased tracks including remixes, demos, other curios, as well as sleeve notes from Keith Cameron.

Exact Audio Copy V1.3 from 2. September 2016

EAC extraction logfile from 4. September 2021, 10:42

Super Furry Animals / Rings Around The World

Used drive : TSSTcorpCDDVDW SH-S223F Adapter: 1 ID: 0

Read mode : Secure
Utilize accurate stream : Yes
Defeat audio cache : Yes
Make use of C2 pointers : No

Read offset correction : 6
Overread into Lead-In and Lead-Out : No
Fill up missing offset samples with silence : Yes
Delete leading and trailing silent blocks : No
Null samples used in CRC calculations : Yes
Used interface : Native Win32 interface for Win NT & 2000
Gap handling : Appended to previous track

Used output format : User Defined Encoder
Selected bitrate : 1024 kBit/s
Quality : High
Add ID3 tag : No
Command line compressor : C:\Program Files (x86)\Exact Audio Copy\Flac\flac.exe
Additional command line options : -8 -V -T "ARTIST=%artist%" -T "TITLE=%title%" -T "ALBUM=%albumtitle%" -T "DATE=%year%" -T "TRACKNUMBER=%tracknr%" -T "GENRE=%genre%" -T "PERFORMER=%albuminterpret%" -T "COMPOSER=%composer%" %haslyrics%–tag-from-file=LYRICS="%lyricsfile%"%haslyrics% -T "ALBUMARTIST=%albumartist%" -T "DISCNUMBER=%cdnumber%" -T "TOTALDISCS=%totalcds%" -T "TOTALTRACKS=%numtracks%" -T "COMMENT=%comment%" %source% -o %dest%


TOC of the extracted CD

Track | Start | Length | Start sector | End sector
––––––––––––––––––––––––––––-
1 | 0:00.00 | 4:31.01 | 0 | 20325
2 | 4:31.01 | 4:00.42 | 20326 | 38367
3 | 8:31.43 | 3:29.38 | 38368 | 54080
4 | 12:01.06 | 3:25.39 | 54081 | 69494
5 | 15:26.45 | 4:32.51 | 69495 | 89945
6 | 19:59.21 | 3:07.41 | 89946 | 104011
7 | 23:06.62 | 3:37.49 | 104012 | 120335
8 | 26:44.36 | 0:40.51 | 120336 | 123386
9 | 27:25.12 | 6:57.38 | 123387 | 154699
10 | 34:22.50 | 3:10.08 | 154700 | 168957
11 | 37:32.58 | 5:22.63 | 168958 | 193170
12 | 42:55.46 | 7:20.27 | 193171 | 226197
13 | 50:15.73 | 3:52.23 | 226198 | 243620
14 | 54:08.21 | 5:34.37 | 243621 | 268707
15 | 59:42.58 | 6:01.53 | 268708 | 295835
16 | 65:44.36 | 3:17.49 | 295836 | 310659
17 | 69:02.10 | 4:05.33 | 310660 | 329067
18 | 73:07.43 | 3:22.21 | 329068 | 344238
19 | 76:29.64 | 2:31.60 | 344239 | 355623


Track 1

Filename C:\Users\Mike\Desktop\CD RIPS\Super Furry Animals - 2021 - Rings Around The World (3CD Deluxe 20th Anniversary Re-Issue)\CD1\01 - Alternate Route To Vulcan Street.wav

Pre-gap length 0:00:02.00

Peak level 96.8 %
Extraction speed 5.0 X
Track quality 100.0 %
Test CRC 6EDD712F
Copy CRC 6EDD712F
Track not present in AccurateRip database
Copy OK

Track 2

Filename C:\Users\Mike\Desktop\CD RIPS\Super Furry Animals - 2021 - Rings Around The World (3CD Deluxe 20th Anniversary Re-Issue)\CD1\02 - Sidewalk Serfer Girl.wav

Peak level 97.4 %
Extraction speed 5.3 X
Track quality 100.0 %
Test CRC 1F500863
Copy CRC 1F500863
Track not present in AccurateRip database
Copy OK

Track 3

Filename C:\Users\Mike\Desktop\CD RIPS\Super Furry Animals - 2021 - Rings Around The World (3CD Deluxe 20th Anniversary Re-Issue)\CD1\03 - (Drawing) Rings Around The World.wav

Peak level 96.8 %
Extraction speed 4.4 X
Track quality 99.9 %
Test CRC FB4128F2
Copy CRC FB4128F2
Track not present in AccurateRip database
Copy OK

Track 4

Filename C:\Users\Mike\Desktop\CD RIPS\Super Furry Animals - 2021 - Rings Around The World (3CD Deluxe 20th Anniversary Re-Issue)\CD1\04 - It's Not The End Of The World.wav

Peak level 97.5 %
Extraction speed 4.6 X
Track quality 99.9 %
Test CRC 348B0CC3
Copy CRC 348B0CC3
Track not present in AccurateRip database
Copy OK

Track 5

Filename C:\Users\Mike\Desktop\CD RIPS\Super Furry Animals - 2021 - Rings Around The World (3CD Deluxe 20th Anniversary Re-Issue)\CD1\05 - Receptacle For The Respectable.wav

Peak level 98.1 %
Extraction speed 6.4 X
Track quality 100.0 %
Test CRC 9B0A9080
Copy CRC 9B0A9080
Track not present in AccurateRip database
Copy OK

Track 6

Filename C:\Users\Mike\Desktop\CD RIPS\Super Furry Animals - 2021 - Rings Around The World (3CD Deluxe 20th Anniversary Re-Issue)\CD1\06 - (A) Touch Sensitive.wav

Peak level 97.2 %
Extraction speed 4.9 X
Track quality 99.9 %
Test CRC 1247906F
Copy CRC 1247906F
Track not present in AccurateRip database
Copy OK

Track 7

Filename C:\Users\Mike\Desktop\CD RIPS\Super Furry Animals - 2021 - Rings Around The World (3CD Deluxe 20th Anniversary Re-Issue)\CD1\07 - Shoot Doris Day.wav

Peak level 100.0 %
Extraction speed 6.8 X
Track quality 100.0 %
Test CRC EA5380E5
Copy CRC EA5380E5
Track not present in AccurateRip database
Copy OK

Track 8

Filename C:\Users\Mike\Desktop\CD RIPS\Super Furry Animals - 2021 - Rings Around The World (3CD Deluxe 20th Anniversary Re-Issue)\CD1\08 - Miniature.wav

Peak level 57.8 %
Extraction speed 4.1 X
Track quality 100.0 %
Test CRC 19BD19A8
Copy CRC 19BD19A8
Track not present in AccurateRip database
Copy OK

Track 9

Filename C:\Users\Mike\Desktop\CD RIPS\Super Furry Animals - 2021 - Rings Around The World (3CD Deluxe 20th Anniversary Re-Issue)\CD1\09 - No Sympathy.wav

Peak level 100.0 %
Extraction speed 7.8 X
Track quality 100.0 %
Test CRC A3948454
Copy CRC A3948454
Track not present in AccurateRip database
Copy OK

Track 10

Filename C:\Users\Mike\Desktop\CD RIPS\Super Furry Animals - 2021 - Rings Around The World (3CD Deluxe 20th Anniversary Re-Issue)\CD1\10 - Juxtapozed With U.wav

Peak level 97.5 %
Extraction speed 7.4 X
Track quality 100.0 %
Test CRC FB985E73
Copy CRC FB985E73
Track not present in AccurateRip database
Copy OK

Track 11

Filename C:\Users\Mike\Desktop\CD RIPS\Super Furry Animals - 2021 - Rings Around The World (3CD Deluxe 20th Anniversary Re-Issue)\CD1\11 - Presidential Suite.wav

Peak level 97.0 %
Extraction speed 8.1 X
Track quality 100.0 %
Test CRC 7500CE27
Copy CRC 7500CE27
Track not present in AccurateRip database
Copy OK

Track 12

Filename C:\Users\Mike\Desktop\CD RIPS\Super Furry Animals - 2021 - Rings Around The World (3CD Deluxe 20th Anniversary Re-Issue)\CD1\12 - Run! Christian, Run!.wav

Peak level 94.3 %
Extraction speed 8.8 X
Track quality 100.0 %
Test CRC 0C3BC0D2
Copy CRC 0C3BC0D2
Track not present in AccurateRip database
Copy OK

Track 13

Filename C:\Users\Mike\Desktop\CD RIPS\Super Furry Animals - 2021 - Rings Around The World (3CD Deluxe 20th Anniversary Re-Issue)\CD1\13 - Fragile Happiness.wav

Pre-gap length 0:00:02.65

Peak level 96.6 %
Extraction speed 8.6 X
Track quality 100.0 %
Test CRC 27206509
Copy CRC 27206509
Track not present in AccurateRip database
Copy OK

Track 14

Filename C:\Users\Mike\Desktop\CD RIPS\Super Furry Animals - 2021 - Rings Around The World (3CD Deluxe 20th Anniversary Re-Issue)\CD1\14 - Tradewinds.wav

Pre-gap length 0:01:18.29

Peak level 97.9 %
Extraction speed 9.2 X
Track quality 100.0 %
Test CRC 36696061
Copy CRC 36696061
Track not present in AccurateRip database
Copy OK

Track 15

Filename C:\Users\Mike\Desktop\CD RIPS\Super Furry Animals - 2021 - Rings Around The World (3CD Deluxe 20th Anniversary Re-Issue)\CD1\15 - The Roman Road.wav

Peak level 97.3 %
Extraction speed 9.6 X
Track quality 100.0 %
Test CRC 4CD98EDC
Copy CRC 4CD98EDC
Track not present in AccurateRip database
Copy OK

Track 16

Filename C:\Users\Mike\Desktop\CD RIPS\Super Furry Animals - 2021 - Rings Around The World (3CD Deluxe 20th Anniversary Re-Issue)\CD1\16 - Happiness Is A Worn Pun.wav

Peak level 96.6 %
Extraction speed 9.1 X
Track quality 100.0 %
Test CRC 0C9A711D
Copy CRC 0C9A711D
Track not present in AccurateRip database
Copy OK

Track 17

Filename C:\Users\Mike\Desktop\CD RIPS\Super Furry Animals - 2021 - Rings Around The World (3CD Deluxe 20th Anniversary Re-Issue)\CD1\17 - Patience.wav

Peak level 96.5 %
Extraction speed 9.6 X
Track quality 100.0 %
Test CRC 46A40375
Copy CRC 46A40375
Track not present in AccurateRip database
Copy OK

Track 18

Filename C:\Users\Mike\Desktop\CD RIPS\Super Furry Animals - 2021 - Rings Around The World (3CD Deluxe 20th Anniversary Re-Issue)\CD1\18 - Edam Anchorman.wav

Peak level 96.4 %
Extraction speed 9.3 X
Track quality 100.0 %
Test CRC 173CB59A
Copy CRC 173CB59A
Track not present in AccurateRip database
Copy OK

Track 19

Filename C:\Users\Mike\Desktop\CD RIPS\Super Furry Animals - 2021 - Rings Around The World (3CD Deluxe 20th Anniversary Re-Issue)\CD1\19 - All The Shit U Do.wav

Peak level 95.8 %
Extraction speed 9.1 X
Track quality 100.0 %
Test CRC ACF66AE6
Copy CRC ACF66AE6
Track not present in AccurateRip database
Copy OK


None of the tracks are present in the AccurateRip database

No errors occurred

End of status report

–– CUETools DB Plugin V2.1.6

[CTDB TOCID: i9J9i6JCdKlV1QkZjoHyI8sY0SA-] found
Submit result: already submitted
Track | CTDB Status
1 | (4/4) Accurately ripped
2 | (4/4) Accurately ripped
3 | (4/4) Accurately ripped
4 | (4/4) Accurately ripped
5 | (4/4) Accurately ripped
6 | (4/4) Accurately ripped
7 | (4/4) Accurately ripped
8 | (4/4) Accurately ripped
9 | (4/4) Accurately ripped
10 | (4/4) Accurately ripped
11 | (4/4) Accurately ripped
12 | (4/4) Accurately ripped
13 | (4/4) Accurately ripped
14 | (4/4) Accurately ripped
15 | (4/4) Accurately ripped
16 | (4/4) Accurately ripped
17 | (4/4) Accurately ripped
18 | (4/4) Accurately ripped
19 | (4/4) Accurately ripped


==== Log checksum D702714417A4F183A21331B7CA8DE8C987EFB229F4926E4D13411EEC728D6368 ====

Exact Audio Copy V1.3 from 2. September 2016

EAC extraction logfile from 4. September 2021, 11:47

Super Furry Animals / Rings Around The World

Used drive : TSSTcorpCDDVDW SH-S223F Adapter: 1 ID: 0

Read mode : Secure
Utilize accurate stream : Yes
Defeat audio cache : Yes
Make use of C2 pointers : No

Read offset correction : 6
Overread into Lead-In and Lead-Out : No
Fill up missing offset samples with silence : Yes
Delete leading and trailing silent blocks : No
Null samples used in CRC calculations : Yes
Used interface : Native Win32 interface for Win NT & 2000
Gap handling : Appended to previous track

Used output format : User Defined Encoder
Selected bitrate : 1024 kBit/s
Quality : High
Add ID3 tag : No
Command line compressor : C:\Program Files (x86)\Exact Audio Copy\Flac\flac.exe
Additional command line options : -8 -V -T "ARTIST=%artist%" -T "TITLE=%title%" -T "ALBUM=%albumtitle%" -T "DATE=%year%" -T "TRACKNUMBER=%tracknr%" -T "GENRE=%genre%" -T "PERFORMER=%albuminterpret%" -T "COMPOSER=%composer%" %haslyrics%–tag-from-file=LYRICS="%lyricsfile%"%haslyrics% -T "ALBUMARTIST=%albumartist%" -T "DISCNUMBER=%cdnumber%" -T "TOTALDISCS=%totalcds%" -T "TOTALTRACKS=%numtracks%" -T "COMMENT=%comment%" %source% -o %dest%


TOC of the extracted CD

Track | Start | Length | Start sector | End sector
––––––––––––––––––––––––––––-
1 | 0:00.00 | 3:40.57 | 0 | 16556
2 | 3:40.57 | 5:13.37 | 16557 | 40068
3 | 8:54.19 | 10:00.08 | 40069 | 85076
4 | 18:54.27 | 2:58.05 | 85077 | 98431
5 | 21:52.32 | 6:48.19 | 98432 | 129050
6 | 28:40.51 | 0:34.27 | 129051 | 131627
7 | 29:15.03 | 1:48.49 | 131628 | 139776
8 | 31:03.52 | 1:59.17 | 139777 | 148718
9 | 33:02.69 | 4:00.74 | 148719 | 166792
10 | 37:03.68 | 3:44.36 | 166793 | 183628
11 | 40:48.29 | 2:16.52 | 183629 | 193880
12 | 43:05.06 | 2:20.13 | 193881 | 204393
13 | 45:25.19 | 2:39.06 | 204394 | 216324
14 | 48:04.25 | 0:23.26 | 216325 | 218075
15 | 48:27.51 | 2:53.19 | 218076 | 231069
16 | 51:20.70 | 4:24.21 | 231070 | 250890
17 | 55:45.16 | 4:23.19 | 250891 | 270634
18 | 60:08.35 | 3:44.61 | 270635 | 287495
19 | 63:53.21 | 2:54.74 | 287496 | 300619
20 | 66:48.20 | 2:13.21 | 300620 | 310615
21 | 69:01.41 | 3:46.55 | 310616 | 327620
22 | 72:48.21 | 6:32.46 | 327621 | 357066


Track 1

Filename C:\Users\Mike\Desktop\CD RIPS\Super Furry Animals - 2021 - Rings Around The World (3CD Deluxe 20th Anniversary Re-Issue)\CD2\01 - Gypsy Space Muffin.wav

Pre-gap length 0:00:02.00

Peak level 98.0 %
Extraction speed 1.7 X
Track quality 99.9 %
Test CRC B94B7738
Copy CRC B94B7738
Track not present in AccurateRip database
Copy OK

Track 2

Filename C:\Users\Mike\Desktop\CD RIPS\Super Furry Animals - 2021 - Rings Around The World (3CD Deluxe 20th Anniversary Re-Issue)\CD2\02 - John Spex.wav

Peak level 96.6 %
Extraction speed 2.2 X
Track quality 100.0 %
Test CRC 79561AD2
Copy CRC 79561AD2
Track not present in AccurateRip database
Copy OK

Track 3

Filename C:\Users\Mike\Desktop\CD RIPS\Super Furry Animals - 2021 - Rings Around The World (3CD Deluxe 20th Anniversary Re-Issue)\CD2\03 - Miami Vice.wav

Peak level 95.7 %
Extraction speed 2.7 X
Track quality 100.0 %
Test CRC 46F67991
Copy CRC 46F67991
Track not present in AccurateRip database
Copy OK

Track 4

Filename C:\Users\Mike\Desktop\CD RIPS\Super Furry Animals - 2021 - Rings Around The World (3CD Deluxe 20th Anniversary Re-Issue)\CD2\04 - Sanitised (Rough Mix).wav

Peak level 96.5 %
Extraction speed 2.5 X
Track quality 100.0 %
Test CRC D8C85449
Copy CRC D8C85449
Track not present in AccurateRip database
Copy OK

Track 5

Filename C:\Users\Mike\Desktop\CD RIPS\Super Furry Animals - 2021 - Rings Around The World (3CD Deluxe 20th Anniversary Re-Issue)\CD2\05 - Chihuahua (Unfinished, Rough Mix).wav

Peak level 96.2 %
Extraction speed 3.0 X
Track quality 100.0 %
Test CRC 891CC1CF
Copy CRC 891CC1CF
Track not present in AccurateRip database
Copy OK

Track 6

Filename C:\Users\Mike\Desktop\CD RIPS\Super Furry Animals - 2021 - Rings Around The World (3CD Deluxe 20th Anniversary Re-Issue)\CD2\06 - (Drawing) Rings Around The World #1.wav

Pre-gap length 0:01:59.01

Peak level 95.3 %
Extraction speed 1.5 X
Track quality 100.0 %
Test CRC 554F9CC6
Copy CRC 554F9CC6
Track not present in AccurateRip database
Copy OK

Track 7

Filename C:\Users\Mike\Desktop\CD RIPS\Super Furry Animals - 2021 - Rings Around The World (3CD Deluxe 20th Anniversary Re-Issue)\CD2\07 - (Drawing) Rings Around The World #2.wav

Peak level 95.6 %
Extraction speed 2.5 X
Track quality 100.0 %
Test CRC 3AF809AF
Copy CRC 3AF809AF
Track not present in AccurateRip database
Copy OK

Track 8

Filename C:\Users\Mike\Desktop\CD RIPS\Super Furry Animals - 2021 - Rings Around The World (3CD Deluxe 20th Anniversary Re-Issue)\CD2\08 - (Drawing) Rings Around The World #3.wav

Peak level 95.9 %
Extraction speed 2.6 X
Track quality 100.0 %
Test CRC CD1995B6
Copy CRC CD1995B6
Track not present in AccurateRip database
Copy OK

Track 9

Filename C:\Users\Mike\Desktop\CD RIPS\Super Furry Animals - 2021 - Rings Around The World (3CD Deluxe 20th Anniversary Re-Issue)\CD2\09 - No Sympathy.wav

Peak level 95.9 %
Extraction speed 2.4 X
Track quality 99.9 %
Test CRC 4BC1E436
Copy CRC 4BC1E436
Track not present in AccurateRip database
Copy OK

Track 10

Filename C:\Users\Mike\Desktop\CD RIPS\Super Furry Animals - 2021 - Rings Around The World (3CD Deluxe 20th Anniversary Re-Issue)\CD2\10 - Tradewinds.wav

Peak level 96.3 %
Extraction speed 3.2 X
Track quality 100.0 %
Test CRC 729E4D68
Copy CRC 729E4D68
Track not present in AccurateRip database
Copy OK

Track 11

Filename C:\Users\Mike\Desktop\CD RIPS\Super Furry Animals - 2021 - Rings Around The World (3CD Deluxe 20th Anniversary Re-Issue)\CD2\11 - Receptacle For The Respectable #1.wav

Peak level 96.0 %
Extraction speed 3.0 X
Track quality 100.0 %
Test CRC 01844660
Copy CRC 01844660
Track not present in AccurateRip database
Copy OK

Track 12

Filename C:\Users\Mike\Desktop\CD RIPS\Super Furry Animals - 2021 - Rings Around The World (3CD Deluxe 20th Anniversary Re-Issue)\CD2\12 - Receptacle For The Respectable #2.wav

Peak level 96.3 %
Extraction speed 3.0 X
Track quality 100.0 %
Test CRC 7F543EDC
Copy CRC 7F543EDC
Track not present in AccurateRip database
Copy OK

Track 13

Filename C:\Users\Mike\Desktop\CD RIPS\Super Furry Animals - 2021 - Rings Around The World (3CD Deluxe 20th Anniversary Re-Issue)\CD2\13 - Happiness Is A Worn Pun.wav

Peak level 97.0 %
Extraction speed 2.7 X
Track quality 100.0 %
Test CRC 733BF690
Copy CRC 733BF690
Track not present in AccurateRip database
Copy OK

Track 14

Filename C:\Users\Mike\Desktop\CD RIPS\Super Furry Animals - 2021 - Rings Around The World (3CD Deluxe 20th Anniversary Re-Issue)\CD2\14 - Sidewalk Serfer Girl.wav

Peak level 95.5 %
Extraction speed 1.5 X
Track quality 100.0 %
Test CRC 8EFE9B14
Copy CRC 8EFE9B14
Track not present in AccurateRip database
Copy OK

Track 15

Filename C:\Users\Mike\Desktop\CD RIPS\Super Furry Animals - 2021 - Rings Around The World (3CD Deluxe 20th Anniversary Re-Issue)\CD2\15 - Presidential Suite.wav

Peak level 96.3 %
Extraction speed 2.3 X
Track quality 99.9 %
Test CRC BB05DF29
Copy CRC BB05DF29
Track not present in AccurateRip database
Copy OK

Track 16

Filename C:\Users\Mike\Desktop\CD RIPS\Super Furry Animals - 2021 - Rings Around The World (3CD Deluxe 20th Anniversary Re-Issue)\CD2\16 - The Roman Road.wav

Peak level 96.2 %
Extraction speed 2.7 X
Track quality 99.9 %
Test CRC 3CF7538C
Copy CRC 3CF7538C
Track not present in AccurateRip database
Copy OK

Track 17

Filename C:\Users\Mike\Desktop\CD RIPS\Super Furry Animals - 2021 - Rings Around The World (3CD Deluxe 20th Anniversary Re-Issue)\CD2\17 - Patience #2.wav

Peak level 96.0 %
Extraction speed 2.8 X
Track quality 99.9 %
Test CRC 4DAFA647
Copy CRC 4DAFA647
Track not present in AccurateRip database
Copy OK

Track 18

Filename C:\Users\Mike\Desktop\CD RIPS\Super Furry Animals - 2021 - Rings Around The World (3CD Deluxe 20th Anniversary Re-Issue)\CD2\18 - Shoot Doris Day.wav

Peak level 96.3 %
Extraction speed 3.7 X
Track quality 100.0 %
Test CRC E7B89956
Copy CRC E7B89956
Track not present in AccurateRip database
Copy OK

Track 19

Filename C:\Users\Mike\Desktop\CD RIPS\Super Furry Animals - 2021 - Rings Around The World (3CD Deluxe 20th Anniversary Re-Issue)\CD2\19 - Edam Anchorman.wav

Peak level 96.1 %
Extraction speed 3.5 X
Track quality 100.0 %
Test CRC 32442799
Copy CRC 32442799
Track not present in AccurateRip database
Copy OK

Track 20

Filename C:\Users\Mike\Desktop\CD RIPS\Super Furry Animals - 2021 - Rings Around The World (3CD Deluxe 20th Anniversary Re-Issue)\CD2\20 - Sanitised.wav

Peak level 96.8 %
Extraction speed 3.5 X
Track quality 100.0 %
Test CRC 100ADA01
Copy CRC 100ADA01
Track not present in AccurateRip database
Copy OK

Track 21

Filename C:\Users\Mike\Desktop\CD RIPS\Super Furry Animals - 2021 - Rings Around The World (3CD Deluxe 20th Anniversary Re-Issue)\CD2\21 - Fragile Happiness.wav

Peak level 95.3 %
Extraction speed 2.7 X
Track quality 99.9 %
Test CRC 985FC284
Copy CRC 985FC284
Track not present in AccurateRip database
Copy OK

Track 22

Filename C:\Users\Mike\Desktop\CD RIPS\Super Furry Animals - 2021 - Rings Around The World (3CD Deluxe 20th Anniversary Re-Issue)\CD2\22 - Tradewinds.wav

Pre-gap length 0:01:15.41

Peak level 99.3 %
Extraction speed 4.3 X
Track quality 100.0 %
Test CRC 0C017571
Copy CRC 0C017571
Track not present in AccurateRip database
Copy OK


None of the tracks are present in the AccurateRip database

No errors occurred

End of status report

–– CUETools DB Plugin V2.1.6

[CTDB TOCID: i0PccoCzlbH9B._OUNYeIlAhXPc-] found
Submit result: i0PccoCzlbH9B._OUNYeIlAhXPc- has been confirmed
Track | CTDB Status
1 | (3/3) Accurately ripped
2 | (3/3) Accurately ripped
3 | (3/3) Accurately ripped
4 | (3/3) Accurately ripped
5 | (3/3) Accurately ripped
6 | (3/3) Accurately ripped
7 | (3/3) Accurately ripped
8 | (3/3) Accurately ripped
9 | (3/3) Accurately ripped
10 | (3/3) Accurately ripped
11 | (3/3) Accurately ripped
12 | (3/3) Accurately ripped
13 | (3/3) Accurately ripped
14 | (3/3) Accurately ripped
15 | (3/3) Accurately ripped
16 | (3/3) Accurately ripped
17 | (3/3) Accurately ripped
18 | (3/3) Accurately ripped
19 | (3/3) Accurately ripped
20 | (3/3) Accurately ripped
21 | (3/3) Accurately ripped
22 | (3/3) Accurately ripped


==== Log checksum 22B8A771F2FAE66B8E241432C14F71F54F6FD6C1EE253BE9D561B202427600A0 ====

Exact Audio Copy V1.3 from 2. September 2016

EAC extraction logfile from 4. September 2021, 12:30

Super Furry Animals / Rings Around The World

Used drive : TSSTcorpCDDVDW SH-S223F Adapter: 1 ID: 0

Read mode : Secure
Utilize accurate stream : Yes
Defeat audio cache : Yes
Make use of C2 pointers : No

Read offset correction : 6
Overread into Lead-In and Lead-Out : No
Fill up missing offset samples with silence : Yes
Delete leading and trailing silent blocks : No
Null samples used in CRC calculations : Yes
Used interface : Native Win32 interface for Win NT & 2000
Gap handling : Appended to previous track

Used output format : User Defined Encoder
Selected bitrate : 1024 kBit/s
Quality : High
Add ID3 tag : No
Command line compressor : C:\Program Files (x86)\Exact Audio Copy\Flac\flac.exe
Additional command line options : -8 -V -T "ARTIST=%artist%" -T "TITLE=%title%" -T "ALBUM=%albumtitle%" -T "DATE=%year%" -T "TRACKNUMBER=%tracknr%" -T "GENRE=%genre%" -T "PERFORMER=%albuminterpret%" -T "COMPOSER=%composer%" %haslyrics%–tag-from-file=LYRICS="%lyricsfile%"%haslyrics% -T "ALBUMARTIST=%albumartist%" -T "DISCNUMBER=%cdnumber%" -T "TOTALDISCS=%totalcds%" -T "TOTALTRACKS=%numtracks%" -T "COMMENT=%comment%" %source% -o %dest%


TOC of the extracted CD

Track | Start | Length | Start sector | End sector
––––––––––––––––––––––––––––-
1 | 0:00.00 | 6:56.33 | 0 | 31232
2 | 6:56.33 | 1:54.63 | 31233 | 39845
3 | 8:51.21 | 3:31.37 | 39846 | 55707
4 | 12:22.58 | 3:50.35 | 55708 | 72992
5 | 16:13.18 | 2:09.27 | 72993 | 82694
6 | 18:22.45 | 7:47.50 | 82695 | 117769
7 | 26:10.20 | 4:06.10 | 117770 | 136229
8 | 30:16.30 | 0:42.14 | 136230 | 139393
9 | 30:58.44 | 4:41.56 | 139394 | 160524
10 | 35:40.25 | 3:22.13 | 160525 | 175687
11 | 39:02.38 | 4:07.74 | 175688 | 194286
12 | 43:10.37 | 7:16.52 | 194287 | 227038
13 | 50:27.14 | 3:56.61 | 227039 | 244799
14 | 54:24.00 | 25:12.15 | 244800 | 358214


Track 1

Filename C:\Users\Mike\Desktop\CD RIPS\Super Furry Animals - 2021 - Rings Around The World (3CD Deluxe 20th Anniversary Re-Issue)\CD3\01 - Alternate Route To Vulcan Street (Bench Remix).wav

Pre-gap length 0:00:02.00

Peak level 97.9 %
Extraction speed 5.2 X
Track quality 100.0 %
Test CRC 2E94EEB6
Copy CRC 2E94EEB6
Track not present in AccurateRip database
Copy OK

Track 2

Filename C:\Users\Mike\Desktop\CD RIPS\Super Furry Animals - 2021 - Rings Around The World (3CD Deluxe 20th Anniversary Re-Issue)\CD3\02 - Sidewalk Serfer Girl (Catatonia Remix).wav

Peak level 97.7 %
Extraction speed 3.3 X
Track quality 99.9 %
Test CRC 264EBDB8
Copy CRC 264EBDB8
Track not present in AccurateRip database
Copy OK

Track 3

Filename C:\Users\Mike\Desktop\CD RIPS\Super Furry Animals - 2021 - Rings Around The World (3CD Deluxe 20th Anniversary Re-Issue)\CD3\03 - (Drawing) Rings Around The World (Happy Chapel Remix).wav

Peak level 79.4 %
Extraction speed 4.5 X
Track quality 99.9 %
Test CRC 4DB5C5BB
Copy CRC 4DB5C5BB
Track not present in AccurateRip database
Copy OK

Track 4

Filename C:\Users\Mike\Desktop\CD RIPS\Super Furry Animals - 2021 - Rings Around The World (3CD Deluxe 20th Anniversary Re-Issue)\CD3\04 - It's Not the End Of The World (Force Unknown Remix).wav

Peak level 97.9 %
Extraction speed 6.0 X
Track quality 100.0 %
Test CRC 886E5E02
Copy CRC 886E5E02
Track not present in AccurateRip database
Copy OK

Track 5

Filename C:\Users\Mike\Desktop\CD RIPS\Super Furry Animals - 2021 - Rings Around The World (3CD Deluxe 20th Anniversary Re-Issue)\CD3\05 - Receptacle For The Respectable (Destructable Mix).wav

Peak level 77.7 %
Extraction speed 5.6 X
Track quality 100.0 %
Test CRC 21B231EC
Copy CRC 21B231EC
Track not present in AccurateRip database
Copy OK

Track 6

Filename C:\Users\Mike\Desktop\CD RIPS\Super Furry Animals - 2021 - Rings Around The World (3CD Deluxe 20th Anniversary Re-Issue)\CD3\06 - [A] Touch Sensitive (Force Unknown Remix).wav

Peak level 97.9 %
Extraction speed 7.1 X
Track quality 100.0 %
Test CRC 6B94A093
Copy CRC 6B94A093
Track not present in AccurateRip database
Copy OK

Track 7

Filename C:\Users\Mike\Desktop\CD RIPS\Super Furry Animals - 2021 - Rings Around The World (3CD Deluxe 20th Anniversary Re-Issue)\CD3\07 - Shoot Doris Day (Wauvenfold Remix).wav

Peak level 97.9 %
Extraction speed 7.2 X
Track quality 100.0 %
Test CRC 924DDE53
Copy CRC 924DDE53
Track not present in AccurateRip database
Copy OK

Track 8

Filename C:\Users\Mike\Desktop\CD RIPS\Super Furry Animals - 2021 - Rings Around The World (3CD Deluxe 20th Anniversary Re-Issue)\CD3\08 - Miniature (Goem Remix).wav

Peak level 97.9 %
Extraction speed 4.2 X
Track quality 100.0 %
Test CRC 97155EBF
Copy CRC 97155EBF
Track not present in AccurateRip database
Copy OK

Track 9

Filename C:\Users\Mike\Desktop\CD RIPS\Super Furry Animals - 2021 - Rings Around The World (3CD Deluxe 20th Anniversary Re-Issue)\CD3\09 - No Sympathy (Kid 606 Remix).wav

Peak level 97.9 %
Extraction speed 7.5 X
Track quality 100.0 %
Test CRC CD760260
Copy CRC CD760260
Track not present in AccurateRip database
Copy OK

Track 10

Filename C:\Users\Mike\Desktop\CD RIPS\Super Furry Animals - 2021 - Rings Around The World (3CD Deluxe 20th Anniversary Re-Issue)\CD3\10 - Juxtapozed With U (SFA Remix).wav

Peak level 99.6 %
Extraction speed 5.8 X
Track quality 99.9 %
Test CRC 86CC829A
Copy CRC 86CC829A
Track not present in AccurateRip database
Copy OK

Track 11

Filename C:\Users\Mike\Desktop\CD RIPS\Super Furry Animals - 2021 - Rings Around The World (3CD Deluxe 20th Anniversary Re-Issue)\CD3\11 - Presidential Suite (High Llamas Remix).wav

Peak level 89.1 %
Extraction speed 6.4 X
Track quality 99.9 %
Test CRC 990180CB
Copy CRC 990180CB
Track not present in AccurateRip database
Copy OK

Track 12

Filename C:\Users\Mike\Desktop\CD RIPS\Super Furry Animals - 2021 - Rings Around The World (3CD Deluxe 20th Anniversary Re-Issue)\CD3\12 - Run! Christian, Run! (Massimo Remix).wav

Peak level 97.9 %
Extraction speed 8.9 X
Track quality 100.0 %
Test CRC 7A737725
Copy CRC 7A737725
Track not present in AccurateRip database
Copy OK

Track 13

Filename C:\Users\Mike\Desktop\CD RIPS\Super Furry Animals - 2021 - Rings Around The World (3CD Deluxe 20th Anniversary Re-Issue)\CD3\13 - Fragile Happiness (Brave Captain Remix).wav

Peak level 97.9 %
Extraction speed 8.5 X
Track quality 100.0 %
Test CRC A2441222
Copy CRC A2441222
Track not present in AccurateRip database
Copy OK

Track 14

Filename C:\Users\Mike\Desktop\CD RIPS\Super Furry Animals - 2021 - Rings Around The World (3CD Deluxe 20th Anniversary Re-Issue)\CD3\14 - Hidden Track.wav

Peak level 95.9 %
Extraction speed 8.1 X
Track quality 99.9 %
Test CRC 2991099A
Copy CRC 2991099A
Track not present in AccurateRip database
Copy OK


None of the tracks are present in the AccurateRip database

No errors occurred

End of status report

–– CUETools DB Plugin V2.1.6

[CTDB TOCID: v3qpQyEWd4Cmb9AIhvc6efODcuc-] found
Submit result: v3qpQyEWd4Cmb9AIhvc6efODcuc- has been confirmed
Track | CTDB Status
1 | (3/3) Accurately ripped
2 | (3/3) Accurately ripped
3 | (3/3) Accurately ripped
4 | (3/3) Accurately ripped
5 | (3/3) Accurately ripped
6 | (3/3) Accurately ripped
7 | (3/3) Accurately ripped
8 | (3/3) Accurately ripped
9 | (3/3) Accurately ripped
10 | (3/3) Accurately ripped
11 | (3/3) Accurately ripped
12 | (3/3) Accurately ripped
13 | (3/3) Accurately ripped
14 | (3/3) Accurately ripped


==== Log checksum F09F72737504CD219CF44697A176F9B1AE6511B6250D4C69284BFE993E1BA9A7 ====

Tracklist ::::
CD1
01. Alternate Route To Vulcan Street (4:31)
02. Sidewalk Serfer Girl (4:01)
03. (Drawing) Rings Around The World (3:30)
04. It's Not The End Of The World? (3:26)
05. Receptacle For The Respectable (4:33)
06. (A) Touch Sensitive (3:08)
07. Shoot Doris Day (3:38)
08. Miniature (0:41)
09. No Sympathy (6:58)
10. Juxtapozed With U (3:10)
11. Presidential Suite (5:23)
12. Run! Christian, Run! (7:20)
13. Fragile Happiness (3:52)
14. Tradewinds (5:34)
15. The Roman Road (6:02)
16. Happiness Is A Worn Pun (3:18)
17. Patience (4:05)
18. Edam Anchorman (3:22)
19. All The Shit U Do (2:32)

CD2
01. Gypsy Space Muffin (3:41)
02. John Spex (5:13)
03. Miami Vice (10:00)
04. Sanitised (Rough Mix) (2:58)
05. Chihuahua (Unfinished, Rough Mix) (6:48)
06. (Drawing) Rings Around The World #1 (0:34)
07. (Drawing) Rings Around The World #2 (1:49)
08. (Drawing) Rings Around The World #3 (1:59)
09. No Sympathy (4:01)
10. Tradewinds (3:44)
11. Receptacle For The Respectable #1 (2:17)
12. Receptacle For The Respectable #2 (2:20)
13. Happiness Is A Worn Pun (2:39)
14. Sidewalk Serfer Girl (0:23)
15. Presidential Suite (2:53)
16. The Roman Road (4:24)
17. Patience #2 (4:23)
18. Shoot Doris Day (3:45)
19. Edam Anchorman (2:55)
20. Sanitised (2:13)
21. Fragile Happiness (3:47)
22. Tradewinds (6:33)

CD3
01. Alternate Route To Vulcan Street (Bench Remix) (6:56)
02. Sidewalk Serfer Girl (Catatonia Remix) (1:55)
03. (Drawing) Rings Around The World (Happy Chapel Remix) (3:31)
04. It's Not the End Of The World? (Force Unknown Remix) (3:50)
05. Receptacle For The Respectable (Destructable Mix) (2:09)
06. [A] Touch Sensitive (Force Unknown Remix) (7:48)
07. Shoot Doris Day (Wauvenfold Remix) (4:06)
08. Miniature (Goem Remix) (0:42)
09. No Sympathy (Kid 606 Remix) (4:42)
10. Juxtapozed With U (SFA Remix) (3:22)
11. Presidential Suite (High Llamas Remix) (4:08)
12. Run! Christian, Run! (Massimo Remix) (7:17)
13. Fragile Happiness (Brave Captain Remix) (3:57)
14. Hidden Track (25:12)